John Gary - Holding Your Mind (1968/2018) [Official Digital Download 24-bit/192kHz]

Posted By: HDV
John Gary - Holding Your Mind (1968/2018) [Official Digital Download 24-bit/192kHz]

John Gary - Holding Your Mind (1968/2018)
FLAC (tracks) 24-bit/192 kHz | Time - 36:28 minutes | 1,47 GB
Studio Master, Official Digital Download | Artwork: Front cover

A pleasing vocalist with a warm delivery reminiscent of Andy Williams or Tony Bennett, John Gary unfortunately came along just at the beginning of the British Invasion and never managed to make much of an impression on the adult vocal audience. This album have been released for RCA Victor label in October 1968.

Simplicity can be quite effective especially if it's in the hand of such a knowlegeable singer as John Gary. "MacArthur Park", "Little Green Apples", "Saturday Night at the World", and "You'd Better Sit Down Kids" have a quiet but long-lasting force.

Tracklist:

01 - You'd Better Sit Down Kids
02 - Didn't We
03 - If I Promise
04 - Saturday Night at the World
05 - How Old Am I Today
06 - Little Green Apples
07 - MacArthur Park
08 - You Wouldn't Know a Good Thing
09 - The Zebra
10 - Here I Am
11 - One Red Rose

Arranged & Conducted by Dick Grove
Produced by Jack Pleis.

Analyzed: John Gary / Holding Your Mind
––––––––––––––––––––––––––––––––––––––––

DR Peak RMS Duration Track
––––––––––––––––––––––––––––––––––––––––
DR9 -0.42 dB -10.92 dB 3:41 01-You'd Better Sit Down Kids
DR10 -0.42 dB -13.42 dB 2:45 02-Didn't We
DR9 -0.42 dB -11.72 dB 2:25 03-If I Promise
DR10 -0.42 dB -12.42 dB 3:23 04-Saturday Night at the World
DR10 -0.42 dB -12.75 dB 6:18 05-How Old Am I Today
DR11 -0.42 dB -13.10 dB 3:49 06-Little Green Apples
DR9 -0.42 dB -11.97 dB 3:05 07-MacArthur Park
DR9 -0.42 dB -11.51 dB 2:19 08-You Wouldn't Know a Good Thing
DR11 -1.25 dB -16.66 dB 3:12 09-The Zebra
DR9 -0.42 dB -12.20 dB 3:01 10-Here I Am
DR8 -0.42 dB -11.05 dB 2:31 11-One Red Rose
––––––––––––––––––––––––––––––––––––––––

Number of tracks: 11
Official DR value: DR10

Samplerate: 192000 Hz
Channels: 2
Bits per sample: 24
Bitrate: 5586 kbps
Codec: FLAC
================================================================================


Thanks to the Original customer!