Mariss Jansons, Royal Concertgebouw Orchestra - Mahler: Symphony No.5 (2008) MCH SACD ISO + Hi-Res FLAC

Posted By: HDAtall
Mariss Jansons, Royal Concertgebouw Orchestra - Mahler: Symphony No.5 (2008) MCH SACD ISO + Hi-Res FLAC

Mariss Jansons, Royal Concertgebouw Orchestra - Mahler: Symphony No. 5 (2008)
SACD Rip | SACD ISO | DST64 2.0 & 5.0 > 1-bit/2.8224 MHz | 71:39 minutes | Digital Booklet | 3,5 GB
or FLAC 2.0 Stereo (converted with foobar2000 to tracks) 24bit/88,2 kHz | Digital Booklet | 1,28 GB

The Royal Concertgebouw Orchestra and chief conductor Mariss Jansons have a long and cherished history performing the music of Gustav Mahler, whose compositions have become a staple of the RCO's repertoire. These live recordings of Mahler's majestic Symphony No. 5 are drawn from concerts presented in late 2007 and early 2008, commemorating the 120th anniversary of the RCO's first performance. On this album Jansons underscores more than ever the symphony's narrative, poetic side.

One of the most frequently recorded works in the hybrid SACD format is Gustav Mahler's Symphony No. 5 in C sharp minor, for the apparent reason that it is one of the most vibrantly orchestrated, expressively varied, and astonishing-sounding symphonies in the repertoire, to say nothing of being one of the composer's most characteristic and popular compositions. So when Mariss Jansons and the Royal Concertgebouw Orchestra present their live version in a state-of-the-art recording, it is with the sure knowledge that it's up against massive competition, with virtually every new conductor adding a spectacular version to the catalog, and even some old multichannel recordings are being revived. While Jansons holds his own as an original and insightful interpreter of Mahler, and the RCO plays with assurance and excitement, this rendition only falls short of being truly impressive by offering slightly less than spectacular sound. Even though one must put up with small annoyances, such as occasional rhythmic inaccuracies and Jansons' periodic humming during exposed lyrical passages, this could have been a terrific recording if RCO Live had captured the orchestra's sonorities more vividly, and done so with a cleaner audio. In really quiet moments, there is the faintest trace of hiss that any attentive listener can pick up, and this can be a drawback for audiophiles who demand the finest digital. But when individual instruments lack a penetrating tone and the climaxes don't blaze, it might actually be attributable to some decisions made at the mixing board, and listeners will feel that loss in too many places of realistic sound, even if they give Jansons and the RCO the benefit of the doubt in other regards.

Tracklist:

01 - Erste Abteilung. Trauermarsch: In gemessenem Schritt. String. Wie ein Kondukt
02 - Erste Abteilung. Stürmisch Bewegt: Mit grösster Vehemenz
03 - Zweite Abteilung. Scherzo: Kräftig, nicht zu schnell
04 - Dritte Abteilung. Adagietto: Sehr langsam
05 - Dritte Abteilung. Rondo-Finale: Allegro
06 - Applause

Recorded live at Concertgebouw Amsterdam on October 18 & 21, 2007 & January 16-17, 2008.

Personnel
Royal Concertgebouw Orchestra
Mariss Jansons - conductor

foobar2000 1.3.17 / Dynamic Range Meter 1.1.1

––––––––––––––––––––––––––––––––––––––––
Analyzed: Mariss Jansons & Royal Concertgebouw Orchestra / Mahler - Symphony No. 5
––––––––––––––––––––––––––––––––––––––––

DR Peak RMS Duration Track
––––––––––––––––––––––––––––––––––––––––
DR15 -4.00 dB -27.47 dB 12:24 01-Symphony No. 5 - Trauermarsch: In gemessenem Schritt. Streng. Wie ein Kondukt
DR15 -4.39 dB -26.18 dB 15:02 02-Symphony No. 5 - St?misch Bewegt: Mit gr?ster Vehemenz
DR17 -5.58 dB -29.23 dB 18:41 03-Symphony No. 5 - Scherzo: Kr?tig, nicht zu schnell
DR13 -14.18 dB -36.23 dB 9:17 04-Symphony No. 5 - Adagietto: Sehr langsam
DR15 -4.17 dB -26.55 dB 15:46 05-Symphony No. 5 - Rondo-Finale: Allegro
DR10 -8.45 dB -26.09 dB 0:29 06-Applause
––––––––––––––––––––––––––––––––––––––––

Number of tracks: 6
Official DR value: DR14

Samplerate: 2822400 Hz / PCM Samplerate: 88200 Hz
Channels: 5
Bits per sample: 1
Bitrate: 14112 kbps
Codec: DST64
================================================================================

––––––––––––––––––––––––––––––––––––––––
Analyzed: Mariss Jansons & Royal Concertgebouw Orchestra / Mahler - Symphony No. 5
––––––––––––––––––––––––––––––––––––––––

DR Peak RMS Duration Track
––––––––––––––––––––––––––––––––––––––––
DR15 -3.95 dB -25.24 dB 12:24 01-Symphony No. 5 - Trauermarsch: In gemessenem Schritt. Streng. Wie ein Kondukt
DR15 -3.96 dB -23.86 dB 15:02 02-Symphony No. 5 - St?misch Bewegt: Mit gr?ster Vehemenz
DR16 -3.98 dB -26.82 dB 18:41 03-Symphony No. 5 - Scherzo: Kr?tig, nicht zu schnell
DR14 -12.99 dB -33.87 dB 9:17 04-Symphony No. 5 - Adagietto: Sehr langsam
DR15 -3.98 dB -24.13 dB 15:46 05-Symphony No. 5 - Rondo-Finale: Allegro
DR11 -7.30 dB -22.95 dB 0:29 06-Applause
––––––––––––––––––––––––––––––––––––––––

Number of tracks: 6
Official DR value: DR14

Samplerate: 2822400 Hz / PCM Samplerate: 88200 Hz
Channels: 2
Bits per sample: 1
Bitrate: 5645 kbps
Codec: DST64


Thanks to the Original ripper!
Uncompressed SACD ISO size > 3,33 GB

Mariss Jansons, Royal Concertgebouw Orchestra - Rachmaninoff: Symphony No.2
Mariss Jansons, Royal Concertgebouw Orchestra - Mahler: Symphony No.3
Mariss Jansons, Royal Concertgebouw Orchestra - Mahler: Symphony No.4
>