Mariss Jansons, Royal Concertgebouw Orchestra - Mahler: Symphony No. 6 + Henze: Sebastian im Traum (2006) MCH SACD ISO + FLAC

Posted By: HDAtall
Mariss Jansons, Royal Concertgebouw Orchestra - Mahler: Symphony No. 6 + Henze: Sebastian im Traum (2006) MCH SACD ISO + FLAC

Mariss Jansons, Royal Concertgebouw Orchestra - Mahler: Symphony No.6 / Henze: Sebastian im Traum (2006)
SACD Rip | 2x SACD ISO | DST64 2.0 & 5.0 > 1-bit/2.8224 MHz | 98:11 minutes | Digital Booklet | 5,6 GB
or FLAC 2.0 Stereo (converted with foobar2000 to tracks) 24bit/88,2 kHz | Digital Booklet | 1,87 GB

Mariss Jansons joins one of the greatest Mahler traditions in the world with his first album leading the Royal Concertgebouw Orchestra on a Mahler symphony. For this 2005 live recording, Jansons and the RCO provide a superbly impressive performance of Mahler’s Sixth Symphony, one of the greatest and most dramatic of Mahler’s works. The programme also includes the world premiere of Hans Werner Henze’s Sebastian im Traum.

While the Royal Concertgebouw's RCO Live was still a bit green, it was clear there was great potential if the label could polish things up a bit. The orchestra ushered in Mariss Jansons' tenure as music director in the fall of 2004 with a release of his opening concert there: a performance of Strauss' Ein Heldenleben. The label has continued to release a number of classics, such as Dvorák's New World Symphony, the second symphonies of both Brahms and Sibelius, Bruckner's Eighth, and a disc that features Rachmaninov's Symphonic Dances and Stravinsky's Petrouchka. This is the first release to include a contemporary work, and here RCO Live has wisely paired it with the venerable Sixth Symphony by Gustav Mahler.

Jansons has also recorded Mahler's Sixth with the London Symphony (similarly) on its LSO Live label in 2002: their account is a little more brazen and seems to take a few more risks than the one here. It's also a little leaner: this new recording clocks in at just under three minutes longer than his earlier effort. While Jansons' performance here is not outstanding, it does seem to embody the spirit of Mahler with strong characterization, scrupulous attention to detail, and a broad emotional palette. For whatever reason, though, this performance still leaves an aftertaste of emptiness akin to an ultra-light, low-carbohydrate beer.

Political dissident Hans Werner Henze's Sebastian im Traum makes this disc worthwhile, though: a co-commission between the Concertgebouw and the New York Philharmonic, this piece came to fruition in 2004. Henze's deeply reflective, brooding harmonies are enchanting, as are his twisting and exotic melodic figures. The work is based on the expressionist poetry of Georg Trakl, an Austrian poet and contemporary of Mahler's. Unfortunately, without doing their own research, listeners won't be able to grasp the profundity of the poetry: there are no translations (only the native German) in the liner notes. Much of the poetry is underpinned with death; understanding it is paramount to maximizing the powerful emotions of this brief (though stunning) 15-minute work.

RCO Live's sound is difficult to pinpoint: while deep (proof is readily offered at any climactic moment in the Mahler), there is a quality about the sound that is cold, compressed, and conversely shallow. This disc will be of great interest primarily for the Henze; Mahler aficionados may do well to look elsewhere.

Tracklist:

01. Symphony No. 6 in A Minor, "Tragic" : I. Allegro energico, ma non troppo. Heftig, aber markig
02. Symphony No. 6 in A Minor, "Tragic" : II. Andante moderato
03. Symphony No. 6 in A Minor, "Tragic" : III. Scherzo Wuchtig
01. Symphony No. 6 in A Minor, "Tragic" : IV. Finale Allegro moderato - energico
02. Sebastian im Traum : I. Quarter note = circa 80
03. Sebastian im Traum : II. Ruhig fliessend
04. Sebastian im Traum : III. Quarter note = 66

Produced, Engineered & edited by Everett Porter.
Recorded live at Concertgebouw Amsterdam on August 22 & September 7-8, 2005 (Mahler)
and December 22-23, 2005 (Henze)

Personnel
Royal Concertgebouw Orchestra
Mariss Jansons - conductor

foobar2000 1.3.17 / Dynamic Range Meter 1.1.1

––––––––––––––––––––––––––––––––––––––––
Analyzed: Royal Concertgebouw Orchestra, Mariss Jansons chief conductor / Mahler - Symphony No. 6, Henze - Sebastian im Traum
––––––––––––––––––––––––––––––––––––––––

DR Peak RMS Duration Track
––––––––––––––––––––––––––––––––––––––––
DR16 -5.39 dB -30.15 dB 23:45 01-Allegro energico, ma non troppo - Mahler - Symphony No. 6
DR16 -10.25 dB -35.84 dB 15:35 02-Andante moderato - Mahler - Symphony No. 6
DR15 -11.32 dB -34.66 dB 13:15 03-Scherzo: Wuchtig - Mahler - Symphony No. 6
––––––––––––––––––––––––––––––––––––––––

Number of tracks: 3
Official DR value: DR16

Samplerate: 2822400 Hz / PCM Samplerate: 88200 Hz
Channels: 5
Bits per sample: 1
Bitrate: 14112 kbps
Codec: DST64
================================================================================

––––––––––––––––––––––––––––––––––––––––
Analyzed: Royal Concertgebouw Orchestra, Mariss Jansons chief conductor / Mahler - Symphony No. 6, Henze - Sebastian im Traum
––––––––––––––––––––––––––––––––––––––––

DR Peak RMS Duration Track
––––––––––––––––––––––––––––––––––––––––
DR16 -5.67 dB -28.31 dB 23:45 01-Allegro energico, ma non troppo - Mahler - Symphony No. 6
DR16 -11.66 dB -34.25 dB 15:35 02-Andante moderato - Mahler - Symphony No. 6
DR15 -12.24 dB -33.12 dB 13:15 03-Scherzo: Wuchtig - Mahler - Symphony No. 6
––––––––––––––––––––––––––––––––––––––––

Number of tracks: 3
Official DR value: DR15

Samplerate: 2822400 Hz / PCM Samplerate: 88200 Hz
Channels: 2
Bits per sample: 1
Bitrate: 5645 kbps
Codec: DST64
================================================================================

foobar2000 1.3.17 / Dynamic Range Meter 1.1.1

––––––––––––––––––––––––––––––––––––––––
Analyzed: Royal Concertgebouw Orchestra, Mariss Jansons chief conductor / Mahler - Symphony No. 6, Henze - Sebastian im Traum
––––––––––––––––––––––––––––––––––––––––

DR Peak RMS Duration Track
––––––––––––––––––––––––––––––––––––––––
DR22 -2.63 dB -30.37 dB 31:13 01-Finale: Allegretto moderato - Mahler - Symphony No. 6
DR17 -10.20 dB -34.73 dB 4:45 02-Sebastian im Traum I - Henze
DR16 -5.99 dB -31.88 dB 6:19 03-Sebastian im Traum II Ruhig fliessend - Henze
DR17 -5.98 dB -32.37 dB 3:18 04-Sebastian im Traum III - Henze
––––––––––––––––––––––––––––––––––––––––

Number of tracks: 4
Official DR value: DR18

Samplerate: 2822400 Hz / PCM Samplerate: 88200 Hz
Channels: 5
Bits per sample: 1
Bitrate: 14112 kbps
Codec: DST64
================================================================================

––––––––––––––––––––––––––––––––––––––––
Analyzed: Royal Concertgebouw Orchestra, Mariss Jansons chief conductor / Mahler - Symphony No. 6, Henze - Sebastian im Traum
––––––––––––––––––––––––––––––––––––––––

DR Peak RMS Duration Track
––––––––––––––––––––––––––––––––––––––––
DR20 -2.52 dB -28.63 dB 31:13 01-Finale: Allegretto moderato - Mahler - Symphony No. 6
DR17 -8.23 dB -32.48 dB 4:45 02-Sebastian im Traum I - Henze
DR16 -6.13 dB -29.74 dB 6:19 03-Sebastian im Traum II Ruhig fliessend - Henze
DR17 -5.99 dB -30.30 dB 3:18 04-Sebastian im Traum III - Henze
––––––––––––––––––––––––––––––––––––––––

Number of tracks: 4
Official DR value: DR18

Samplerate: 2822400 Hz / PCM Samplerate: 88200 Hz
Channels: 2
Bits per sample: 1
Bitrate: 5645 kbps
Codec: DST64


Thanks to the Original ripper!
Uncompressed SACD ISO size > 2,91 + 2,4 GB

Mariss Jansons, Royal Concertgebouw Orchestra - Rachmaninoff: Symphony No.2
Mariss Jansons, Royal Concertgebouw Orchestra - Mahler: Symphony No.3
Mariss Jansons, Royal Concertgebouw Orchestra - Mahler: Symphony No.4
Mariss Jansons, Royal Concertgebouw Orchestra - Mahler: Symphony No.5
>