Paco de Lucia, Pedro Iturralde Quintet - Flamenco-Jazz (1967/2015) [Official Digital Download 24/88]

Posted By: HDV
Paco de Lucia, Pedro Iturralde Quintet - Flamenco-Jazz (1967/2015) [Official Digital Download 24/88]

Paco de Lucía, Pedro Iturralde Quintet - Flamenco-Jazz (1967/2015)
FLAC (tracks) 24-bit/88,2 kHz | Time - 43:04 minutes | 811 MB
Studio Master, Official Digital Download | Artwork: Front cover

Spanish saxophonist Pedro Iturralde, under the influence of Miles Davis's classic jazz flamenco fusion album Sketches of Spain, incorporated flamenco melodies in his repertoire as he toured Europe in the 1960s. Iturralde brought along a 19 year old flamenco musician named Paco de Lucía, who would become an international star as one of the greatest flamenco musicians of our time and would remain active in jazz until his death in 2014.

Jazz and flamenco first crossed paths not in Spain, but in the USA when Miles Davis and arranger/composer Gil Evans recorded “Sketches of Spain” in November 1959 and March 1960. It became one of the most successful jazz albums of all time. And the jazz musicians in Spain? They attempted to emulate – as did their colleagues world-wide – the American model.

Jazz stood for open-mindedness; national folklore was thought of as too parochial. Spanish saxophonist Pedro Iturralde was the only musician who, under the influence of “Sketches of Spain”, added a couple of flamenco melodies to his repertoire as he toured Europe accompanied by two Germans and a Swiss. That’s why Joachim-Ernst Berendt sought him out to play at the 1967 Berlin Jazz Festival. With the festival’s motto “Jazz Meets the World”, Berendt was looking for a jazz-flamenco combination to fit the bill. Since Berendt absolutely wanted a guitarist in the band, Iturralde came to Berlin with a 19 year old flamenco musician named Paco de Lucía. He would become an international star as one of the greatest flamenco musicians of our time, and continued to be involved with jazz until his death in February 2014. Paco de Lucía’s participation as a regular band member is what makes this MPS recording so appealing. Iturralde also brought Italian trombonist Dino Piana into the band for this recording as well as the Berlin Festival appearance. Today, Europe’s jazz musicians use the folk and classic music of their countries as sources of inspiration to help shape jazz in the 21st century.

Tracklist:

01 - Veleta de Tu Viento
02 - Cancion de las Penas de Amor
03 - El Vito
04 - El amor brujo (Love, the Magician): Cancion del Fuego Fatuo

Produced by Joachim Ernst Berendt. Engineered by Günter Topel.
Recorded on November 3, 1967 in Berlin, Germany.
Digitally remastered.

Musicians:
Paco De Lucia - flamenco guitar
Pedro Iturralde - tenor saxophone
Paul Grassl - piano
Dino Piana - trombone
Erich Peter - bass
Peer Wyboris - drums

Analyzed: Paco de Lucia / Pedro Iturralde Quintet / Flamenco-Jazz
––––––––––––––––––––––––––––––––––––––––

DR Peak RMS Duration Track
––––––––––––––––––––––––––––––––––––––––
DR15 -2.37 dB -22.39 dB 15:02 01-Veleta de Tu Viento
DR15 -4.58 dB -27.19 dB 7:36 02-Cancion de las Penas de Amor
DR15 -0.90 dB -20.88 dB 14:52 03-El Vito
DR15 -5.20 dB -24.44 dB 5:35 04-El amor brujo (Love, the Magician): Cancion del Fuego Fatuo
––––––––––––––––––––––––––––––––––––––––

Number of tracks: 4
Official DR value: DR15

Samplerate: 88200 Hz
Channels: 2
Bits per sample: 24
Bitrate: 2540 kbps
Codec: FLAC
================================================================================


Thanks to the Original customer!