Ray Charles - The Atlantic Studio Albums In Mono (2016) [Remastered] [Official Digital Download 24-bit/96kHz]

Posted By: HDV
Ray Charles - The Atlantic Studio Albums In Mono (2016) [Remastered] [Official Digital Download 24-bit/96kHz]

Ray Charles - The Atlantic Studio Albums In Mono (2016) [Remastered]
FLAC (tracks) 24-bit/96 kHz | Time - 257:01 minutes | 2,47 GB
Studio Mono Master, Official Digital Download | Artwork: Front cover

A music legend like no other, Ray Charles earned the nickname "Genius" for recording countless jazz, country, R&B and pop masterpieces during a career that spanned seven decades. This Box Set features mono mixes for the seven outstanding solo studio albums he recorded for Atlantic Records. For this new collection, the following albums have been fully remastered from the original mono analog tapes, echoing the experience of the era, when most fans were hearing music on record players, jukeboxes and radios that played music monaurally: Ray Charles (1957), The Great Ray Charles (1957), Yes, Indeed! (1958), What'd I Say (1959), The Genius Of Ray Charles (1959), The Genius After Hours (1961), and The Genius Sings The Blues (1961).


Ray Charles - The Atlantic Studio Albums In Mono (2016) [Remastered] [Official Digital Download 24-bit/96kHz]

Ray Charles - The Great Ray Charles (1957/2016)
FLAC (tracks) 24-bit/96 kHz | Time - 37:24 minutes | 403 MB
Studio Mono Master, Official Digital Download | Artwork: Front cover

This set is rather unusual, for it is strictly instrumental, allowing Ray Charles a rare opportunity to be a jazz-oriented pianist. Two selections are with a trio (bassist Oscar Pettiford joins Charles on "Black Coffee"), while the other six are with a septet taken from his big band of the period. Key among the sidemen are David Newman (soloing on both tenor and alto) and trumpeter Joseph Bridgewater; highlights include Quincy Jones' "The Ray," "My Melancholy Baby," "Doodlin'," and "Undecided." Ray Charles should have recorded in this setting more often in his later years.

Tracklist:

01 - The Ray
02 - My Melancholy Baby
03 - Black Coffee
04 - There's No You
05 - Doodlin'
06 - Sweet Sixteen Bars
07 - I Surrender Dear
08 - Undecided

Analyzed: Ray Charles / The Great Ray Charles (Mono, Remastered)
––––––––––––––––––––––––––––––––––––––––

DR Peak RMS Duration Track
––––––––––––––––––––––––––––––––––––––––
DR14 -1.20 dB -17.79 dB 4:01 01-The Ray
DR14 -1.00 dB -17.87 dB 4:23 02-My Melancholy Baby
DR13 -2.84 dB -19.66 dB 5:33 03-Black Coffee
DR15 -0.99 dB -21.01 dB 4:46 04-There's No You
DR16 -1.00 dB -19.39 dB 5:53 05-Doodlin'
DR16 -1.00 dB -20.50 dB 4:08 06-Sweet Sixteen Bars
DR16 -2.18 dB -23.37 dB 5:05 07-I Surrender Dear
DR15 -1.00 dB -18.97 dB 3:36 08-Undecided
––––––––––––––––––––––––––––––––––––––––

Number of tracks: 8
Official DR value: DR15

Samplerate: 96000 Hz
Channels: 2
Bits per sample: 24
Bitrate: 1481 kbps
Codec: FLAC
================================================================================



Ray Charles - The Atlantic Studio Albums In Mono (2016) [Remastered] [Official Digital Download 24-bit/96kHz]

Ray Charles - Ray Charles (1957/2016)
FLAC (tracks) 24-bit/96 kHz | Time - 41:47 minutes | 499 MB
Studio Mono Master, Official Digital Download | Artwork: Front cover

One of the first handful of LPs issued by Atlantic, Ray Charles (later retitled Hallelujah I Love Her So) is a bona fide classic of its genre. Weighted about three to one in favor of Charles' own compositions, its raison d'etre was the hits "Hallelujah I Love Her So" and the pounding, soaring "Ain't That Love," which opens the LP. As with other Atlantic albums of the period, its content was determined more by Charles' recent singles than by a real plan for the LP, but even within those limitations it's an amazingly subtle record. Charles does just as well with his interpretations of others' work, most notably the ominous, gospel-focused rendition of "Sinner's Prayer" (which offers a virtuoso piano performance, and comes courtesy of the pen of Charles' former mentor Lowell Fulson) and Henry Glover's wrenching ballad "Drown in My Own Tears," which is topped out on each verse by a gorgeous chorus. "Funny (But I Still Love You)" offers a guitar break played in such an understated fashion that it almost doesn't seem so much a part of R&B as it was usually being offered in 1957 as it does a part of Charles' early career output. The second side of the LP is even better, opening with the title track, a number that is almost too ubiquitous in its various cover versions – the original has a mix of urgency and playfulness that's absolutely bracing, and the album carries this mood forward with "Mess Around," an Ahmet Ertegun-authored piano- and sax-driven romp with Charles at his most ebullient as a singer. "This Little Girl of Mine" offers him in a surprisingly light, almost acrobatic vocal mode, while "Greenbacks" is a knowing, clever cautionary narrative that is almost a throwback to 1940s-style R&B. "Don't You Know" is as salacious a piece of R&B as one was likely to hear in 1957, and "I Got a Woman" closes the record out on a pounding, driving note.

Tracklist:

01 - Ain't That Love
02 - Drown In My Own Tears
03 - Come Back Baby
04 - Sinner's Prayer
05 - Funny But I Still Love You
06 - Losing Hand
07 - A Fool For You
08 - Hallelujah I Love Her So
09 - Mess Around
10 - This Little Girl Of Mine
11 - Mary Ann
12 - Greenbacks
13 - Don't You Know
14 - I Got A Woman

Analyzed: Ray Charles / Ray Charles (Mono, Remastered)
––––––––––––––––––––––––––––––––––––––––

DR Peak RMS Duration Track
––––––––––––––––––––––––––––––––––––––––
DR12 -3.41 dB -17.64 dB 2:55 01-Ain't That Love
DR11 -2.50 dB -16.10 dB 3:23 02-Drown In My Own Tears
DR11 -3.16 dB -16.51 dB 3:08 03-Come Back Baby
DR10 -3.55 dB -15.77 dB 3:27 04-Sinner's Prayer
DR11 -2.15 dB -15.66 dB 3:16 05-Funny But I Still Love You
DR11 -1.91 dB -16.13 dB 3:14 06-Losing Hand
DR12 -1.76 dB -15.67 dB 3:02 07-A Fool For You
DR12 -2.40 dB -16.24 dB 2:35 08-Hallelujah I Love Her So
DR10 -4.33 dB -15.92 dB 2:42 09-Mess Around
DR11 -3.52 dB -16.02 dB 2:34 10-This Little Girl Of Mine
DR11 -2.11 dB -15.82 dB 2:50 11-Mary Ann
DR13 -0.98 dB -15.59 dB 2:52 12-Greenbacks
DR12 -3.45 dB -17.78 dB 2:56 13-Don't You Know
DR10 -3.24 dB -15.54 dB 2:53 14-I Got A Woman
––––––––––––––––––––––––––––––––––––––––

Number of tracks: 14
Official DR value: DR11

Samplerate: 96000 Hz
Channels: 2
Bits per sample: 24
Bitrate: 1601 kbps
Codec: FLAC
================================================================================



Ray Charles - The Atlantic Studio Albums In Mono (2016) [Remastered] [Official Digital Download 24-bit/96kHz]

Ray Charles - Yes, Indeed! (1958/2016)
FLAC (tracks) 24-bit/96 kHz | Time - 35:56 minutes | 416 MB
Studio Mono Master, Official Digital Download | Artwork: Front cover

Yes Indeed! was third Ray Charles' (in fact the fifth) album to be released in sixteen months, and his second of October 1958. After Ray Charles, he released two instrumental jazz albums (The Great Ray Charles and, with Milt Jackson, Soul Brothers) and the live At Newport album. The juxtaposition of these releases showed what a wide range of talents and interests Ray had. Yes Indeed!, being a compilation of singles, shows his more popular, R&B hitmaking side.

Tracklist:

01 - What Would I Do Without You
02 - It's All Right
03 - I Want To Know
04 - Yes, Indeed!
05 - Get On The Right Track Baby
06 - Talkin' Bout You
07 - Swanee River Rock (Talkin' 'Bout That River)
08 - Lonely Avenue
09 - Blackjack
10 - The Sun's Gonna Shine Again
11 - I Had A Dream
12 - I Want A Little Girl
13 - Heartbreaker
14 - Leave My Woman Alone

Analyzed: Ray Charles / Yes, Indeed! (Mono, Remastered)
––––––––––––––––––––––––––––––––––––––––

DR Peak RMS Duration Track
––––––––––––––––––––––––––––––––––––––––
DR11 -4.76 dB -18.08 dB 2:36 01-What Would I Do Without You
DR11 -6.42 dB -19.59 dB 2:18 02-It's All Right
DR11 -5.47 dB -19.29 dB 2:12 03-I Want To Know
DR11 -5.76 dB -19.22 dB 2:17 04-Yes, Indeed!
DR11 -6.12 dB -20.21 dB 2:24 05-Get On The Right Track Baby
DR11 -4.76 dB -17.91 dB 2:51 06-Talkin' Bout You
DR13 -3.22 dB -17.82 dB 2:17 07-Swanee River Rock (Talkin' 'Bout That River)
DR12 -2.90 dB -17.45 dB 2:37 08-Lonely Avenue
DR11 -3.89 dB -18.80 dB 2:21 09-Blackjack
DR10 -6.24 dB -19.07 dB 2:39 10-The Sun's Gonna Shine Again
DR11 -3.47 dB -17.31 dB 2:55 11-I Had A Dream
DR10 -6.45 dB -18.18 dB 2:54 12-I Want A Little Girl
DR11 -2.43 dB -16.56 dB 2:54 13-Heartbreaker
DR11 -5.11 dB -17.69 dB 2:42 14-Leave My Woman Alone
––––––––––––––––––––––––––––––––––––––––

Number of tracks: 14
Official DR value: DR11

Samplerate: 96000 Hz
Channels: 2
Bits per sample: 24
Bitrate: 1545 kbps
Codec: FLAC
================================================================================



Ray Charles - The Atlantic Studio Albums In Mono (2016) [Remastered] [Official Digital Download 24-bit/96kHz]

Ray Charles - The Genius Of Ray Charles (1959/2016)
FLAC (tracks) 24-bit/96 kHz | Time - 38:27 minutes | 402 MB
Studio Mono Master, Official Digital Download | Artwork: Front cover

Some players from Ray Charles' big band are joined by many ringers from the Count Basie and Duke Ellington bands for the first half of this program, featuring Charles belting out six songs arranged by Quincy Jones. "Let the Good Times Roll" and "Deed I Do" are highlights, and there are solos by tenorman David "Fathead" Newman, trumpeter Marcus Belgrave, and (on "Two Years of Torture") tenor Paul Gonsalves. The remaining six numbers are ballads, with Charles backed by a string orchestra arranged by Ralph Burns (including "Come Rain or Come Shine" and "Don't Let the Sun Catch You Cryin'"). Charles' voice is heard throughout in peak form, giving soul to even the veteran standards.

Tracklist:

01 - Let The Good Times Roll
02 - It Had To Be You
03 - Alexander's Ragtime Band
04 - Two Years Of Torture
05 - When Your Lover Has Gone
06 - Deed I Do
07 - Just For A Thrill
08 - You Won't Let Me Go
09 - Tell Me You'll Wait For Me
10 - Don't Let The Sun Catch You Cryin'
11 - Am I Blue
12 - Come Rain Or Come Shine

NOTE: Tracks "8 & 9" presented in 24bit/44kHz.

Analyzed: Ray Charles / The Genius Of Ray Charles (Mono, Remastered)
––––––––––––––––––––––––––––––––––––––––

DR Peak RMS Duration Track
––––––––––––––––––––––––––––––––––––––––
DR11 -3.69 dB -19.04 dB 3:20 08-You Won't Let Me Go
DR13 -3.05 dB -19.33 dB 3:25 09-Tell Me You'll Wait For Me
––––––––––––––––––––––––––––––––––––––––

Number of tracks: 2
Official DR value: DR12

Samplerate: 44100 Hz
Channels: 2
Bits per sample: 24
Bitrate: 812 kbps
Codec: FLAC
================================================================================

––––––––––––––––––––––––––––––––––––––––
Analyzed: Ray Charles / The Genius Of Ray Charles (Mono, Remastered)
––––––––––––––––––––––––––––––––––––––––

DR Peak RMS Duration Track
––––––––––––––––––––––––––––––––––––––––
DR8 -5.36 dB -15.45 dB 2:53 01-Let The Good Times Roll
DR10 -3.95 dB -17.33 dB 2:45 02-It Had To Be You
DR9 -3.20 dB -13.81 dB 2:54 03-Alexander's Ragtime Band
DR10 -2.77 dB -15.64 dB 3:25 04-Two Years Of Torture
DR10 -4.10 dB -17.16 dB 2:51 05-When Your Lover Has Gone
DR10 -3.83 dB -16.53 dB 2:27 06-Deed I Do
DR12 -3.23 dB -17.74 dB 3:25 07-Just For A Thrill
DR13 -0.45 dB -16.79 dB 3:45 10-Don't Let The Sun Catch You Cryin'
DR11 -3.53 dB -17.59 dB 3:39 11-Am I Blue
DR13 -3.34 dB -18.75 dB 3:38 12-Come Rain Or Come Shine
––––––––––––––––––––––––––––––––––––––––

Number of tracks: 10
Official DR value: DR11

Samplerate: 96000 Hz
Channels: 2
Bits per sample: 24
Bitrate: 1523 kbps
Codec: FLAC
================================================================================



Ray Charles - The Atlantic Studio Albums In Mono (2016) [Remastered] [Official Digital Download 24-bit/96kHz]

Ray Charles - What'd I Say (1959/2016)
FLAC (tracks) 24-bit/96 kHz | Time - 30:13 minutes | 362 MB
Studio Mono Master, Official Digital Download | Artwork: Front cover

Ray Charles was the premier architect singer/songwriter/musician whose "genius" of combining jazz, blues with gospel most certainly began the American soul music movement. This modern form of R&B which would become an American way of life forever etched itself in total with the release of his 1959 classic hit single and album What'd I Say. Fused with heavy blues, gospel and rock & roll, What'd I Say was one of Ray's very first top ten hits after a very long run of predominantly R&B only chart successes. The tune itself has been covered hundreds of times by some of the most important voices in popular music, like The Beatles, Elvis Presley, Van Morrison, Jerry Lee Lewis, and many others. Also included on this masterpiece are some of Ray Charles more refined blues rockers like the powerful instrumental Rockhouse, the rockin' You Be My Baby, the shouter Tell Me How Do You Feel, and the brilliant pre-soul sounds of What Kind Of Man Are You which features the Raylettes' Mary Ann Fisher. The What'd I Say album forever etched the name superstar and genius with Ray Charles as the album reached the upper rungs of the popular, jazz and R&B charts and has become an American institution which will forever stand the test of time.

Tracklist:

01 - What'd I Say (Part I & II)
02 - Jumpin' In The Mornin'
03 - You Be My Baby
04 - Tell Me How Do You Feel
05 - What Kind of Man Are You?
06 - Rockhouse (Parts I & II)
07 - Roll With My Baby
08 - Tell All The World About You
09 - My Bonnie
10 - That's Enough

Analyzed: Ray Charles / What'd I Say (Mono, Remastered)
––––––––––––––––––––––––––––––––––––––––

DR Peak RMS Duration Track
––––––––––––––––––––––––––––––––––––––––
DR10 -3.06 dB -15.57 dB 5:07 01-What'd I Say (Part I & II)
DR11 -1.16 dB -14.34 dB 2:48 02-Jumpin' In The Mornin'
DR11 -2.54 dB -15.65 dB 2:34 03-You Be My Baby
DR11 -3.08 dB -15.07 dB 2:43 04-Tell Me How Do You Feel
DR12 -0.99 dB -15.57 dB 2:49 05-What Kind of Man Are You?
DR13 -1.68 dB -16.44 dB 3:56 06-Rockhouse (Parts I & II)
DR12 -0.99 dB -14.81 dB 2:39 07-Roll With My Baby
DR10 -3.11 dB -15.26 dB 2:04 08-Tell All The World About You
DR11 -2.29 dB -15.42 dB 2:49 09-My Bonnie
DR11 -2.71 dB -15.59 dB 2:43 10-That's Enough
––––––––––––––––––––––––––––––––––––––––

Number of tracks: 10
Official DR value: DR11

Samplerate: 96000 Hz
Channels: 2
Bits per sample: 24
Bitrate: 1647 kbps
Codec: FLAC
================================================================================



Ray Charles - The Atlantic Studio Albums In Mono (2016) [Remastered] [Official Digital Download 24-bit/96kHz]

Ray Charles - The Genius After Hours (1961/2016)
FLAC (tracks) 24-bit/96 kHz | Time - 38:43 minutes | 445 MB
Studio Mono Master, Official Digital Download | Artwork: Front cover

Taken from the same three sessions as The Great Ray Charles but not duplicating any of the performances, this set casts Charles as a jazz-oriented pianist in an instrumental setting. Brother Charles has five numbers with a trio (three songs have Oscar Pettiford on bass) and jams on three other tunes ("Hornful Soul," "Ain't Misbehavin'," and "Joy Ride") with a septet arranged by Quincy Jones; solo space is given to David "Fathead" Newman on tenor and alto and trumpeter Joseph Bridgewater. Fine music – definitely a change of pace for Ray Charles.

Tracklist:

01 - The Genius After Hours
02 - Ain't Misbehavin'
03 - Dawn Ray
04 - Joy Ride
05 - Hornful Soul
06 - The Man I Love
07 - Charlesville
08 - Music, Music, Music

Analyzed: Ray Charles / The Genius After Hours (Mono, Remastered)
––––––––––––––––––––––––––––––––––––––––

DR Peak RMS Duration Track
––––––––––––––––––––––––––––––––––––––––
DR17 -1.75 dB -22.83 dB 5:26 01-The Genius After Hours
DR15 -1.00 dB -19.75 dB 5:42 02-Ain't Misbehavin'
DR14 -1.39 dB -18.41 dB 5:04 03-Dawn Ray
DR13 -1.00 dB -16.27 dB 4:39 04-Joy Ride
DR15 -1.00 dB -18.59 dB 5:31 05-Hornful Soul
DR14 -1.00 dB -18.70 dB 4:29 06-The Man I Love
DR14 -1.00 dB -19.05 dB 4:58 07-Charlesville
DR13 -1.10 dB -17.14 dB 2:53 08-Music, Music, Music
––––––––––––––––––––––––––––––––––––––––

Number of tracks: 8
Official DR value: DR14

Samplerate: 96000 Hz
Channels: 2
Bits per sample: 24
Bitrate: 1542 kbps
Codec: FLAC
================================================================================



Ray Charles - The Atlantic Studio Albums In Mono (2016) [Remastered] [Official Digital Download 24-bit/96kHz]

Ray Charles - The Genius Sings The Blues (1961/2016)
FLAC (tracks) 24-bit/96 kHz | Time - 34:31 minutes | 403 MB
Studio Mono Master, Official Digital Download | Artwork: Front cover

Down-home, anguished laments and moody ballads were turned into triumphs by Ray Charles. He sang these songs with the same conviction, passion, and energy that made his country and soul vocals so majestic. This has not turned up in the reissue bins.

Tracklist:

01 - Early In The Mornin'
02 - Hard Times (No One Knows Better Than I)
03 - The Midnight Hour
04 - The Right Time
05 - Feelin' Sad
06 - Ray's Blues
07 - I'm Movin' On
08 - I Believe To My Soul
09 - Nobody Cares
10 - Mr. Charles Blues
11 - Some Day Baby
12 - I Wonder Who

Analyzed: Ray Charles / The Genius Sings The Blues (Mono, Remastered)
––––––––––––––––––––––––––––––––––––––––

DR Peak RMS Duration Track
––––––––––––––––––––––––––––––––––––––––
DR10 -2.67 dB -14.55 dB 2:48 01-Early In The Mornin'
DR9 -3.67 dB -16.53 dB 2:56 02-Hard Times (No One Knows Better Than I)
DR11 -1.62 dB -16.08 dB 3:03 03-The Midnight Hour
DR10 -3.46 dB -15.03 dB 3:25 04-The Right Time
DR9 -3.19 dB -15.97 dB 2:51 05-Feelin' Sad
DR12 -4.58 dB -20.91 dB 2:56 06-Ray's Blues
DR10 -2.77 dB -14.92 dB 2:14 07-I'm Movin' On
DR11 -3.91 dB -18.06 dB 3:02 08-I Believe To My Soul
DR10 -2.55 dB -17.23 dB 2:41 09-Nobody Cares
DR12 -1.97 dB -17.36 dB 2:48 10-Mr. Charles Blues
DR12 -2.58 dB -18.25 dB 2:58 11-Some Day Baby
DR10 -4.17 dB -16.70 dB 2:51 12-I Wonder Who
––––––––––––––––––––––––––––––––––––––––

Number of tracks: 12
Official DR value: DR11

Samplerate: 96000 Hz
Channels: 2
Bits per sample: 24
Bitrate: 1558 kbps
Codec: FLAC
================================================================================


Thanks to the Original customer!