Tom Petty And The Heartbreakers - You're Gonna Get It! (1978/2015) [Official Digital Download]

Posted By: HDV
Tom Petty And The Heartbreakers - You're Gonna Get It! (1978/2015) [Official Digital Download]

Tom Petty And The Heartbreakers - You're Gonna Get It! (1978/2015)
FLAC (tracks) 24-bit/96 kHz | Time - 29:17 minutes | 676 MB
Studio Master, Official Digital Download | Artwork: Front cover

Released in 1978, You're Gonna Get It! is the second album by Tom Petty and the Heartbreakers. It featured the singles "I Need to Know" and "Listen to Her Heart".

Tom Petty & the Heartbreakers didn't really knock out their second album – it was released two years after their debut – but it sure sounds as if they did. There are some wonderful moments on this record, but it often feels like leftovers from a strong debut, or an album written on the road, especially since the music is simply an extension of the first album. That said, when You're Gonna Get It! works, it devastates. That's not saying that "When the Time Comes" is a masterpiece, even if it's a fine opener, but it does mean that "I Need to Know" and the scathing "Listen to Her Heart" are testaments to how good this band could be when it was focused. If the rest of the album doesn't achieve this level of perfection, that's a signal that they were still finding their footing, but overall it's still a solid record, filled with good performances that are never quite as good as the songs. It's pretty good as it spins, but once it finishes, you remember those two songs at the heart of the record, maybe the opener and closer, which are stronger than the rest of the competent, enjoyable, yet unremarkable roots-rockers that surround them. Not necessarily a transitional effort – after all, it pretty much mirrors its predecessor – but a holding pattern that may not suggest the peaks of what's to come, but still delivers a good soundalike of the debut.

Tracklist:

01 - When The Time Comes
02 - You're Gonna Get It
03 - Hurt
04 - Magnolia
05 - Too Much Ain't Enough
06 - I Need To Know
07 - Listen To Her Heart
08 - No Second Thoughts
09 - Restless
10 - Baby's A Rock 'N' Roller

Tom Petty Hi-Res Remastering Note:
The Hi-Res (24bit 96K) remastering of the Tom Petty catalog reveals a level of detail that was only previously heard by a select group of musicians, producers and engineers in the studio. It’s as close to the sound of original stereo master as you can get. We’re very happy with the way it came out, and believe it’s an important way to preserve the legacy of this great body of work.

If hearing the highest possible sound quality is important to you, then this is where you’ll get it.

The remastering was done in the fall of 2014 by Chris Bellman at Bernie Grundman Mastering. I supervised it and Tom approved it. Great care was taken to find the original first-generation masters and transfer them with minimal eq and little or no dynamic range compression. In cases where the first-generation masters were unusable, we used the best sounding second-generation masters.*

To allow for full dynamic range, and to let the music “breathe” the Hi-Res versions have about 6-8db less digital level than a typical “loud” peak-limited CD or mp3. To enjoy these albums to their fullest extent, play them back though a good system and turn up the volume.

With this increased level of detail and sonic impact, we hope you'll enjoy rediscovering these great albums as much as we did!
Analyzed: Tom Petty & The Heartbreakers / You're Gonna Get It
––––––––––––––––––––––––––––––––––––––––

DR Peak RMS Duration Track
––––––––––––––––––––––––––––––––––––––––
DR11 -2.07 dB -15.48 dB 2:46 01-When The Time Comes
DR13 -0.86 dB -16.62 dB 3:00 02-You're Gonna Get It
DR12 -2.29 dB -17.80 dB 3:16 03-Hurt
DR13 -1.11 dB -15.81 dB 3:01 04-Magnolia
DR12 -1.72 dB -15.96 dB 2:56 05-Too Much Ain't Enough
DR12 -2.03 dB -15.11 dB 2:23 06-I Need To Know
DR12 -0.95 dB -14.22 dB 3:02 07-Listen To Her Heart
DR11 -3.55 dB -16.98 dB 2:38 08-No Second Thoughts
DR12 -2.14 dB -16.76 dB 3:21 09-Restless
DR11 -2.53 dB -16.47 dB 2:54 10-Baby's A Rock 'N' Roller
––––––––––––––––––––––––––––––––––––––––

Number of tracks: 10
Official DR value: DR12

Samplerate: 96000 Hz
Channels: 2
Bits per sample: 24
Bitrate: 3075 kbps
Codec: FLAC
================================================================================


Thanks to the Original customer!

More Tom Petty's Hi-Res Remasters