Subcategories

VA - Shakin' All Over: The Best Of British Rock 'N' Roll (2CD) (2012) {My Kind Of Music}

Posted By: TestTickles
VA - Shakin' All Over: The Best Of British Rock 'N' Roll (2CD) (2012) {My Kind Of Music}

VA - Shakin' All Over: The Best Of British Rock 'N' Roll (2CD) (2012) {My Kind Of Music}
EAC Rip | FLAC with CUE and log | scans | 319 mb
MP3 CBR 320kbps | RAR | 203 mb
Genre: oldies, rock'n'roll, pop rock

British label My Kind Of Music present another fine compilation of some of the best music ever made. In this case, it's called Shakin' All Over: The Best Of British Rock 'N' Roll and it features some of the best rock'n'roll ever made where everyone has or had a home in Great Britain, all that have nothing to do with The Beatles. All of these songs are bangers, making them a mash, which means they are scorchers. Original songs by the original artists, just listen…

VA - Shakin' All Over: The Best Of British Rock 'N' Roll (2CD) (2012) {My Kind Of Music}

DISC 1
1. Adam Faith - What Do You Want
2. Cliff Richard & The Drifters - Move It
3. Johnny Kidd And The Pirates - Shakin' All Over
4. Billy Fury - Colette
5. Alma Cogan - Dreamboat
6. Marty Wilde - A Teenager In Love
7. Tommy Steele - Singin' The Blues
8. Dickie Pride - Primrose Lane
9. Frankie Vaughan - Garden Of Eden
10. The Stargazers - She Loves To Rock
11. Lonnie Donegan - Cumberland Gap
12. Cliff Richard & The Shadows - Travellin' Light
13. Billy Fury - Margo
14. Terry Dene - AWhite Sport Coat
15. Tommy Steele & The Steelmen - Tallahassee Lassie
16. Lord Rockingham XI - Hoots Mon
17. Adan Faith - Someone Else's Baby
18. Larry Page - Cool Shake
19. The Shadows - Saturday Dance
20. Joe Brown & The Bruvvers - Darktown Strutters Ball


DISC 2
1. The Shadows - Apache
2. Cliff Richard - Living Doll
3. Michael Holliday - The Story Of My Life
4. The Kalin Twins - When
5. Tommy Steele & The Steelmen - Elevator Rock
6. Adam Faith - Poor Me
7. Billy Fury - Don't Knock Upon My Door
8. Joe Brown - Comes The Day
9. Frankie Vaughan - Green Door
10. Johnny Kidd & The Pirates - Please Don't Touch
11. Marty Wilde & The Wild Cats - Bad Boy
12. Four Jones Boys - Tutti Frutti
13. Cliff Richard & The Drifters - High Class Baby
14. Lonnie Donegan - Don't You Rock Me Daddy-O
15. Billy Fury - Maybe Tomorrow
16. Jackie Dennis - La Dee Dah
17. Tommy Steele And The Steelmen - Rock With The Caveman
18. Craig Douglas - Only Sixteen
19. Stargazers - Broken Wings
20. Marty Wilde - Endless Sleep


Exact Audio Copy V1.1 from 23. June 2015

EAC extraction logfile from 31. January 2016, 12:48

Various Artists / Shakin' All Over, The Best Of British Rock 'N' Roll (Disc 1)

Used drive : ATAPI iHAS122 C Adapter: 1 ID: 0

Read mode : Secure
Utilize accurate stream : Yes
Defeat audio cache : Yes
Make use of C2 pointers : No

Read offset correction : 6
Overread into Lead-In and Lead-Out : No
Fill up missing offset samples with silence : Yes
Delete leading and trailing silent blocks : No
Null samples used in CRC calculations : Yes
Used interface : Native Win32 interface for Win NT & 2000

Used output format : Internal WAV Routines
Sample format : 44.100 Hz; 16 Bit; Stereo


TOC of the extracted CD

Track | Start | Length | Start sector | End sector
––––––––––––––––––––––––––––-
1 | 0:00.00 | 1:38.10 | 0 | 7359
2 | 1:38.10 | 2:22.44 | 7360 | 18053
3 | 4:00.54 | 2:22.70 | 18054 | 28773
4 | 6:23.49 | 1:51.71 | 28774 | 37169
5 | 8:15.45 | 1:47.30 | 37170 | 45224
6 | 10:03.00 | 2:21.25 | 45225 | 55824
7 | 12:24.25 | 2:24.53 | 55825 | 66677
8 | 14:49.03 | 2:08.05 | 66678 | 76282
9 | 16:57.08 | 2:33.41 | 76283 | 87798
10 | 19:30.49 | 2:22.23 | 87799 | 98471
11 | 21:52.72 | 1:59.25 | 98472 | 107421
12 | 23:52.22 | 2:38.70 | 107422 | 119341
13 | 26:31.17 | 2:35.51 | 119342 | 131017
14 | 29:06.68 | 2:26.68 | 131018 | 142035
15 | 31:33.61 | 2:10.24 | 142036 | 151809
16 | 33:44.10 | 2:15.44 | 151810 | 161978
17 | 35:59.54 | 2:04.02 | 161979 | 171280
18 | 38:03.56 | 2:21.55 | 171281 | 181910
19 | 40:25.36 | 1:44.40 | 181911 | 189750
20 | 42:10.01 | 2:11.50 | 189751 | 199625


Range status and errors

Selected range

Filename C:\FLAC\VA - Shakin' All Over, The Best Of British Rock 'N' Roll (2CD) (2012) [FLAC] {My Kind Of Music}\Disc 1\Various Artists - Shakin' All Over (Disc 1).wav

Peak level 99.2 %
Extraction speed 8.0 X
Range quality 99.9 %
Test CRC F13D6D57
Copy CRC F13D6D57
Copy OK

No errors occurred


AccurateRip summary

Track 1 not present in database
Track 2 not present in database
Track 3 not present in database
Track 4 not present in database
Track 5 not present in database
Track 6 not present in database
Track 7 not present in database
Track 8 not present in database
Track 9 not present in database
Track 10 not present in database
Track 11 not present in database
Track 12 not present in database
Track 13 not present in database
Track 14 not present in database
Track 15 not present in database
Track 16 not present in database
Track 17 not present in database
Track 18 not present in database
Track 19 not present in database
Track 20 not present in database

None of the tracks are present in the AccurateRip database

End of status report

–– CUETools DB Plugin V2.1.6

[CTDB TOCID: 3kvFQo_lA3vg1LmG6LN9n9jOfig-] disk not present in database
Submit result: 3kvFQo_lA3vg1LmG6LN9n9jOfig- has been uploaded


==== Log checksum DE59F5A485D8F79051D8BC11C4BE81B7BCF54EE14B1300EF2D20D1F20FE3B710 ====







Exact Audio Copy V1.1 from 23. June 2015

EAC extraction logfile from 31. January 2016, 13:20

Various Artists / Shakin' All Over, The Best Of British Rock 'N' Roll (Disc 2)

Used drive : ATAPI iHAS122 C Adapter: 1 ID: 0

Read mode : Secure
Utilize accurate stream : Yes
Defeat audio cache : Yes
Make use of C2 pointers : No

Read offset correction : 6
Overread into Lead-In and Lead-Out : No
Fill up missing offset samples with silence : Yes
Delete leading and trailing silent blocks : No
Null samples used in CRC calculations : Yes
Used interface : Native Win32 interface for Win NT & 2000

Used output format : Internal WAV Routines
Sample format : 44.100 Hz; 16 Bit; Stereo


TOC of the extracted CD

Track | Start | Length | Start sector | End sector
––––––––––––––––––––––––––––-
1 | 0:00.00 | 2:56.24 | 0 | 13223
2 | 2:56.24 | 2:39.10 | 13224 | 25158
3 | 5:35.34 | 2:14.35 | 25159 | 35243
4 | 7:49.69 | 2:27.23 | 35244 | 46291
5 | 10:17.17 | 1:50.44 | 46292 | 54585
6 | 12:07.61 | 1:46.45 | 54586 | 62580
7 | 13:54.31 | 1:47.46 | 62581 | 70651
8 | 15:42.02 | 2:10.71 | 70652 | 80472
9 | 17:52.73 | 2:47.70 | 80473 | 93067
10 | 20:40.68 | 1:51.07 | 93068 | 101399
11 | 22:32.00 | 2:25.53 | 101400 | 112327
12 | 24:57.53 | 2:00.03 | 112328 | 121330
13 | 26:57.56 | 2:10.52 | 121331 | 131132
14 | 29:08.33 | 1:43.30 | 131133 | 138887
15 | 30:51.63 | 2:13.12 | 138888 | 148874
16 | 33:05.00 | 2:01.06 | 148875 | 157955
17 | 35:06.06 | 1:55.21 | 157956 | 166601
18 | 37:01.27 | 2:12.71 | 166602 | 176572
19 | 39:14.23 | 2:55.05 | 176573 | 189702
20 | 42:09.28 | 2:20.04 | 189703 | 200206


Range status and errors

Selected range

Filename C:\FLAC\VA - Shakin' All Over, The Best Of British Rock 'N' Roll (2CD) (2012) [FLAC] {My Kind Of Music}\Disc 2\Various Artists - Shakin' All Over (Disc 2).wav

Peak level 99.4 %
Extraction speed 8.2 X
Range quality 100.0 %
Test CRC 910EA550
Copy CRC 910EA550
Copy OK

No errors occurred


AccurateRip summary

Track 1 not present in database
Track 2 not present in database
Track 3 not present in database
Track 4 not present in database
Track 5 not present in database
Track 6 not present in database
Track 7 not present in database
Track 8 not present in database
Track 9 not present in database
Track 10 not present in database
Track 11 not present in database
Track 12 not present in database
Track 13 not present in database
Track 14 not present in database
Track 15 not present in database
Track 16 not present in database
Track 17 not present in database
Track 18 not present in database
Track 19 not present in database
Track 20 not present in database

None of the tracks are present in the AccurateRip database

End of status report

–– CUETools DB Plugin V2.1.6

[CTDB TOCID: DrNHDiu6zH20JJODKdm0CDRSCeU-] disk not present in database
Submit result: DrNHDiu6zH20JJODKdm0CDRSCeU- has been uploaded


==== Log checksum 3B1CF03A138D95E4D7EAE2BDCC322C9158B36333D38157F6C86B95FBDAD2BC75 ====


VA - Shakin' All Over: The Best Of British Rock 'N' Roll (2CD) (2012) {My Kind Of Music}


Thank you to the original uploader