Subcategories

A.R. & Machines - The Art Of German Psychedelic, 1970-1974 (2017) {10CD Box Set, Remastered Edition}

Posted By: popsakov
A.R. & Machines - The Art Of German Psychedelic, 1970-1974 (2017) {10CD Box Set, Remastered Edition}

A.R. & Machines - The Art Of German Psychedelic, 1970-1974 (2017) {10CD Box Set, Remastered Edition}
EAC Rip | FLAC (Img) + Cue + Log ~ 3,48 Gb | MP3 CBR320 ~ 1,51 Gb
Scans Included (CD & Matrix) | RAR 5% Recovery
Progressive Rock, Kraut Rock, Psychedelic | BMG / Tangram #538307740

The complete collection of Achim Reichel’s innovative avant-garde project in the early 1970s. The lavishly designed 10 CD box-set includes all five studio albums and almost five hours of rare and unreleased music, a new remix-album – Virtual Journey – as well as a hardcover book with the artist’s own liner notes. A lucky accident was the catalyst. In Hamburg in the early 70s, while playing with his new Akai X330D tape machine, Achim Reichel discovered he could build soundscapes of guitar echoes and add even more simultaneously. He spent hours in his room with headphones on, growing his orchestra of guitars. A.R. & Machines recorded five studio albums. Their debut, “Die grüne Reise”, – The Green Journey – was released in 1971 on tape cassette and vinyl, and was met with complete confusion, even from the music press, who had no genre-drawer to stick it into, and is a lasting Krautrock monument captured on tape. The cosmic vibrations – overlapping guitar licks, distorting and edgy, supported with live percussion and futuristic electronic sounds – moved Brian Eno to such an extent that he named his solo-album “Another Green World” after it. The A.R. & Machines “The Art Of German Psychedelic (1970-74)” contains all five studio albums from 1971 to 1974: Die grüne Reise, Echo, A.R.3, A.R.4, and Autovision. Fifty years after they were released, then taken from sale by Achim Reichel before he set off on his solo career, the albums are the ultimate insight into one of Krautrock’s most mysterious artists. Alongside the albums are two live CDs, Live in Köln and Live in Krefeld, the former recorded for radio and rescued from the tape bin by Achim Reichel in April 1973, and the latter recorded by an avid fan at the German Rock Festival in September 1973. Three bonus CDs filled with previously unreleased material from Reichel’s tape archive complete the set. In Virtual Journey – produced exclusively for the box-set – Achim Reichel uncovers old demos recorded in the 70s by his younger self and pieces them together with modern audio software. The A.R. & Machines project hereby takes a step into the modern world. Remixes 96 is a collection of A.R. & Machines remixes from 1996, made by Reichel during the peak of his solo career and kept away until now. Last but not least, “Warm-up in a Birdcage” (Bonus A.R.4) is an improvised jam by the musicians on A.R.4 who were unaware that the producer-legend Conny Plank was actually running the tapes as they played. The 10 CDs are digitally remastered and accompanied by a written autobiographical history – The A.R. & Machines story – brimming with anecdotes about Reichel’s wild Hamburg years and the Krautrock scene. The bonus material comes with notes also penned by Reichel himself, setting the context for the rare material. On the 15th of September 2017, A.R. & Machines will play their first concert in 40 years in the already sold-out Hamburg Elbphilharmonie concert hall.

***************

A.R. & Machines - The Art Of German Psychedelic, 1970-1974 (2017) {10CD Box Set, Remastered Edition}

Track List CD1 - Die Grüne Reise - The Green Journey (1971):

01. Station 1: Globus / Globe [2:57]
02. Station 1: Im selben Boot / In The Same Boat [2:03]
03. Station 2: Schones Babylon / Beautiful Babylon [5:00]
04. Station 2: Icn bin dein Sanger, du bist mein Lied / I’ll Be Your Singer — You’ll Be My Song [2:29]
05. Station 3: Body [1:55]
06. Station 3: A Book’s Blues [1:42]
07. Station 4: Als hatt ich das alles schon mal gesehen / As If I Have Seen All This Before [5:28]
08. Cosmic Vibration — An Afternoon Concert [4:41]
09. Come On, People [2:54]
10. Wahrheit und Wahrscheinlichkeit / Truth And Probability (A Lexicon for Self-Knowledge) [11:42]

Exact Audio Copy V1.3 from 2. September 2016

Отчёт EAC об извлечении, выполненном 7. ноября 2017, 21:35

A.R. & MACHINES / Die Grüne Reise

Дисковод: TSSTcorpCDDVDW SH-224DB Adapter: 1 ID: 0

Режим чтения : Достоверность
Использование точного потока : Да
Отключение кэша аудио : Да
Использование указателей C2 : Нет

Коррекция смещения при чтении : 6
Способность читать области Lead-in и Lead-out : Нет
Заполнение пропущенных сэмплов тишиной : Да
Удаление блоков с тишиной в начале и конце : Нет
При вычислениях CRC использовались нулевые сэмплы : Да
Интерфейс : Встроенный Win32-интерфейс для Win NT/2000

Выходной формат : Внутренние WAV-операции
Формат сэмплов : 44.100 Гц; 16 бит; стерео


TOC извлечённого CD

Трек | Старт | Длительность | Начальный сектор | Конечный сектор
––––––––––––––––––––––––––––––––––-
1 | 0:00.00 | 2:56.42 | 0 | 13241
2 | 2:56.42 | 2:02.69 | 13242 | 22460
3 | 4:59.36 | 5:00.00 | 22461 | 44960
4 | 9:59.36 | 2:28.38 | 44961 | 56098
5 | 12:27.74 | 1:55.32 | 56099 | 64755
6 | 14:23.31 | 1:42.24 | 64756 | 72429
7 | 16:05.55 | 5:28.12 | 72430 | 97041
8 | 21:33.67 | 4:41.33 | 97042 | 118149
9 | 26:15.25 | 2:53.64 | 118150 | 131188
10 | 29:09.14 | 11:42.02 | 131189 | 183840


Характеристики диапазона извлечения и сообщения об ошибках

Выбранный диапазон

Имя файла D:\TEMP\A.R. & MACHINES - 1971 - Die Grune Reise [2017 rem. edition].wav

Пиковый уровень 96.7 %
Скорость извлечения 6.7 X
Качество диапазона 100.0 %
CRC теста A426E46C
CRC копии A426E46C
Копирование… OK

Ошибок не произошло


AccurateRip: сводка

Трек 1 отсутствует в базе данных
Трек 2 отсутствует в базе данных
Трек 3 отсутствует в базе данных
Трек 4 отсутствует в базе данных
Трек 5 отсутствует в базе данных
Трек 6 отсутствует в базе данных
Трек 7 отсутствует в базе данных
Трек 8 отсутствует в базе данных
Трек 9 отсутствует в базе данных
Трек 10 отсутствует в базе данных

Ни одного трека нет в базе AccurateRip

Конец отчёта

==== Контрольная сумма отчёта 4E9B69F49DC99A3EF26C367EDEB9C2E23C32488C4B7A8D0A1225B965D445D5FC ====

foobar2000 1.3.16 / Dynamic Range Meter 1.1.1
log date: 2017-11-15 00:04:18

––––––––––––––––––––––––––––––––––––––––
Analyzed: A.R. & MACHINES / Die Grüne Reise — The Green Journey
––––––––––––––––––––––––––––––––––––––––

DR Peak RMS Duration Track
––––––––––––––––––––––––––––––––––––––––
DR11 -0.32 dB -12.63 dB 2:57 01-Station 1: Globus / Globe
DR12 -0.31 dB -14.83 dB 2:03 02-Station 1: Im selben Boot / In The Same Boat
DR11 -0.31 dB -13.68 dB 5:00 03-Station 2: Schönes Babylon / Beautiful Babylon
DR12 -0.32 dB -14.35 dB 2:29 04-Station 2: Icn bin dein Sänger, du bist mein Lied / I’ll Be Your Singer — You’ll Be My Song
DR10 -0.32 dB -13.67 dB 1:55 05-Station 3: Body
DR12 -0.32 dB -16.44 dB 1:42 06-Station 3: A Book’s Blues
DR10 -0.31 dB -13.64 dB 5:28 07-Station 4: Als hatt ich das alles schon mal gesehen / As If I Have Seen All This Before
DR12 -0.32 dB -14.83 dB 4:41 08-Cosmic Vibration — An Afternoon Concert
DR10 -0.29 dB -11.36 dB 2:54 09-Come On, People
DR10 -0.43 dB -13.93 dB 11:42 10-Wahrheit und Wahrscheinlichkeit / Truth And Probability (A Lexicon for Self-Knowledge)
––––––––––––––––––––––––––––––––––––––––

Number of tracks: 10
Official DR value: DR11

Samplerate: 44100 Hz
Channels: 2
Bits per sample: 16
Bitrate: 764 kbps
Codec: FLAC
================================================================================

Track List CD2 - Echo (1972):

01. Einladung — Invitation [1:05]
02. Einladung: Zu neuen Abenteuern / To New Adventures [4:31]
03. Einladung: Im Zauberwald der sieben Sinne / In The Magic Forest Of The 7 Senses [1:06]
04. Einladung: Im Irrgarten des Geistes / In The Labyrinth Of The Mind [3:24]
05. Einladung: Beim Walzer der Triebe / At The Waltz Of The Inclinations [1:58]
06. Einladung: Unter dem schwarz-grun-roten Banner / Under The Black-Green-Red Banner [6:48]
07. Einladung: Internationalhymne / International Anthem [1:43]
08. Das Echo der Gegenwart — The Echo Of The Presence: Erwachen am Ufer / Awakening On The Shore [3:41]
09. Das Echo der Gegenwart: Vor dem Haus am Fu?e des wachsenden Berges / In Front Of The House At The Foot Of The Growing Mountain [0:49]
10. Das Echo der Gegenwart: Signale / Signals [1:41]
11. Das Echo der Gegenwart: Wissen ist Fruhling im Herbst / Knowledge Is Spring In Autumn [1:30]
12. Das Echo der Gegenwart: Eisen-Laura mit der Lyra / Iron-Laura With The Lyra [2:30]
13. Das Echo der Zeit — The Echo Of Time: Ich Staune / I Am Astonished [2:12]
14. Das Echo der Zeit: Auf dem Schlitten / On The Sledge [0:59]
15. Das Echo der Zeit: Ins Echo der Zeit / To The Echo Of Time [3:16]
16. Das Echo der Zeit: Regenbogen hinab / Down The Rainbows [2:31]
17. Das Echo der Zeit: Durch fuhlbares, me?bares Nichts / Through Feelable, Measurable Nothing [2:03]
18. Das Echo der Zeit: Ewiger Abschied auf Lila Glut / Eternal Farewell On Lilac Ardour [2:04]
19. Das Echo der Zukunft — The Echo Of The Future: Ahnungen / Suspicions [1:24]
20. Das Echo der Zukunft: Beim Tanz der elektrischen Winde / At The Dance Of The Electrical Winds [4:57]
21. Das Echo der Zukunft: Vor der Geburt der neuen Dimension / Before The Birth Of The New Dimension [2:18]
22. Das Echo der Zukunft: Interstellare Kommunikationen / Interstellar Communications [3:52]
23. Das Echo der Zukunft: Das Offnen des gro?en Tores / The Opening Of The Big Gate [2:09]
24. Das Echo der Zukunft: Der Traum vom Gleichgewicht / The Dream Of Balance [3:27]
25. Das Echo der Vergangenheit — The Echo Of The Past: Erinnerungen an Ubermorgen / Memories Of The Day After Tomorrow [4:43]
26. Das Echo der Vergangenheit: Ad Libido [7:58]
27. Das Echo der Vergangenheit: Ego Lego [2:58]
28. Das Echo der Vergangenheit: Brennt wie ein Licht am Ende des Tunnels / Burns Like A Light At The End Of The Tunnel [1:56]

Exact Audio Copy V1.3 from 2. September 2016

Отчёт EAC об извлечении, выполненном 8. ноября 2017, 20:00

A.R. & MACHINES / Echo

Дисковод: TSSTcorpCDDVDW SH-224DB Adapter: 1 ID: 0

Режим чтения : Достоверность
Использование точного потока : Да
Отключение кэша аудио : Да
Использование указателей C2 : Нет

Коррекция смещения при чтении : 6
Способность читать области Lead-in и Lead-out : Нет
Заполнение пропущенных сэмплов тишиной : Да
Удаление блоков с тишиной в начале и конце : Нет
При вычислениях CRC использовались нулевые сэмплы : Да
Интерфейс : Встроенный Win32-интерфейс для Win NT/2000

Выходной формат : Внутренние WAV-операции
Формат сэмплов : 44.100 Гц; 16 бит; стерео


TOC извлечённого CD

Трек | Старт | Длительность | Начальный сектор | Конечный сектор
––––––––––––––––––––––––––––––––––-
1 | 0:00.00 | 1:04.39 | 0 | 4838
2 | 1:04.39 | 4:30.51 | 4839 | 25139
3 | 5:35.15 | 1:05.44 | 25140 | 30058
4 | 6:40.59 | 3:23.67 | 30059 | 45350
5 | 10:04.51 | 1:57.44 | 45351 | 54169
6 | 12:02.20 | 6:48.05 | 54170 | 84774
7 | 18:50.25 | 1:42.66 | 84775 | 92490
8 | 20:33.16 | 3:40.53 | 92491 | 109043
9 | 24:13.69 | 0:49.04 | 109044 | 112722
10 | 25:02.73 | 1:40.62 | 112723 | 120284
11 | 26:43.60 | 1:30.17 | 120285 | 127051
12 | 28:14.02 | 2:29.74 | 127052 | 138300
13 | 30:44.01 | 2:11.47 | 138301 | 148172
14 | 32:55.48 | 0:58.39 | 148173 | 152561
15 | 33:54.12 | 3:15.54 | 152562 | 167240
16 | 37:09.66 | 2:31.33 | 167241 | 178598
17 | 39:41.24 | 2:03.25 | 178599 | 187848
18 | 41:44.49 | 2:03.66 | 187849 | 197139
19 | 43:48.40 | 1:23.44 | 197140 | 203408
20 | 45:12.09 | 4:57.08 | 203409 | 225691
21 | 50:09.17 | 2:17.67 | 225692 | 236033
22 | 52:27.09 | 3:51.68 | 236034 | 253426
23 | 56:19.02 | 2:09.29 | 253427 | 263130
24 | 58:28.31 | 3:26.51 | 263131 | 278631
25 | 61:55.07 | 4:42.48 | 278632 | 299829
26 | 66:37.55 | 7:57.67 | 299830 | 335671
27 | 74:35.47 | 2:57.42 | 335672 | 348988
28 | 77:33.14 | 1:56.00 | 348989 | 357688


Характеристики диапазона извлечения и сообщения об ошибках

Выбранный диапазон

Имя файла D:\TEMP\A.R. & MACHINES - 1972 - Echo [2017 rem. edition].wav

Пиковый уровень 96.8 %
Скорость извлечения 8.3 X
Качество диапазона 99.9 %
CRC теста 2ED75725
CRC копии 2ED75725
Копирование… OK

Ошибок не произошло


AccurateRip: сводка

Трек 1 отсутствует в базе данных
Трек 2 отсутствует в базе данных
Трек 3 отсутствует в базе данных
Трек 4 отсутствует в базе данных
Трек 5 отсутствует в базе данных
Трек 6 отсутствует в базе данных
Трек 7 отсутствует в базе данных
Трек 8 отсутствует в базе данных
Трек 9 отсутствует в базе данных
Трек 10 отсутствует в базе данных
Трек 11 отсутствует в базе данных
Трек 12 отсутствует в базе данных
Трек 13 отсутствует в базе данных
Трек 14 отсутствует в базе данных
Трек 15 отсутствует в базе данных
Трек 16 отсутствует в базе данных
Трек 17 отсутствует в базе данных
Трек 18 отсутствует в базе данных
Трек 19 отсутствует в базе данных
Трек 20 отсутствует в базе данных
Трек 21 отсутствует в базе данных
Трек 22 отсутствует в базе данных
Трек 23 отсутствует в базе данных
Трек 24 отсутствует в базе данных
Трек 25 отсутствует в базе данных
Трек 26 отсутствует в базе данных
Трек 27 отсутствует в базе данных
Трек 28 отсутствует в базе данных

Ни одного трека нет в базе AccurateRip

Конец отчёта

==== Контрольная сумма отчёта 368DDC6F9F1F4CF238CB702822E53890E17CEB3D5DDE1B998132A68F223F2918 ====

foobar2000 1.3.16 / Dynamic Range Meter 1.1.1
log date: 2017-11-15 00:05:17

––––––––––––––––––––––––––––––––––––––––
Analyzed: A.R. & MACHINES / Echo
––––––––––––––––––––––––––––––––––––––––

DR Peak RMS Duration Track
––––––––––––––––––––––––––––––––––––––––
DR10 -2.59 dB -16.63 dB 1:05 01-Einladung — Invitation
DR9 -0.32 dB -11.95 dB 4:31 02-Einladung: Zu neuen Abenteuern / To New Adventures
DR12 -1.54 dB -20.85 dB 1:06 03-Einladung: Im Zauberwald der sieben Sinne / In The Magic Forest Of The 7 Senses
DR10 -0.83 dB -15.34 dB 3:24 04-Einladung: Im Irrgarten des Geistes / In The Labyrinth Of The Mind
DR8 -0.82 dB -11.55 dB 1:58 05-Einladung: Beim Walzer der Triebe / At The Waltz Of The Inclinations
DR8 -0.28 dB -10.34 dB 6:48 06-Einladung: Unter dem schwarz-grün-roten Banner / Under The Black-Green-Red Banner
DR9 -0.56 dB -12.66 dB 1:43 07-Einladung: Internationalhymne / International Anthem
DR9 -0.31 dB -12.29 dB 3:41 08-Das Echo der Gegenwart — The Echo Of The Presence: Erwachen am Ufer / Awakening On The Shore
DR8 -0.32 dB -10.15 dB 0:49 09-Das Echo der Gegenwart: Vor dem Haus am Fuße des wachsenden Berges / In Front Of The House At The Foot Of The Growing Mountain
DR8 -0.30 dB -9.57 dB 1:41 10-Das Echo der Gegenwart: Signale / Signals
DR9 -0.32 dB -10.77 dB 1:30 11-Das Echo der Gegenwart: Wissen ist Frühling im Herbst / Knowledge Is Spring In Autumn
DR7 -0.32 dB -11.18 dB 2:30 12-Das Echo der Gegenwart: Eisen-Laura mit der Lyra / Iron-Laura With The Lyra
DR9 -1.81 dB -14.12 dB 2:12 13-Das Echo der Zeit — The Echo Of Time: Ich Staune / I Am Astonished
DR9 -0.36 dB -10.58 dB 0:59 14-Das Echo der Zeit: Auf dem Schlitten / On The Sledge
DR7 -0.30 dB -8.44 dB 3:16 15-Das Echo der Zeit: Ins Echo der Zeit / To The Echo Of Time
DR8 -0.31 dB -9.71 dB 2:31 16-Das Echo der Zeit: Regenbögen hinab / Down The Rainbows
DR8 -0.32 dB -10.78 dB 2:03 17-Das Echo der Zeit: Durch fühlbares, meßbares Nichts / Through Feelable, Measurable Nothing
DR10 -0.33 dB -13.81 dB 2:04 18-Das Echo der Zeit: Ewiger Abschied auf Lila Glut / Eternal Farewell On Lilac Ardour
DR10 -2.33 dB -19.33 dB 1:24 19-Das Echo der Zukunft — The Echo Of The Future: Ahnungen / Suspicions
DR9 -0.32 dB -10.62 dB 4:57 20-Das Echo der Zukunft: Beim Tanz der elektrischen Winde / At The Dance Of The Electrical Winds
DR8 -0.32 dB -11.66 dB 2:18 21-Das Echo der Zukunft: Vor der Geburt der neuen Dimension / Before The Birth Of The New Dimension
DR8 -0.32 dB -10.87 dB 3:52 22-Das Echo der Zukunft: Interstellare Kommunikationen / Interstellar Communications
DR9 -0.32 dB -13.60 dB 2:09 23-Das Echo der Zukunft: Das Öffnen des großen Tores / The Opening Of The Big Gate
DR9 -0.31 dB -12.50 dB 3:27 24-Das Echo der Zukunft: Der Traum vom Gleichgewicht / The Dream Of Balance
DR9 -0.32 dB -13.09 dB 4:43 25-Das Echo der Vergangenheit — The Echo Of The Past: Erinnerungen an Übermorgen / Memories Of The Day After Tomorrow
DR11 -0.32 dB -14.49 dB 7:58 26-Das Echo der Vergangenheit: Ad Libido
DR9 -0.32 dB -13.51 dB 2:58 27-Das Echo der Vergangenheit: Ego Lego
DR10 -3.53 dB -21.31 dB 1:56 28-Das Echo der Vergangenheit: Brennt wie ein Licht am Ende des Tunnels / Burns Like A Light At The End Of The Tunnel
––––––––––––––––––––––––––––––––––––––––

Number of tracks: 28
Official DR value: DR9

Samplerate: 44100 Hz
Channels: 2
Bits per sample: 16
Bitrate: 803 kbps
Codec: FLAC
================================================================================

Track List CD3 - AR 3 (1972):

01. Warum Peter nur noch Ferien macht / Why Peter Is Only On Holiday [7:23]
02. Tarzans Abenteuer im Sommerschlussverkauf / Tarzan’s Adventures In The Summer Sale [5:18]
03. 10 Jahre Lebenslanglich / 10 Years Life Imprisonment [7:27]
04. Die Tochter des Frostriesen / The Frost-Giants Daughter [2:16]
05. Die Eigentumer der Welt / The Owners Of The World [6:43]
06. Heute ist es warmer als draussen / Today It Is Warmer Than Outside [3:41]
07. Auf Deutsch heisst das Gewissensbisse / In German We Call It Conscience-Bites [3:19]
08. Wie ich mit so ich dir / I … Me Like I … You [2:21]
09. Alles geht nach Goa / Everybody Goes To Goa [5:18]

Exact Audio Copy V1.3 from 2. September 2016

Отчёт EAC об извлечении, выполненном 9. ноября 2017, 19:41

A.R. & MACHINES / AR 3

Дисковод: TSSTcorpCDDVDW SH-224DB Adapter: 1 ID: 0

Режим чтения : Достоверность
Использование точного потока : Да
Отключение кэша аудио : Да
Использование указателей C2 : Нет

Коррекция смещения при чтении : 6
Способность читать области Lead-in и Lead-out : Нет
Заполнение пропущенных сэмплов тишиной : Да
Удаление блоков с тишиной в начале и конце : Нет
При вычислениях CRC использовались нулевые сэмплы : Да
Интерфейс : Встроенный Win32-интерфейс для Win NT/2000

Выходной формат : Внутренние WAV-операции
Формат сэмплов : 44.100 Гц; 16 бит; стерео


TOC извлечённого CD

Трек | Старт | Длительность | Начальный сектор | Конечный сектор
––––––––––––––––––––––––––––––––––-
1 | 0:00.00 | 7:23.10 | 0 | 33234
2 | 7:23.10 | 5:18.01 | 33235 | 57085
3 | 12:41.11 | 7:27.35 | 57086 | 90645
4 | 20:08.46 | 2:16.05 | 90646 | 100850
5 | 22:24.51 | 6:42.46 | 100851 | 131046
6 | 29:07.22 | 3:41.31 | 131047 | 147652
7 | 32:48.53 | 3:19.27 | 147653 | 162604
8 | 36:08.05 | 2:20.48 | 162605 | 173152
9 | 38:28.53 | 5:17.70 | 173153 | 196997


Характеристики диапазона извлечения и сообщения об ошибках

Выбранный диапазон

Имя файла D:\TEMP\A.R. & MACHINES - 1972 - AR 3 [2017 rem. edition].wav

Пиковый уровень 100.0 %
Скорость извлечения 6.6 X
Качество диапазона 100.0 %
CRC теста E1FF094E
CRC копии E1FF094E
Копирование… OK

Ошибок не произошло


AccurateRip: сводка

Трек 1 отсутствует в базе данных
Трек 2 отсутствует в базе данных
Трек 3 отсутствует в базе данных
Трек 4 отсутствует в базе данных
Трек 5 отсутствует в базе данных
Трек 6 отсутствует в базе данных
Трек 7 отсутствует в базе данных
Трек 8 отсутствует в базе данных
Трек 9 отсутствует в базе данных

Ни одного трека нет в базе AccurateRip

Конец отчёта

==== Контрольная сумма отчёта E8C16F6D97A77253F035AF34404D5F336BAB839A9EDBE9742343BCCB9BE1FCE6 ====

foobar2000 1.3.16 / Dynamic Range Meter 1.1.1
log date: 2017-11-15 00:06:09

––––––––––––––––––––––––––––––––––––––––
Analyzed: A.R. & MACHINES / AR 3
––––––––––––––––––––––––––––––––––––––––

DR Peak RMS Duration Track
––––––––––––––––––––––––––––––––––––––––
DR10 -0.32 dB -14.57 dB 7:23 01-Warum Peter nur noch Ferien macht / Why Peter Is Only On Holiday
DR8 0.00 dB -10.41 dB 5:18 02-Tarzans Abenteuer im Sommerschlussverkauf / Tarzan’s Adventures In The Summer Sale
DR8 -0.28 dB -10.63 dB 7:27 03-10 Jahre Lebenslänglich / 10 Years Life Imprisonment
DR9 -0.30 dB -10.67 dB 2:16 04-Die Tochter des Frostriesen / The Frost-Giants Daughter
DR10 0.00 dB -11.84 dB 6:43 05-Die Eigentümer der Welt / The Owners Of The World
DR9 -0.32 dB -13.00 dB 3:41 06-Heute ist es wärmer als draussen / Today It Is Warmer Than Outside
DR9 -0.30 dB -11.35 dB 3:19 07-Auf Deutsch heisst das Gewissensbisse / In German We Call It Conscience-Bites
DR11 -0.32 dB -13.82 dB 2:21 08-Wie ich mit so ich dir / I … Me Like I … You
DR9 -0.32 dB -12.62 dB 5:18 09-Alles geht nach Goa / Everybody Goes To Goa
––––––––––––––––––––––––––––––––––––––––

Number of tracks: 9
Official DR value: DR9

Samplerate: 44100 Hz
Channels: 2
Bits per sample: 16
Bitrate: 778 kbps
Codec: FLAC
================================================================================

Track List CD4 - A. R. IV (1973):

01. Vita: Hohlenforscher + Vogelmenschen / Cave Explorers And Bird Man [5:29]
02. Vita: Der Mann in Nappa / The Man In Cidleather [10:49]
03. Vita: Dunn ist die Haut der Ekstase / Thin Is The Skin Of Ecstasy [5:21]
04. Acqua: Jeder Tropfen traumt vom Meer (HO) / Every Raindrop Longs For The Sea [23:02]
05. Aufwarmen im Vogelkafig / Warm Up In A Birdcage [live in studio] [3:25]
06. Geist in der Maschine / Ghost In The Machine [live in studio] [4:59]
07. Die Nacht davor / The Night Before [live in studio] [5:39]
08. Der Kafig ist geoffnet / The Cage Is Open [live in studio] [10:11]
09. Erinnerungen an die Nacht davor / Remember The Night Before [live in studio] [6:12]

Exact Audio Copy V1.3 from 2. September 2016

Отчёт EAC об извлечении, выполненном 9. ноября 2017, 22:50

A.R. & MACHINES / A. R. IV

Дисковод: TSSTcorpCDDVDW SH-224DB Adapter: 1 ID: 0

Режим чтения : Достоверность
Использование точного потока : Да
Отключение кэша аудио : Да
Использование указателей C2 : Нет

Коррекция смещения при чтении : 6
Способность читать области Lead-in и Lead-out : Нет
Заполнение пропущенных сэмплов тишиной : Да
Удаление блоков с тишиной в начале и конце : Нет
При вычислениях CRC использовались нулевые сэмплы : Да
Интерфейс : Встроенный Win32-интерфейс для Win NT/2000

Выходной формат : Внутренние WAV-операции
Формат сэмплов : 44.100 Гц; 16 бит; стерео


TOC извлечённого CD

Трек | Старт | Длительность | Начальный сектор | Конечный сектор
––––––––––––––––––––––––––––––––––-
1 | 0:00.00 | 5:29.14 | 0 | 24688
2 | 5:29.14 | 10:48.65 | 24689 | 73353
3 | 16:18.04 | 5:21.00 | 73354 | 97428
4 | 21:39.04 | 23:02.03 | 97429 | 201081
5 | 44:41.07 | 3:25.10 | 201082 | 216466
6 | 48:06.17 | 4:58.47 | 216467 | 238863
7 | 53:04.64 | 5:39.27 | 238864 | 264315
8 | 58:44.16 | 10:11.09 | 264316 | 310149
9 | 68:55.25 | 6:12.09 | 310150 | 338058


Характеристики диапазона извлечения и сообщения об ошибках

Выбранный диапазон

Имя файла D:\TEMP\A.R. & MACHINES - 1973 - A. R. IV [2017 rem. edition].wav

Пиковый уровень 97.6 %
Скорость извлечения 8.1 X
Качество диапазона 100.0 %
CRC теста 86F62747
CRC копии 86F62747
Копирование… OK

Ошибок не произошло


AccurateRip: сводка

Трек 1 отсутствует в базе данных
Трек 2 отсутствует в базе данных
Трек 3 отсутствует в базе данных
Трек 4 отсутствует в базе данных
Трек 5 отсутствует в базе данных
Трек 6 отсутствует в базе данных
Трек 7 отсутствует в базе данных
Трек 8 отсутствует в базе данных
Трек 9 отсутствует в базе данных

Ни одного трека нет в базе AccurateRip

Конец отчёта

==== Контрольная сумма отчёта 179BE6030703FDAF439330DD16825DC1FBB61CE36B1AD106A11D7455156D2F43 ====

foobar2000 1.3.16 / Dynamic Range Meter 1.1.1
log date: 2017-11-15 00:07:20

––––––––––––––––––––––––––––––––––––––––
Analyzed: A.R. & MACHINES / A.R. IV
––––––––––––––––––––––––––––––––––––––––

DR Peak RMS Duration Track
––––––––––––––––––––––––––––––––––––––––
DR9 -0.22 dB -11.02 dB 5:29 01-Vita: Höhlenforscher + Vogelmenschen / Cave Explorers And Bird Man
DR8 -0.21 dB -10.35 dB 10:49 02-Vita: Der Mann in Nappa / The Man In Cidleather
DR9 -0.21 dB -11.99 dB 5:21 03-Vita: Dünn ist die Haut der Ekstase / Thin Is The Skin Of Ecstasy
DR10 -0.22 dB -13.59 dB 23:02 04-Acqua: Jeder Tropfen träumt vom Meer (H₂O) / Every Raindrop Longs For The Sea
DR10 -0.72 dB -13.31 dB 3:25 05-Aufwärmen im Vogelkafig / Warm Up In A Birdcage [live in studio]
DR11 -0.22 dB -14.14 dB 4:59 06-Geist in der Maschine / Ghost In The Machine [live in studio]
DR10 -0.22 dB -13.99 dB 5:39 07-Die Nacht davor / The Night Before [live in studio]
DR9 -0.21 dB -11.16 dB 10:11 08-Der Käfig ist geöffnet / The Cage Is Open [live in studio]
DR9 -0.21 dB -14.20 dB 6:12 09-Erinnerungen an die Nacht davor / Remember The Night Before [live in studio]
––––––––––––––––––––––––––––––––––––––––

Number of tracks: 9
Official DR value: DR10

Samplerate: 44100 Hz
Channels: 2
Bits per sample: 16
Bitrate: 860 kbps
Codec: FLAC
================================================================================

Track List CD5 - Autovision (1974):

01. Eisenpferde / Iron Horses [4:40]
02. Tanz der Vogel in den Winden / Bird Dance In The Wind [10:42]
03. Drei in eins / Three In One [6:45]
04. Turbulenzen / Turbulences [9:06]
05. Jay Guru Dev [10:08]
06. Kopf in den Wolken – Beine auf der Erde / Head In The Clouds, Feet On The Ground [0:34]

Exact Audio Copy V1.3 from 2. September 2016

Отчёт EAC об извлечении, выполненном 10. ноября 2017, 20:36

A.R. & MACHINES / Autovision

Дисковод: TSSTcorpCDDVDW SH-224DB Adapter: 1 ID: 0

Режим чтения : Достоверность
Использование точного потока : Да
Отключение кэша аудио : Да
Использование указателей C2 : Нет

Коррекция смещения при чтении : 6
Способность читать области Lead-in и Lead-out : Нет
Заполнение пропущенных сэмплов тишиной : Да
Удаление блоков с тишиной в начале и конце : Нет
При вычислениях CRC использовались нулевые сэмплы : Да
Интерфейс : Встроенный Win32-интерфейс для Win NT/2000

Выходной формат : Внутренние WAV-операции
Формат сэмплов : 44.100 Гц; 16 бит; стерео


TOC извлечённого CD

Трек | Старт | Длительность | Начальный сектор | Конечный сектор
––––––––––––––––––––––––––––––––––-
1 | 0:00.00 | 4:39.71 | 0 | 20995
2 | 4:39.71 | 10:42.32 | 20996 | 69177
3 | 15:22.28 | 6:44.46 | 69178 | 99523
4 | 22:06.74 | 9:05.60 | 99524 | 140458
5 | 31:12.59 | 10:08.13 | 140459 | 186071
6 | 41:20.72 | 0:34.25 | 186072 | 188646


Характеристики диапазона извлечения и сообщения об ошибках

Выбранный диапазон

Имя файла D:\TEMP\A.R. & MACHINES - 1974 - Autovision [2017 rem. edition].wav

Пиковый уровень 96.4 %
Скорость извлечения 6.5 X
Качество диапазона 100.0 %
CRC теста B03535A0
CRC копии B03535A0
Копирование… OK

Ошибок не произошло


AccurateRip: сводка

Трек 1 отсутствует в базе данных
Трек 2 отсутствует в базе данных
Трек 3 отсутствует в базе данных
Трек 4 отсутствует в базе данных
Трек 5 отсутствует в базе данных
Трек 6 отсутствует в базе данных

Ни одного трека нет в базе AccurateRip

Конец отчёта

==== Контрольная сумма отчёта 081A908A40EF8663DDE4F7E982A2583884288D370948E7D6C02BE9D73662B3A1 ====

foobar2000 1.3.16 / Dynamic Range Meter 1.1.1
log date: 2017-11-15 00:08:02

––––––––––––––––––––––––––––––––––––––––
Analyzed: A.R. & MACHINES / Autovision
––––––––––––––––––––––––––––––––––––––––

DR Peak RMS Duration Track
––––––––––––––––––––––––––––––––––––––––
DR12 -0.32 dB -13.65 dB 4:40 01-Eisenpferde / Iron Horses
DR11 -0.32 dB -12.83 dB 10:42 02-Tanz der Vögel in den Winden / Bird Dance In The Wind
DR12 -0.82 dB -15.88 dB 6:45 03-Drei in eins / Three In One
DR11 -0.31 dB -15.36 dB 9:06 04-Turbulenzen / Turbulences
DR10 -3.01 dB -14.82 dB 10:08 05-Jay Guru Dev
DR9 -6.82 dB -21.15 dB 0:34 06-Kopf in den Wolken – Beine auf der Erde / Head In The Clouds, Feet On The Ground
––––––––––––––––––––––––––––––––––––––––

Number of tracks: 6
Official DR value: DR11

Samplerate: 44100 Hz
Channels: 2
Bits per sample: 16
Bitrate: 710 kbps
Codec: FLAC
================================================================================

Track List CD6 - Erholung (1975):

01. Gute Reise / Have A Nice Trip [12:17]
02. Alles inklusive / All Included [10:45]
03. Erholung / Recuperation [7:04]
04. Atmosphare / Ambience [7:36]
05. Heute ist das Gestern von morgen / Today Is Tomorrows Yesterday [live in Krefeld, 1973] [8:06]
06. Die Zukunft der Vergangenheit / Future Of The Past [live in Krefeld, 1973] [26:06]

Exact Audio Copy V1.3 from 2. September 2016

Отчёт EAC об извлечении, выполненном 12. ноября 2017, 20:13

Achim REICHEL / Erholung

Дисковод: TSSTcorpCDDVDW SH-224DB Adapter: 1 ID: 0

Режим чтения : Достоверность
Использование точного потока : Да
Отключение кэша аудио : Да
Использование указателей C2 : Нет

Коррекция смещения при чтении : 6
Способность читать области Lead-in и Lead-out : Нет
Заполнение пропущенных сэмплов тишиной : Да
Удаление блоков с тишиной в начале и конце : Нет
При вычислениях CRC использовались нулевые сэмплы : Да
Интерфейс : Встроенный Win32-интерфейс для Win NT/2000

Выходной формат : Внутренние WAV-операции
Формат сэмплов : 44.100 Гц; 16 бит; стерео


TOC извлечённого CD

Трек | Старт | Длительность | Начальный сектор | Конечный сектор
––––––––––––––––––––––––––––––––––-
1 | 0:00.00 | 12:17.10 | 0 | 55284
2 | 12:17.10 | 10:44.63 | 55285 | 103647
3 | 23:01.73 | 7:04.10 | 103648 | 135457
4 | 30:06.08 | 7:36.09 | 135458 | 169666
5 | 37:42.17 | 8:06.10 | 169667 | 206126
6 | 45:48.27 | 26:05.48 | 206127 | 323549


Характеристики диапазона извлечения и сообщения об ошибках

Выбранный диапазон

Имя файла D:\TEMP\Achim REICHEL - 1975 - Erholung [2017 rem. edition].wav

Пиковый уровень 97.4 %
Скорость извлечения 7.7 X
Качество диапазона 99.9 %
CRC теста 9AE0C6F4
CRC копии 9AE0C6F4
Копирование… OK

Ошибок не произошло


AccurateRip: сводка

Трек 1 отсутствует в базе данных
Трек 2 отсутствует в базе данных
Трек 3 отсутствует в базе данных
Трек 4 отсутствует в базе данных
Трек 5 отсутствует в базе данных
Трек 6 отсутствует в базе данных

Ни одного трека нет в базе AccurateRip

Конец отчёта

==== Контрольная сумма отчёта 5F1E62647A711409B27A6E08BAAF9BFA7CFF7C4E4BA09D49C30561534614909B ====

foobar2000 1.3.16 / Dynamic Range Meter 1.1.1
log date: 2017-11-15 00:09:04

––––––––––––––––––––––––––––––––––––––––
Analyzed: Achim REICHEL / Erholung — Recuperation
––––––––––––––––––––––––––––––––––––––––

DR Peak RMS Duration Track
––––––––––––––––––––––––––––––––––––––––
DR11 -0.32 dB -15.65 dB 12:17 01-Gute Reise / Have A Nice Trip
DR10 -0.32 dB -13.14 dB 10:45 02-Alles inklusive / All Included
DR13 -0.29 dB -17.39 dB 7:04 03-Erholung / Recuperation
DR13 -0.32 dB -18.01 dB 7:36 04-Atmosphäre / Ambience
DR8 -0.22 dB -10.50 dB 8:06 05-Heute ist das Gestern von morgen / Today Is Tomorrows Yesterday [live in Krefeld, 1973]
DR7 -0.22 dB -9.99 dB 26:06 06-Die Zukunft der Vergangenheit / Future Of The Past [live in Krefeld, 1973]
––––––––––––––––––––––––––––––––––––––––

Number of tracks: 6
Official DR value: DR11

Samplerate: 44100 Hz
Channels: 2
Bits per sample: 16
Bitrate: 853 kbps
Codec: FLAC
================================================================================

Track List CD7 - Live in Koln (The Cologne Concert) (1973):

01. Domglocken auf Acid / Churchbells On Acid [36:53]
02. Heidnische Gebete / Gentile Prayers [41:34]

Exact Audio Copy V1.3 from 2. September 2016

Отчёт EAC об извлечении, выполненном 12. ноября 2017, 20:47

A.R. & MACHINES / Live in Köln (The Cologne Concert, 25.04.1973)

Дисковод: TSSTcorpCDDVDW SH-224DB Adapter: 1 ID: 0

Режим чтения : Достоверность
Использование точного потока : Да
Отключение кэша аудио : Да
Использование указателей C2 : Нет

Коррекция смещения при чтении : 6
Способность читать области Lead-in и Lead-out : Нет
Заполнение пропущенных сэмплов тишиной : Да
Удаление блоков с тишиной в начале и конце : Нет
При вычислениях CRC использовались нулевые сэмплы : Да
Интерфейс : Встроенный Win32-интерфейс для Win NT/2000

Выходной формат : Внутренние WAV-операции
Формат сэмплов : 44.100 Гц; 16 бит; стерео


TOC извлечённого CD

Трек | Старт | Длительность | Начальный сектор | Конечный сектор
––––––––––––––––––––––––––––––––––-
1 | 0:00.00 | 36:52.65 | 0 | 165964
2 | 36:52.65 | 41:34.03 | 165965 | 353017


Характеристики диапазона извлечения и сообщения об ошибках

Выбранный диапазон

Имя файла D:\TEMP\A.R. & MACHINES - 1973 - Live in Koln (The Cologne Concert) [2017 edition].wav

Пиковый уровень 100.0 %
Скорость извлечения 8.4 X
Качество диапазона 100.0 %
CRC теста 0A450538
CRC копии 0A450538
Копирование… OK

Ошибок не произошло


AccurateRip: сводка

Трек 1 отсутствует в базе данных
Трек 2 отсутствует в базе данных

Ни одного трека нет в базе AccurateRip

Конец отчёта

==== Контрольная сумма отчёта 8F9854106657388274460C7EE2C233B6E5CAD8CCE72DCE44F1043C8497B757BC ====

foobar2000 1.3.16 / Dynamic Range Meter 1.1.1
log date: 2017-11-15 00:09:58

––––––––––––––––––––––––––––––––––––––––
Analyzed: A.R. & MACHINES / Live in Köln (The Cologne Concert, 25.04.1973)
––––––––––––––––––––––––––––––––––––––––

DR Peak RMS Duration Track
––––––––––––––––––––––––––––––––––––––––
DR10 0.00 dB -14.28 dB 36:53 01-Domglocken auf Acid / Churchbells On Acid
DR10 -0.22 dB -13.45 dB 41:34 02-Heidnische Gebete / Gentile Prayers
––––––––––––––––––––––––––––––––––––––––

Number of tracks: 2
Official DR value: DR10

Samplerate: 44100 Hz
Channels: 2
Bits per sample: 16
Bitrate: 824 kbps
Codec: FLAC
================================================================================

Track List CD8 - Transformation (Remixes 96) (1996):

01. Den Traumen hinterher / Chasing Rainbows [4:23]
02. Esoteric Eric [5:49]
03. Hinfort mit dem Wind / Gone With The Wind [5:49]
04. Jay Guru Dev [5:10]
05. In der Herberge zum sechsten Sinn / In The Inn Of Sixth Sense [5:25]
06. Prickel Pit [6:51]
07. Im Irrgarten des Geistes / In The Labyrinth Of The Mind [4:49]
08. Saxoflow [5:42]

Exact Audio Copy V1.3 from 2. September 2016

Отчёт EAC об извлечении, выполненном 13. ноября 2017, 11:39

A.R. & MACHINES / Transformation (Remixes 96)

Дисковод: TSSTcorpCDDVDW SH-224DB Adapter: 1 ID: 0

Режим чтения : Достоверность
Использование точного потока : Да
Отключение кэша аудио : Да
Использование указателей C2 : Нет

Коррекция смещения при чтении : 6
Способность читать области Lead-in и Lead-out : Нет
Заполнение пропущенных сэмплов тишиной : Да
Удаление блоков с тишиной в начале и конце : Нет
При вычислениях CRC использовались нулевые сэмплы : Да
Интерфейс : Встроенный Win32-интерфейс для Win NT/2000

Выходной формат : Внутренние WAV-операции
Формат сэмплов : 44.100 Гц; 16 бит; стерео


TOC извлечённого CD

Трек | Старт | Длительность | Начальный сектор | Конечный сектор
––––––––––––––––––––––––––––––––––-
1 | 0:00.00 | 4:23.29 | 0 | 19753
2 | 4:23.29 | 5:48.41 | 19754 | 45894
3 | 10:11.70 | 5:49.14 | 45895 | 72083
4 | 16:01.09 | 5:09.44 | 72084 | 95302
5 | 21:10.53 | 5:24.74 | 95303 | 119676
6 | 26:35.52 | 6:50.63 | 119677 | 150489
7 | 33:26.40 | 4:48.45 | 150490 | 172134
8 | 38:15.10 | 5:42.21 | 172135 | 197805


Характеристики диапазона извлечения и сообщения об ошибках

Выбранный диапазон

Имя файла D:\TEMP\A.R. & MACHINES - 1996 - Transformation (Remixes 96) [2017 rem. edition].wav

Пиковый уровень 96.6 %
Скорость извлечения 6.5 X
Качество диапазона 99.9 %
CRC теста A08BE7FA
CRC копии A08BE7FA
Копирование… OK

Ошибок не произошло


AccurateRip: сводка

Трек 1 отсутствует в базе данных
Трек 2 отсутствует в базе данных
Трек 3 отсутствует в базе данных
Трек 4 отсутствует в базе данных
Трек 5 отсутствует в базе данных
Трек 6 отсутствует в базе данных
Трек 7 отсутствует в базе данных
Трек 8 отсутствует в базе данных

Ни одного трека нет в базе AccurateRip

Конец отчёта

==== Контрольная сумма отчёта 495DB7C34DFA1BB5D5B62B7130CEC6758412563ADE1312902A710E44F6DE42C6 ====

foobar2000 1.3.16 / Dynamic Range Meter 1.1.1
log date: 2017-11-15 00:10:47

––––––––––––––––––––––––––––––––––––––––
Analyzed: A.R. & MACHINES / Transformation (Remixes 96)
––––––––––––––––––––––––––––––––––––––––

DR Peak RMS Duration Track
––––––––––––––––––––––––––––––––––––––––
DR10 -0.32 dB -13.01 dB 4:23 01-Den Träumen hinterher / Chasing Rainbows
DR9 -0.31 dB -12.22 dB 5:49 02-Esoteric Eric
DR9 -0.30 dB -11.51 dB 5:49 03-Hinfort mit dem Wind / Gone With The Wind
DR10 -0.32 dB -12.77 dB 5:10 04-Jay Guru Dev
DR9 -0.31 dB -11.29 dB 5:25 05-In der Herberge zum sechsten Sinn / In The Inn Of Sixth Sense
DR8 -0.30 dB -10.62 dB 6:51 06-Prickel Pit
DR8 -0.30 dB -10.05 dB 4:49 07-Im Irrgarten des Geistes / In The Labyrinth Of The Mind
DR10 -0.31 dB -12.34 dB 5:42 08-Saxoflow
––––––––––––––––––––––––––––––––––––––––

Number of tracks: 8
Official DR value: DR9

Samplerate: 44100 Hz
Channels: 2
Bits per sample: 16
Bitrate: 918 kbps
Codec: FLAC
================================================================================

Track List CD9 - 14 Pieces for Guitar and Echo Chamber (The Pure Stuff) (1970-74):

01. Melodi Echolalie / Melodia Echolalia [1:11]
02. Verloren im Spiegelkabinett / Lost In A Mirror Maze [2:26]
03. Schaukelstuhl auf Wolke 7 / Rockingchair On Cloud 7 [3:29]
04. Meerjungfrau im Whiskeyglas / Mermaid In A Whiskeytumbler [7:02]
05. Heile Welt mit kleinen Fehlern / Perfect World With Little Bugs [9:33]
06. Innige Umarmung auf dunnem Eis / Warm Embrace On Thin Ice [5:25]
07. Hier ist dein Weckruf / This Is Your Wake Up Call [4:07]
08. Schiwago Shankar / Zhivago Shankar [8:27]
09. Echo Boogie [2:13]
10. Innovation Shuffle [2:45]
11. Schwungvolle Botschaft / Swingin’ Message [1:42]
12. Erwachen jenseits von gut und bose / Awakening Beyond Good And Evil [3:43]
13. Psychedelia Instrumenia [3:52]
14. Der sanfte Wuchs / Gentle Growth [4:22]

Exact Audio Copy V1.3 from 2. September 2016

Отчёт EAC об извлечении, выполненном 13. ноября 2017, 12:03

Achim REICHEL / 14 Pieces for Guitar and Echo Chamber (The Pure Stuff)

Дисковод: TSSTcorpCDDVDW SH-224DB Adapter: 1 ID: 0

Режим чтения : Достоверность
Использование точного потока : Да
Отключение кэша аудио : Да
Использование указателей C2 : Нет

Коррекция смещения при чтении : 6
Способность читать области Lead-in и Lead-out : Нет
Заполнение пропущенных сэмплов тишиной : Да
Удаление блоков с тишиной в начале и конце : Нет
При вычислениях CRC использовались нулевые сэмплы : Да
Интерфейс : Встроенный Win32-интерфейс для Win NT/2000

Выходной формат : Внутренние WAV-операции
Формат сэмплов : 44.100 Гц; 16 бит; стерео


TOC извлечённого CD

Трек | Старт | Длительность | Начальный сектор | Конечный сектор
––––––––––––––––––––––––––––––––––-
1 | 0:00.00 | 1:10.48 | 0 | 5297
2 | 1:10.48 | 2:25.74 | 5298 | 16246
3 | 3:36.47 | 3:29.11 | 16247 | 31932
4 | 7:05.58 | 7:01.74 | 31933 | 63581
5 | 14:07.57 | 9:32.58 | 63582 | 106539
6 | 23:40.40 | 5:24.53 | 106540 | 130892
7 | 29:05.18 | 4:06.39 | 130893 | 149381
8 | 33:11.57 | 8:27.09 | 149382 | 187415
9 | 41:38.66 | 2:12.64 | 187416 | 197379
10 | 43:51.55 | 2:45.24 | 197380 | 209778
11 | 46:37.04 | 1:42.14 | 209779 | 217442
12 | 48:19.18 | 3:43.36 | 217443 | 234203
13 | 52:02.54 | 3:52.09 | 234204 | 251612
14 | 55:54.63 | 4:22.08 | 251613 | 271270


Характеристики диапазона извлечения и сообщения об ошибках

Выбранный диапазон

Имя файла D:\TEMP\Achim REICHEL - 1970-74 - 14 Pieces for Guitar and Echo Chamber (The Pure Stuff) [2017 edition].wav

Пиковый уровень 97.4 %
Скорость извлечения 7.1 X
Качество диапазона 100.0 %
CRC теста 659248FE
CRC копии 659248FE
Копирование… OK

Ошибок не произошло


AccurateRip: сводка

Трек 1 отсутствует в базе данных
Трек 2 отсутствует в базе данных
Трек 3 отсутствует в базе данных
Трек 4 отсутствует в базе данных
Трек 5 отсутствует в базе данных
Трек 6 отсутствует в базе данных
Трек 7 отсутствует в базе данных
Трек 8 отсутствует в базе данных
Трек 9 отсутствует в базе данных
Трек 10 отсутствует в базе данных
Трек 11 отсутствует в базе данных
Трек 12 отсутствует в базе данных
Трек 13 отсутствует в базе данных
Трек 14 отсутствует в базе данных

Ни одного трека нет в базе AccurateRip

Конец отчёта

==== Контрольная сумма отчёта 3B012760522F72880161E1DBE64BBCBE376BD59F0B97424436F66855DF68185F ====

foobar2000 1.3.16 / Dynamic Range Meter 1.1.1
log date: 2017-11-15 00:12:04

––––––––––––––––––––––––––––––––––––––––
Analyzed: Achim REICHEL / 14 Pieces for Guitar and Echo Chamber (The Pure Stuff)
––––––––––––––––––––––––––––––––––––––––

DR Peak RMS Duration Track
––––––––––––––––––––––––––––––––––––––––
DR9 -0.36 dB -11.69 dB 1:11 01-Melodi Echolalie / Melodia Echolalia
DR10 -0.32 dB -11.61 dB 2:26 02-Verloren im Spiegelkabinett / Lost In A Mirror Maze
DR10 -0.49 dB -12.78 dB 3:29 03-Schaukelstuhl auf Wolke 7 / Rockingchair On Cloud 7
DR10 -0.32 dB -12.70 dB 7:02 04-Meerjungfrau im Whiskeyglas / Mermaid In A Whiskeytumbler
DR10 -0.22 dB -11.32 dB 9:33 05-Heile Welt mit kleinen Fehlern / Perfect World With Little Bugs
DR11 -0.23 dB -14.59 dB 5:25 06-Innige Umarmung auf dünnem Eis / Warm Embrace On Thin Ice
DR11 -0.23 dB -13.00 dB 4:07 07-Hier ist dein Weckruf / This Is Your Wake Up Call
DR10 -0.22 dB -12.69 dB 8:27 08-Schiwago Shankar / Zhivago Shankar
DR10 -0.22 dB -11.64 dB 2:13 09-Echo Boogie
DR10 -0.23 dB -13.33 dB 2:45 10-Innovation Shuffle
DR10 -0.22 dB -11.96 dB 1:42 11-Schwungvolle Botschaft / Swingin’ Message
DR9 -0.22 dB -10.75 dB 3:43 12-Erwachen jenseits von gut und böse / Awakening Beyond Good And Evil
DR9 -0.22 dB -11.68 dB 3:52 13-Psychedelia Instrumenia
DR10 -0.22 dB -12.11 dB 4:22 14-Der sanfte Wuchs / Gentle Growth
––––––––––––––––––––––––––––––––––––––––

Number of tracks: 14
Official DR value: DR10

Samplerate: 44100 Hz
Channels: 2
Bits per sample: 16
Bitrate: 525 kbps
Codec: FLAC
================================================================================

Track List CD10 - Virtual Journey (DJ Aspects) (2017):

01. Hier ist dein Weckruf / This Is Your Wake Up Call [6:01]
02. Schwungvolle Botschaft / Swingin’ Message [4:09]
03. Meerjungfrau im Whiskeyglas / Mermaid In A Whiskeytumbler [7:17]
04. Schiwago Shankar / Zhivago Shankar [5:54]
05. Schaukelstuhl auf Wolke 7 / Rockingchair On Cloud 7 [9:26]
06. Echo Boogie [3:28]
07. Heile Welt mit kleinen Fehlern / Perfect World With Little Bugs [8:47]
08. Verloren im Spiegelkabinett / Lost In A Mirror Maze [5:59]

Exact Audio Copy V1.3 from 2. September 2016

Отчёт EAC об извлечении, выполненном 13. ноября 2017, 19:57

Achim REICHEL / Virtual Journey (DJ Aspects)

Дисковод: TSSTcorpCDDVDW SH-224DB Adapter: 1 ID: 0

Режим чтения : Достоверность
Использование точного потока : Да
Отключение кэша аудио : Да
Использование указателей C2 : Нет

Коррекция смещения при чтении : 6
Способность читать области Lead-in и Lead-out : Нет
Заполнение пропущенных сэмплов тишиной : Да
Удаление блоков с тишиной в начале и конце : Нет
При вычислениях CRC использовались нулевые сэмплы : Да
Интерфейс : Встроенный Win32-интерфейс для Win NT/2000

Выходной формат : Внутренние WAV-операции
Формат сэмплов : 44.100 Гц; 16 бит; стерео


TOC извлечённого CD

Трек | Старт | Длительность | Начальный сектор | Конечный сектор
––––––––––––––––––––––––––––––––––-
1 | 0:00.00 | 6:00.63 | 0 | 27062
2 | 6:00.63 | 4:08.43 | 27063 | 45705
3 | 10:09.31 | 7:17.00 | 45706 | 78480
4 | 17:26.31 | 5:53.48 | 78481 | 105003
5 | 23:20.04 | 9:26.16 | 105004 | 147469
6 | 32:46.20 | 3:28.13 | 147470 | 163082
7 | 36:14.33 | 8:46.42 | 163083 | 202574
8 | 45:01.00 | 5:59.12 | 202575 | 229511


Характеристики диапазона извлечения и сообщения об ошибках

Выбранный диапазон

Имя файла D:\TEMP\Achim REICHEL - 2017 - Virtual Journey (DJ Aspects) [CD-10 of boxset].wav

Пиковый уровень 97.6 %
Скорость извлечения 6.8 X
Качество диапазона 100.0 %
CRC теста B989CAC4
CRC копии B989CAC4
Копирование… OK

Ошибок не произошло


AccurateRip: сводка

Трек 1 отсутствует в базе данных
Трек 2 отсутствует в базе данных
Трек 3 отсутствует в базе данных
Трек 4 отсутствует в базе данных
Трек 5 отсутствует в базе данных
Трек 6 отсутствует в базе данных
Трек 7 отсутствует в базе данных
Трек 8 отсутствует в базе данных

Ни одного трека нет в базе AccurateRip

Конец отчёта

==== Контрольная сумма отчёта C6F91CEB953DF55EEC7400E43B8DBA70C5F19C9064750BA32DDC4245E9B3F381 ====

foobar2000 1.3.16 / Dynamic Range Meter 1.1.1
log date: 2017-11-15 00:13:05

––––––––––––––––––––––––––––––––––––––––
Analyzed: Achim REICHEL / Virtual Journey (DJ Aspects)
––––––––––––––––––––––––––––––––––––––––

DR Peak RMS Duration Track
––––––––––––––––––––––––––––––––––––––––
DR11 -0.22 dB -13.02 dB 6:01 01-Hier ist dein Weckruf / This Is Your Wake Up Call
DR9 -0.71 dB -10.70 dB 4:09 02-Schwungvolle Botschaft / Swingin’ Message
DR11 -0.22 dB -12.74 dB 7:17 03-Meerjungfrau im Whiskeyglas / Mermaid In A Whiskeytumbler
DR10 -0.22 dB -12.50 dB 5:54 04-Schiwago Shankar / Zhivago Shankar
DR10 -0.20 dB -12.18 dB 9:26 05-Schaukelstuhl auf Wolke 7 / Rockingchair On Cloud 7
DR10 -0.22 dB -11.62 dB 3:28 06-Echo Boogie
DR11 -0.22 dB -12.83 dB 8:47 07-Heile Welt mit kleinen Fehlern / Perfect World With Little Bugs
DR9 -0.22 dB -11.78 dB 5:59 08-Verloren im Spiegelkabinett / Lost In A Mirror Maze
––––––––––––––––––––––––––––––––––––––––

Number of tracks: 8
Official DR value: DR10

Samplerate: 44100 Hz
Channels: 2
Bits per sample: 16
Bitrate: 685 kbps
Codec: FLAC
================================================================================

Nina Simone - Little Girl Blue (1958/2013) [Official Digital Download 24bit/96kHz] RE-UP

All thanks go to spAceLover

>>> My Blog <<<

Download from icerbox.com: