Subcategories

Alias - Never Say Never (2009)

Posted By: Andi_Deris
Alias - Never Say Never (2009)

Alias - Never Say Never (2009)
EAC Rip | FLAC: Image+Cue+Log | 562 Mb | MP3 CBR 320 kbps | 180 Mb | Scans | 01:15:17
EMI Music Canada | 5-0999-2-36941-2-5
Hard Rock, Arena Rock, AOR

Never Say Never, released in 2009, is the second album from the 1990s hard rock band Alias. In early January 2009, Alias announced the release of their long awaited second album. This album, appropriately titled “Never Say Never”, sat unreleased for nearly 18 years. It was recorded in 1992 and was planned to follow the self-titled debut album Alias. However, due to the rapidly evolving music scene of that time where the grunge movement was growing in popularity and metal was fading, it was never released. A few of the songs from this album were re-recorded and appeared on lead vocalist Freddy Curci’s solo album Dreamer’s Road, but many tracks remained unreleased.



Alias - Never Say Never (2009)


Track Listing

01. Woman Enough (4:31)
02. XTCOI (3:44)
03. How Much Longer Is Forever (4:10)
04. Give Me A Reason To Stay (4:36)
05. Wild Wild One (4:47)
06. Pleasure And Pain (4:50)
07. The Warden (5:12)
08. Bare Necessity (4:06)
09. All I Want Is You (5:03)
10. Call Of The Wild (5:36)
11. Diamonds (4:15)
12. Play Me A Song (2:00)
13. We Want It All (5:23)

Bonus tracks
14. Perfect World (4:33)
15. Into The Fire (4:37)
16. Who Do You Think You Are (4:09)
17. When I'm With You (acoustic version) (3:45)

Producers: John Jansen, Denny DeMarchi, Rick Neigher, & Randy Nicklaus, Freddy Curci and Steve DeMarchi

The Band

• Freddy Curci - Lead vocals, background vocals, additional keyboards (tracks 3 & 13)
• Steve DeMarchi - Guitar, background vocals, bass guitar (track 16)
• Marco Mendoza - Bass
• Larry Aberman - Drums
• Robert O'Hearn - Keyboards
• Denny DeMarchi - Keyboards, background vocals

*****
• Eric Troyer - background vocals
• James Christian - background vocals
• Rick Neigher - background vocals
• Ross Stewart - additional guitar (track 11)
• Mike Baird - drums (track 15)
• CJ Vanston - additional keyboards (track 16)

Alias - Never Say Never (2009)


Exact Audio Copy V0.99 prebeta 5 from 4. May 2009

EAC extraction logfile from 31. December 2010, 12:58

Alias / Never Say Never (Canada-Version)

Used drive : TSSTcorpCDDVDW SH-S223C Adapter: 1 ID: 1

Read mode : Secure
Utilize accurate stream : Yes
Defeat audio cache : Yes
Make use of C2 pointers : No

Read offset correction : 697
Overread into Lead-In and Lead-Out : No
Fill up missing offset samples with silence : Yes
Delete leading and trailing silent blocks : No
Null samples used in CRC calculations : Yes
Used interface : Installed external ASPI interface

Used output format : Internal WAV Routines
Sample format : 44.100 Hz; 16 Bit; Stereo


TOC of the extracted CD

Track | Start | Length | Start sector | End sector
––––––––––––––––––––––––––––-
1 | 0:00.00 | 4:31.12 | 0 | 20336
2 | 4:31.12 | 3:44.37 | 20337 | 37173
3 | 8:15.49 | 4:10.05 | 37174 | 55928
4 | 12:25.54 | 4:36.16 | 55929 | 76644
5 | 17:01.70 | 4:47.63 | 76645 | 98232
6 | 21:49.58 | 4:50.16 | 98233 | 119998
7 | 26:39.74 | 5:12.35 | 119999 | 143433
8 | 31:52.34 | 4:06.66 | 143434 | 161949
9 | 35:59.25 | 5:03.07 | 161950 | 184681
10 | 41:02.32 | 5:36.41 | 184682 | 209922
11 | 46:38.73 | 4:15.56 | 209923 | 229103
12 | 50:54.54 | 2:00.55 | 229104 | 238158
13 | 52:55.34 | 5:23.45 | 238159 | 262428
14 | 58:19.04 | 4:33.25 | 262429 | 282928
15 | 62:52.29 | 4:37.27 | 282929 | 303730
16 | 67:29.56 | 4:09.67 | 303731 | 322472
17 | 71:39.48 | 3:45.74 | 322473 | 339421


Range status and errors

Selected range

Filename E:\Alias - Never Say Never\Never Say Never.wav

Peak level 100.0 %
Range quality 100.0 %
Copy CRC 03F4ADB9
Copy OK

No errors occurred

End of status report


Many thanks to the original uploader: GriffonNest

SEE also:
Alias 1990 Alias



Password: pass