Subcategories

Chor des Bayerischen Rundfunks - Arvo Pärt: Live (2017)

Posted By: SERTiL
Chor des Bayerischen Rundfunks - Arvo Pärt: Live (2017)

Chor des Bayerischen Rundfunks, Hilliard Ensemble, Münchner Rundfunkorchester, Ulf Schirmer, Marcello Viotti, Robert King & Peter Dijkstra - Arvo Pärt: Live (2017)
EAC Rip | FLAC (tracks)+cue, log, m3u, scans | 274 MB
Label: BR Klassik – 900319 | Tracks: 13 | Time: 70:00 min
Classical, Sacred, Choral

Arvo Pärt, who was born in Estonia in 1935, has succeeded in bringing sacred music back to a broader audience, and away from the confines of the church service, more than almost any other contemporary composer. The meditative character of his works, and his return to the simplest and most basic musical forms, convey moments of intense spirituality. Even before his emigration from the Soviet Union to Austria and then to Germany, Pärt had already invented what he termed the tintinnabuli style of composition (from the Latin word for a bell). He produced an early and important example of this style in 1977 with the ""Cantus in Memory of Benjamin Britten"", scored for string orchestra and bell, and it is also a key feature of the three great choral works that form the greater part of this new BR-KLASSIK CD ""Arvo Pärt: Live"", namely the ""Seven Magnificat Antiphons"" for mixed choir a capella, the large-scale oratorio ""Cecilia, vergine romana"" for mixed choir and orchestra, and the vocal work Litany Prayers of St John Chrysostom for Each Hour of the Day and Night for soloists, mixed choir and orchestra. Also included on this CD is the ""Collage on B-A-C-H"" for strings, oboe, harpsichord and piano. Composed in 1964, before Pärt's aesthetic reorientation, it is one of his most famous works. Despite its radical reduction of means of expression, Pärt's music demands the greatest care in execution from those performing it and this has been masterfully realized in the present recording by the Chor des Bayerischen Rundfunks and the Münchner Rundfunkorchester, whose combined and homogenous sound is a direct result of their regular cooperation. Ulf Schirmer, Marcello Viotti und the choir's current artistic director Peter Dijkstra here demonstrate their deep familiarity with the subtle sound-world of Arvo Pärt.These live recordings were made at Munich concerts in July 2000, February and December 2005, and January and October 2011, all of which received public and critical acclaim.

Tracklist:
01. Collage sur B-A-C-H: I. Toccata: Preciso [Quarter Note = 120] - Münchner Rundfunkorchester
02. Collage sur B-A-C-H: II. Sarabande: Lento [Half Note = 42] - Yeon-Hee Kwak
03. Collage sur B-A-C-H: III. Ricercar: Deciso [Quarter note = 126-132] - Münchner Rundfunkorchester
04. 7 Magnificat Antiphons: No. 1. O Weisheit - Chor des Bayerischen Rundfunks
05. 7 Magnificat Antiphons: No. 2. O Adonai - Chor des Bayerischen Rundfunks
06. 7 Magnificat Antiphons: No. 3. O Spross - Chor des Bayerischen Rundfunks
07. 7 Magnificat Antiphons: No. 4. O Schlüssel - Chor des Bayerischen Rundfunks
08. 7 Magnificat Antiphons: No. 5. O Morgenstern - Chor des Bayerischen Rundfunks
09. 7 Magnificat Antiphons: No. 6. O König - Chor des Bayerischen Rundfunks
10. 7 Magnificat Antiphons: No. 7. O Immanuel - Chor des Bayerischen Rundfunks
11. Cecilia, vergine romana - Chor des Bayerischen Rundfunks
12. Cantus in memoriam Benjamin Britten - Münchner Rundfunkorchester
13. Litany, "Prayers of St. John Chrysostom for Each Hour of the Day and Night" - David James

Personnel:
Chor des Bayerischen Rundfunks
The Hilliard Ensemble
Münchner Rundfunkorchester
Ulf Schirmer, conductor
Marcello Viotti, conductor
Robert King, conductor
Peter Dijkstra, conductor

Exact Audio Copy V1.0 beta 3 from 29. August 2011

EAC extraction logfile from 10. February 2018, 4:34

Chor des Bayerischen Rundfunks, The Hilliard Ensemble, Münchner Rundfunkorchester / Arvo Pärt Live

Used drive : MATSHITADVD-RAM UJ8G6 Adapter: 0 ID: 0

Read mode : Secure
Utilize accurate stream : Yes
Defeat audio cache : Yes
Make use of C2 pointers : No

Read offset correction : 103
Overread into Lead-In and Lead-Out : No
Fill up missing offset samples with silence : Yes
Delete leading and trailing silent blocks : No
Null samples used in CRC calculations : Yes
Used interface : Native Win32 interface for Win NT & 2000
Gap handling : Appended to previous track

Used output format : User Defined Encoder
Selected bitrate : 1024 kBit/s
Quality : High
Add ID3 tag : No
Command line compressor : C:\Program Files (x86)\Exact Audio Copy\Flac\flac.exe
Additional command line options : -8 -e -p -V -T "ARTIST=%artist%" -T "TITLE=%title%" -T "ALBUM=%albumtitle%" -T "DATE=%year%" -T "TRACKNUMBER=%tracknr%" -T "GENRE=%genre%" -T "PERFORMER=%albuminterpret%" -T "COMPOSER=%composer%" %haslyrics%–tag-from-file=LYRICS="%lyricsfile%"%haslyrics% -T "ALBUMARTIST=%albumartist%" -T "DISCNUMBER=%cdnumber%" -T "TOTALDISCS=%totalcds%" -T "TOTALTRACKS=%numtracks%" -T "COMMENT=%comment%" %source% -o %dest%


TOC of the extracted CD

Track | Start | Length | Start sector | End sector
––––––––––––––––––––––––––––-
1 | 0:00.00 | 2:40.05 | 0 | 12004
2 | 2:40.05 | 3:11.30 | 12005 | 26359
3 | 5:51.35 | 1:22.39 | 26360 | 32548
4 | 7:13.74 | 1:25.59 | 32549 | 38982
5 | 8:39.58 | 2:07.71 | 38983 | 48578
6 | 10:47.54 | 0:56.03 | 48579 | 52781
7 | 11:43.57 | 1:52.62 | 52782 | 61243
8 | 13:36.44 | 1:35.08 | 61244 | 68376
9 | 15:11.52 | 1:19.35 | 68377 | 74336
10 | 16:31.12 | 2:30.24 | 74337 | 85610
11 | 19:01.36 | 20:12.73 | 85611 | 176583
12 | 39:14.34 | 7:42.09 | 176584 | 211242
13 | 46:56.43 | 23:09.20 | 211243 | 315437


Track 1

Filename C:\Users\Yann\Music\#EAC rips\Nouveau dossier (3)\01 - Collage Über B-A-C-H - 1. Toccata. Preciso.wav

Pre-gap length 0:00:02.00

Peak level 62.9 %
Extraction speed 2.3 X
Track quality 100.0 %
Test CRC CD16ACE6
Copy CRC CD16ACE6
Track not present in AccurateRip database
Copy OK

Track 2

Filename C:\Users\Yann\Music\#EAC rips\Nouveau dossier (3)\02 - Collage Über B-A-C-H - 2. Sarabande. Lento.wav

Peak level 47.4 %
Extraction speed 2.5 X
Track quality 100.0 %
Test CRC 1B869015
Copy CRC 1B869015
Track not present in AccurateRip database
Copy OK

Track 3

Filename C:\Users\Yann\Music\#EAC rips\Nouveau dossier (3)\03 - Collage Über B-A-C-H - 3. Ricercare. Deciso.wav

Peak level 55.9 %
Extraction speed 2.1 X
Track quality 100.0 %
Test CRC 33D2A889
Copy CRC 33D2A889
Track not present in AccurateRip database
Copy OK

Track 4

Filename C:\Users\Yann\Music\#EAC rips\Nouveau dossier (3)\04 - Sieben Magnificat-Antiphonen - O Weishet.wav

Peak level 21.5 %
Extraction speed 2.3 X
Track quality 100.0 %
Test CRC ECC6D121
Copy CRC ECC6D121
Track not present in AccurateRip database
Copy OK

Track 5

Filename C:\Users\Yann\Music\#EAC rips\Nouveau dossier (3)\05 - Sieben Magnificat-Antiphonen - O Adonai.wav

Peak level 30.5 %
Extraction speed 2.6 X
Track quality 100.0 %
Test CRC D8E2392B
Copy CRC D8E2392B
Track not present in AccurateRip database
Copy OK

Track 6

Filename C:\Users\Yann\Music\#EAC rips\Nouveau dossier (3)\06 - Sieben Magnificat-Antiphonen - O Spross aus Isais Wurzel.wav

Peak level 43.1 %
Extraction speed 2.0 X
Track quality 100.0 %
Test CRC 9DE8D2BA
Copy CRC 9DE8D2BA
Track not present in AccurateRip database
Copy OK

Track 7

Filename C:\Users\Yann\Music\#EAC rips\Nouveau dossier (3)\07 - Sieben Magnificat-Antiphonen - O Schlüssel Davids.wav

Peak level 78.4 %
Extraction speed 2.6 X
Track quality 100.0 %
Test CRC 01816345
Copy CRC 01816345
Track not present in AccurateRip database
Copy OK

Track 8

Filename C:\Users\Yann\Music\#EAC rips\Nouveau dossier (3)\08 - Sieben Magnificat-Antiphonen - O Morgenstern.wav

Peak level 28.3 %
Extraction speed 2.6 X
Track quality 100.0 %
Test CRC 39B3DE0D
Copy CRC 39B3DE0D
Track not present in AccurateRip database
Copy OK

Track 9

Filename C:\Users\Yann\Music\#EAC rips\Nouveau dossier (3)\09 - Sieben Magnificat-Antiphonen - O König aller Völker.wav

Peak level 37.8 %
Extraction speed 2.5 X
Track quality 100.0 %
Test CRC 304A207B
Copy CRC 304A207B
Track not present in AccurateRip database
Copy OK

Track 10

Filename C:\Users\Yann\Music\#EAC rips\Nouveau dossier (3)\10 - Sieben Magnificat-Antiphonen - O Immanuel.wav

Peak level 77.4 %
Extraction speed 3.0 X
Track quality 100.0 %
Test CRC A418C306
Copy CRC A418C306
Track not present in AccurateRip database
Copy OK

Track 11

Filename C:\Users\Yann\Music\#EAC rips\Nouveau dossier (3)\11 - Cecilia, vergine romana.wav

Peak level 76.9 %
Extraction speed 2.6 X
Track quality 100.0 %
Test CRC E3870009
Copy CRC E3870009
Track not present in AccurateRip database
Copy OK

Track 12

Filename C:\Users\Yann\Music\#EAC rips\Nouveau dossier (3)\12 - Cantus in Memory of Benjamin Britten.wav

Peak level 53.7 %
Extraction speed 2.5 X
Track quality 99.9 %
Test CRC 95835723
Copy CRC 95835723
Track not present in AccurateRip database
Copy OK

Track 13

Filename C:\Users\Yann\Music\#EAC rips\Nouveau dossier (3)\13 - Litany.wav

Peak level 94.4 %
Extraction speed 3.2 X
Track quality 100.0 %
Test CRC AD524CBC
Copy CRC AD524CBC
Track not present in AccurateRip database
Copy OK


None of the tracks are present in the AccurateRip database

No errors occurred

End of status report

–– CUETools DB Plugin V2.1.3

[CTDB TOCID: wntlUDVx1UAmr0jM8WQt1.PX.gE-] found, Submit result: wntlUDVx1UAmr0jM8WQt1.PX.gE- has been confirmed
[3206a860] (4/4) Accurately ripped


==== Log checksum 5EEBFAE67892E9D021DBC880C28A62836C54599A011D20829EB5A0D7507CCE83 ====


Thanks to the Original customer.