Subcategories

Bernard Peiffer - La Vie En Rose [Recorded 1952-1953] (2001) (Repost)

Posted By: gribovar
Bernard Peiffer - La Vie En Rose [Recorded 1952-1953] (2001) (Repost)

Bernard Peiffer - La Vie En Rose [Recorded 1952-1953] (2001)
EAC Rip | FLAC (tracks+.cue+log) - 154 MB | MP3 CBR 320 kbps (LAME 3.93) - 153 MB | Covers - 27 MB
Genre: Piano Jazz | RAR 3% Rec. | Label: Universal Music (013 980-2)

Bernard Peiffer was a popular pianist on the French jazz scene throughout a good part of the 1950s. This compilation collects a series of sessions (including both solo and trio dates) recorded in 1952 and 1953. Peiffer's approach to the piano is obviously influenced by Erroll Garner to a certain extent, especially on standards like "Jeepers Creepers" and "Lady Be Good." But he's also a compelling bop pianist, offering an impressive performance of Charlie Parker's "Steeplechase." His inventive approach to "Caravan" (heard in two separate takes) incorporates a dramatic shift in the bassline, adding a bit of stride piano in spots. Peiffer shows off his classical background in his dramatic showpiece "Toccata" (which was influenced in part by Johann Sebastian Bach's Toccata and Fugue in D Minor), though this is very much a jazz piece. None of these titles have previously been issued outside of France, so this Jazz in Paris series reissue is a treasure awaiting discovery by jazz fans everywhere.
Tracklist:
01. La Vie En Rose
02. Ballad In Paris
03. Jeepers Creepers
04. Hit That Jive Jack
05. Oh, Lady Be Good
06. Jalousie
07. Don't Blame Me
08. Sometimes I'm Happy
09. Jingles Bells
10. Tired Blues
11. Almost Like Being In Love
12. Steeplechase
13. Liza
14. Yesterdays
15. Midday On The Champs Elysées
16. Slow Burn
17. Caravan
18. Caravan (alternate)
19. Jalousie (alternate)
20. Toccata
21. Prélude

Total time: 01:05:14

Exact Audio Copy V1.0 beta 3 from 29. August 2011

EAC extraction logfile from 3. January 2013, 12:38

Bernard Peiffer / La Vie En Rose

Used drive : hp BD RW BD-5750H Adapter: 0 ID: 1

Read mode : Secure
Utilize accurate stream : Yes
Defeat audio cache : Yes
Make use of C2 pointers : No

Read offset correction : 48
Overread into Lead-In and Lead-Out : No
Fill up missing offset samples with silence : Yes
Delete leading and trailing silent blocks : No
Null samples used in CRC calculations : Yes
Used interface : Native Win32 interface for Win NT & 2000
Gap handling : Appended to previous track

Used output format : User Defined Encoder
Selected bitrate : 128 kBit/s
Quality : High
Add ID3 tag : No
Command line compressor : C:\Program Files (x86)\Audio\Exact Audio Copy\Flac\flac.exe
Additional command line options : -8 -V -T "ARTIST=%artist%" -T "TITLE=%title%" -T "ALBUM=%albumtitle%" -T "DATE=%year%" -T "TRACKNUMBER=%tracknr%" -T "TOTALTRACKS=%numtracks%" -T "GENRE=%genre%" -T "ALBUMARTIST=%albumartist%" -T "ALBUM ARTIST=%albumartist%" -T "COMMENT=EAC Secure Mode, Test & Copy, AccurateRip, FLAC -8" %source%


TOC of the extracted CD

Track | Start | Length | Start sector | End sector
––––––––––––––––––––––––––––-
1 | 0:00.00 | 2:31.10 | 0 | 11334
2 | 2:31.10 | 3:20.64 | 11335 | 26398
3 | 5:51.74 | 3:37.26 | 26399 | 42699
4 | 9:29.25 | 2:56.74 | 42700 | 55973
5 | 12:26.24 | 2:31.50 | 55974 | 67348
6 | 14:57.74 | 2:58.12 | 67349 | 80710
7 | 17:56.11 | 2:45.32 | 80711 | 93117
8 | 20:41.43 | 2:59.10 | 93118 | 106552
9 | 23:40.53 | 2:34.67 | 106553 | 118169
10 | 26:15.45 | 2:38.50 | 118170 | 130069
11 | 28:54.20 | 3:24.16 | 130070 | 145385
12 | 32:18.36 | 2:51.10 | 145386 | 158220
13 | 35:09.46 | 2:54.15 | 158221 | 171285
14 | 38:03.61 | 3:10.38 | 171286 | 185573
15 | 41:14.24 | 2:51.18 | 185574 | 198416
16 | 44:05.42 | 2:57.02 | 198417 | 211693
17 | 47:02.44 | 3:12.28 | 211694 | 226121
18 | 50:14.72 | 3:04.38 | 226122 | 239959
19 | 53:19.35 | 3:09.20 | 239960 | 254154
20 | 56:28.55 | 4:19.57 | 254155 | 273636
21 | 60:48.37 | 4:25.49 | 273637 | 293560


Track 1

Filename C:\AUDIO\Bernard Peiffer - La vie en rose (1952-53) [FLAC] {Gitanes 013 980-2}\01 - La Vie En Rose.wav

Pre-gap length 0:00:02.00

Peak level 92.8 %
Extraction speed 9.6 X
Track quality 100.0 %
Test CRC 51E48AB8
Copy CRC 51E48AB8
Cannot be verified as accurate (confidence 2) [32389024], AccurateRip returned [38603238] (AR v2)
Copy OK

Track 2

Filename C:\AUDIO\Bernard Peiffer - La vie en rose (1952-53) [FLAC] {Gitanes 013 980-2}\02 - Ballad In Paris.wav

Pre-gap length 0:00:01.45

Peak level 96.0 %
Extraction speed 9.7 X
Track quality 99.9 %
Test CRC 462DB12B
Copy CRC 462DB12B
Cannot be verified as accurate (confidence 2) [5F21B1FF], AccurateRip returned [AEC3F565] (AR v2)
Copy OK

Track 3

Filename C:\AUDIO\Bernard Peiffer - La vie en rose (1952-53) [FLAC] {Gitanes 013 980-2}\03 - Jeepers Creepers.wav

Pre-gap length 0:00:01.45

Peak level 92.4 %
Extraction speed 11.4 X
Track quality 100.0 %
Test CRC E6604451
Copy CRC E6604451
Cannot be verified as accurate (confidence 2) [D897BB9C], AccurateRip returned [D2D82D2F] (AR v2)
Copy OK

Track 4

Filename C:\AUDIO\Bernard Peiffer - La vie en rose (1952-53) [FLAC] {Gitanes 013 980-2}\04 - Hit That Jive Jack.wav

Pre-gap length 0:00:01.45

Peak level 87.3 %
Extraction speed 11.8 X
Track quality 100.0 %
Test CRC A12902FE
Copy CRC A12902FE
Cannot be verified as accurate (confidence 2) [635AD63F], AccurateRip returned [7942812C] (AR v2)
Copy OK

Track 5

Filename C:\AUDIO\Bernard Peiffer - La vie en rose (1952-53) [FLAC] {Gitanes 013 980-2}\05 - Oh Lady, Be Good.wav

Pre-gap length 0:00:01.45

Peak level 68.7 %
Extraction speed 12.3 X
Track quality 100.0 %
Test CRC 6EDAE3DA
Copy CRC 6EDAE3DA
Cannot be verified as accurate (confidence 2) [121B0845], AccurateRip returned [6EC6FFE4] (AR v2)
Copy OK

Track 6

Filename C:\AUDIO\Bernard Peiffer - La vie en rose (1952-53) [FLAC] {Gitanes 013 980-2}\06 - Jalousie.wav

Pre-gap length 0:00:01.45

Peak level 66.3 %
Extraction speed 13.0 X
Track quality 100.0 %
Test CRC E8C5CDC8
Copy CRC E8C5CDC8
Cannot be verified as accurate (confidence 2) [F2E5ECCD], AccurateRip returned [B405742D] (AR v2)
Copy OK

Track 7

Filename C:\AUDIO\Bernard Peiffer - La vie en rose (1952-53) [FLAC] {Gitanes 013 980-2}\07 - Don't Blame.wav

Pre-gap length 0:00:01.45

Peak level 66.0 %
Extraction speed 13.3 X
Track quality 100.0 %
Test CRC 654F9245
Copy CRC 654F9245
Cannot be verified as accurate (confidence 2) [95BFD633], AccurateRip returned [922287CD] (AR v2)
Copy OK

Track 8

Filename C:\AUDIO\Bernard Peiffer - La vie en rose (1952-53) [FLAC] {Gitanes 013 980-2}\08 - Sometimes I'm Happy.wav

Pre-gap length 0:00:01.45

Peak level 71.7 %
Extraction speed 13.9 X
Track quality 100.0 %
Test CRC 3F028DF4
Copy CRC 3F028DF4
Cannot be verified as accurate (confidence 2) [428D2FF2], AccurateRip returned [C0EE2D82] (AR v2)
Copy OK

Track 9

Filename C:\AUDIO\Bernard Peiffer - La vie en rose (1952-53) [FLAC] {Gitanes 013 980-2}\09 - Jingles Bells.wav

Pre-gap length 0:00:01.45

Peak level 89.5 %
Extraction speed 14.1 X
Track quality 100.0 %
Test CRC 6B75A4AD
Copy CRC 6B75A4AD
Cannot be verified as accurate (confidence 2) [8D008887], AccurateRip returned [98DFD5E1] (AR v2)
Copy OK

Track 10

Filename C:\AUDIO\Bernard Peiffer - La vie en rose (1952-53) [FLAC] {Gitanes 013 980-2}\10 - Tired Blues.wav

Pre-gap length 0:00:01.45

Peak level 86.3 %
Extraction speed 12.3 X
Track quality 99.9 %
Test CRC A42BCB5C
Copy CRC A42BCB5C
Cannot be verified as accurate (confidence 2) [A5349C7A], AccurateRip returned [163AF1D3] (AR v2)
Copy OK

Track 11

Filename C:\AUDIO\Bernard Peiffer - La vie en rose (1952-53) [FLAC] {Gitanes 013 980-2}\11 - Almost Like Being In Love.wav

Peak level 78.8 %
Extraction speed 15.3 X
Track quality 100.0 %
Test CRC F62411F7
Copy CRC F62411F7
Cannot be verified as accurate (confidence 2) [8B29E0CA], AccurateRip returned [D5B0BC49] (AR v2)
Copy OK

Track 12

Filename C:\AUDIO\Bernard Peiffer - La vie en rose (1952-53) [FLAC] {Gitanes 013 980-2}\12 - Steeplechase.wav

Pre-gap length 0:00:01.45

Peak level 84.1 %
Extraction speed 15.4 X
Track quality 100.0 %
Test CRC B11A91E1
Copy CRC B11A91E1
Cannot be verified as accurate (confidence 2) [31CD9E7D], AccurateRip returned [A2B8DC05] (AR v2)
Copy OK

Track 13

Filename C:\AUDIO\Bernard Peiffer - La vie en rose (1952-53) [FLAC] {Gitanes 013 980-2}\13 - Liza.wav

Pre-gap length 0:00:01.45

Peak level 69.7 %
Extraction speed 15.8 X
Track quality 100.0 %
Test CRC 84DC070F
Copy CRC 84DC070F
Cannot be verified as accurate (confidence 2) [CEB54588], AccurateRip returned [9E38B227] (AR v2)
Copy OK

Track 14

Filename C:\AUDIO\Bernard Peiffer - La vie en rose (1952-53) [FLAC] {Gitanes 013 980-2}\14 - Yesterdays.wav

Pre-gap length 0:00:01.45

Peak level 66.8 %
Extraction speed 16.1 X
Track quality 100.0 %
Test CRC 91E28298
Copy CRC 91E28298
Cannot be verified as accurate (confidence 2) [842459F8], AccurateRip returned [2DF79B3A] (AR v2)
Copy OK

Track 15

Filename C:\AUDIO\Bernard Peiffer - La vie en rose (1952-53) [FLAC] {Gitanes 013 980-2}\15 - Midday On the Champs Elysees.wav

Pre-gap length 0:00:01.45

Peak level 69.6 %
Extraction speed 16.4 X
Track quality 100.0 %
Test CRC 1E361B44
Copy CRC 1E361B44
Cannot be verified as accurate (confidence 2) [3D95F9B0], AccurateRip returned [8BFD53BA] (AR v2)
Copy OK

Track 16

Filename C:\AUDIO\Bernard Peiffer - La vie en rose (1952-53) [FLAC] {Gitanes 013 980-2}\16 - Slow Burn.wav

Pre-gap length 0:00:01.45

Peak level 69.0 %
Extraction speed 16.9 X
Track quality 100.0 %
Test CRC D4B373D8
Copy CRC D4B373D8
Cannot be verified as accurate (confidence 2) [202D8D7D], AccurateRip returned [FB54D2C4] (AR v2)
Copy OK

Track 17

Filename C:\AUDIO\Bernard Peiffer - La vie en rose (1952-53) [FLAC] {Gitanes 013 980-2}\17 - Caravan.wav

Pre-gap length 0:00:01.45

Peak level 76.6 %
Extraction speed 17.3 X
Track quality 100.0 %
Test CRC 2AE284C2
Copy CRC 2AE284C2
Cannot be verified as accurate (confidence 2) [FD70369F], AccurateRip returned [468F8269] (AR v2)
Copy OK

Track 18

Filename C:\AUDIO\Bernard Peiffer - La vie en rose (1952-53) [FLAC] {Gitanes 013 980-2}\18 - Caravan (Alternate).wav

Pre-gap length 0:00:01.45

Peak level 66.0 %
Extraction speed 17.5 X
Track quality 100.0 %
Test CRC 2041E594
Copy CRC 2041E594
Cannot be verified as accurate (confidence 2) [35890BED], AccurateRip returned [C88C2DBA] (AR v2)
Copy OK

Track 19

Filename C:\AUDIO\Bernard Peiffer - La vie en rose (1952-53) [FLAC] {Gitanes 013 980-2}\19 - Jalousie (Alternate).wav

Pre-gap length 0:00:01.45

Peak level 70.0 %
Extraction speed 17.6 X
Track quality 100.0 %
Test CRC 70D5C569
Copy CRC 70D5C569
Cannot be verified as accurate (confidence 2) [59C2B48D], AccurateRip returned [F1B8B186] (AR v2)
Copy OK

Track 20

Filename C:\AUDIO\Bernard Peiffer - La vie en rose (1952-53) [FLAC] {Gitanes 013 980-2}\20 - Toccata.wav

Pre-gap length 0:00:01.45

Peak level 67.8 %
Extraction speed 18.5 X
Track quality 100.0 %
Test CRC 5985E9AD
Copy CRC 5985E9AD
Cannot be verified as accurate (confidence 2) [E2715E6B], AccurateRip returned [B3C7883D] (AR v2)
Copy OK

Track 21

Filename C:\AUDIO\Bernard Peiffer - La vie en rose (1952-53) [FLAC] {Gitanes 013 980-2}\21 - Prelude.wav

Pre-gap length 0:00:01.45

Peak level 70.8 %
Extraction speed 19.6 X
Track quality 100.0 %
Test CRC 4B12A5B9
Copy CRC 4B12A5B9
Cannot be verified as accurate (confidence 2) [F059D713], AccurateRip returned [C5039A0A] (AR v2)
Copy OK


No tracks could be verified as accurate
You may have a different pressing from the one(s) in the database

No errors occurred

End of status report

–– CUETools DB Plugin V2.1.3

[CTDB TOCID: Hs3id2AaiPABfVYmLjxyto3O_N4-] found, Submit result: already submitted
[f0cbbb0d] (2/2) Accurately ripped


==== Log checksum B3DA2DC2C6205DB8D1D6E7D0A5F8BB64D0AC358148726AB17198DEE915DA96B5 ====

[CUETools log; Date: 13.06.2018 19:10:07; Version: 2.1.4]
[CTDB TOCID: Hs3id2AaiPABfVYmLjxyto3O_N4-] found.
Track | CTDB Status
1 | (12/12) Accurately ripped
2 | (12/12) Accurately ripped
3 | (12/12) Accurately ripped
4 | (12/12) Accurately ripped
5 | (12/12) Accurately ripped
6 | (12/12) Accurately ripped
7 | (12/12) Accurately ripped
8 | (12/12) Accurately ripped
9 | (12/12) Accurately ripped
10 | (12/12) Accurately ripped
11 | (12/12) Accurately ripped
12 | (12/12) Accurately ripped
13 | (12/12) Accurately ripped
14 | (12/12) Accurately ripped
15 | (12/12) Accurately ripped
16 | (12/12) Accurately ripped
17 | (12/12) Accurately ripped
18 | (12/12) Accurately ripped
19 | (12/12) Accurately ripped
20 | (12/12) Accurately ripped
21 | (12/12) Accurately ripped
[AccurateRip ID: 002f27d8-02d4f924-200f4a15] found.
Track [ CRC | V2 ] Status
01 [67707eb9|32389024] (0+0/7) No match
02 [7d852362|5f21b1ff] (0+0/7) No match
03 [6185f740|d897bb9c] (0+0/7) No match
04 [43de624c|635ad63f] (0+0/7) No match
05 [b704602a|121b0845] (0+0/7) No match
06 [09cc0c1a|f2e5eccd] (0+0/7) No match
07 [fcc0b38d|95bfd633] (0+0/7) No match
08 [aca9a3de|428d2ff2] (0+0/7) No match
09 [a5bea92a|8d008887] (0+0/7) No match
10 [7670d664|a5349c7a] (0+0/7) No match
11 [4fd2d9b1|8b29e0ca] (0+0/7) No match
12 [1b7acb5c|31cd9e7d] (0+0/7) No match
13 [0e15b80f|ceb54588] (0+0/7) No match
14 [de23d653|842459f8] (0+0/6) No match
15 [d334c722|3d95f9b0] (0+0/7) No match
16 [2919788b|202d8d7d] (0+0/6) No match
17 [7331ca29|fd70369f] (0+0/7) No match
18 [b11fc293|35890bed] (0+0/7) No match
19 [65db844a|59c2b48d] (0+0/7) No match
20 [0bc40fb5|e2715e6b] (0+0/7) No match
21 [1dea0266|f059d713] (0+0/6) No match
Offsetted by 667:
01 [38603238] (2/7) Accurately ripped
02 [aec3f565] (2/7) Accurately ripped
03 [d2d82d2f] (2/7) Accurately ripped
04 [7942812c] (2/7) Accurately ripped
05 [6ec6ffe4] (2/7) Accurately ripped
06 [b405742d] (2/7) Accurately ripped
07 [922287cd] (2/7) Accurately ripped
08 [c0ee2d82] (2/7) Accurately ripped
09 [98dfd5e1] (2/7) Accurately ripped
10 [163af1d3] (2/7) Accurately ripped
11 [d5b0bc49] (2/7) Accurately ripped
12 [a2b8dc05] (2/7) Accurately ripped
13 [9e38b227] (2/7) Accurately ripped
14 [2df79b3a] (2/6) Accurately ripped
15 [8bfd53ba] (2/7) Accurately ripped
16 [fb54d2c4] (2/6) Accurately ripped
17 [468f8269] (2/7) Accurately ripped
18 [c88c2dba] (2/7) Accurately ripped
19 [f1b8b186] (2/7) Accurately ripped
20 [b3c7883d] (2/7) Accurately ripped
21 [c5039a0a] (2/6) Accurately ripped

Track Peak [ CRC32 ] [W/O NULL] [ LOG ]
– 96,0 [E9C9A2DB] [B841E1BD]
01 92,8 [51E48AB8] [D4896AA3] CRC32
02 96,0 [462DB12B] [1F4F9FD8] CRC32
03 92,4 [E6604451] [D9B365B1] CRC32
04 87,3 [A12902FE] [E1031A66] CRC32
05 68,7 [6EDAE3DA] [13D36A01] CRC32
06 66,3 [E8C5CDC8] [881BBF9E] CRC32
07 66,0 [654F9245] [D8B19B48] CRC32
08 71,7 [3F028DF4] [83FCA41C] CRC32
09 89,5 [6B75A4AD] [F6002741] CRC32
10 86,3 [A42BCB5C] [1D6AF60D] CRC32
11 78,8 [F62411F7] [D0EF38FB] CRC32
12 84,1 [B11A91E1] [8A340803] CRC32
13 69,7 [84DC070F] [15F2E613] CRC32
14 66,8 [91E28298] [2BE8C23A] CRC32
15 69,6 [1E361B44] [30DCA624] CRC32
16 69,0 [D4B373D8] [2FB40515] CRC32
17 76,6 [2AE284C2] [2E345802] CRC32
18 66,0 [2041E594] [952618FE] CRC32
19 70,0 [70D5C569] [74F2B94C] CRC32
20 67,8 [5985E9AD] [39BAC5AE] CRC32
21 70,8 [4B12A5B9] [442A91DA] CRC32

Thanks to the original releaser