Subcategories

Blandine Verlet - Jacquet De La Guerre: Pièces De Clavecin (1998)

Posted By: tirexiss
Blandine Verlet - Jacquet De La Guerre: Pièces De Clavecin (1998)

Blandine Verlet - Jacquet De La Guerre: Pièces De Clavecin (1998)
EAC | FLAC (image+.cue, log) | Covers Included | 61:22 | 452 MB
Genre: Classical | Label: Auvidis Astrée | Catalog: E 8644

Blandine Verlet, a noted French harpsichordist, studied with Ruggiero Gerlin and Ralph Kirkpatrick. She began recording in the late 1970s for Philips, switching to the Astree label in the 1990s. Her recordings range from J.S. Bach's keyboard works to Froberger to lesser known composers such as Louis Couperin and Elisabeth-Claude Jacquet de la Guerre. Her second recording of the Goldberg Variations, in 1992, has been called "one of the finest harpsichord versions in the catalog." With violinist Gerard Poulet she has recorded early violin sonatas by Mozart, using the older Baroque keyboard instruments rather than a fortepiano or modern piano. Verlet has also worked with flutist Stephen Preston and viola da gambist Jordi Savall. Her playing is noted for her control and restraint in not letting emotion carry her away. – Patsy Morita

Blandine Verlet - Jacquet De La Guerre: Pièces De Clavecin (1998)

Track List:

Les Pièces De Clavecin

Suite I En Ré Mineur (1687) (15:05)
1 Prélude 2:28
2 Allemande 3:15
3 Courante 1:53
4 Sarabande 2:28
5 Gigue 1:47
6 Chaconne L'Inconstante 3:24

Suite II En Sol Mineur (1687) (10:55)
7 Prélude 1:23
8 Allemande 2:27
9 Courante 1:41
10 Sarabande 2:30
11 Gigue 1:32
12 Menuet 1:22

Suite I En Ré Mineur (1707) (18:09)
13 Prélude La Flamande 2:33
14 Double 2:32
15 Courante 1:13
16 Double 1:12
17 Sarabande 2:48
18 Gigue 2:41
19 Chaconne 5:10

Suite III En La Mineur (1687) (16:13)
20 Prélude 1:50
21 Allemande 2:54
22 Courante 1:45
23 Deuxième Courante 2:02
24 Sarabande 2:29
25 Gigue 1:34
26 Chaconne 3:39

Exact Audio Copy V1.3 from 2. September 2016

EAC extraction logfile from 4. January 2017, 9:54

Blandine Verlet (harpsichord) / Jacquet de La Guerre‧Les Pièces de Clavecin

Used drive : HL-DT-STBD-RE BH10LS30 Adapter: 1 ID: 0

Read mode : Secure
Utilize accurate stream : Yes
Defeat audio cache : Yes
Make use of C2 pointers : No

Read offset correction : 667
Overread into Lead-In and Lead-Out : No
Fill up missing offset samples with silence : Yes
Delete leading and trailing silent blocks : No
Null samples used in CRC calculations : Yes
Used interface : Native Win32 interface for Win NT & 2000

Used output format : User Defined Encoder
Selected bitrate : 768 kBit/s
Quality : High
Add ID3 tag : No
Command line compressor : C:\Program Files (x86)\Exact Audio Copy\FLAC\FLAC.EXE
Additional command line options : -6 -V -T "ARTIST=%artist%" -T "TITLE=%title%" -T "ALBUM=%albumtitle%" -T "DATE=%year%" -T "TRACKNUMBER=%tracknr%" -T "GENRE=%genre%" -T "COMMENT=%comment%" -T "BAND=%albuminterpret%" -T "ALBUMARTIST=%albuminterpret%" -T "COMPOSER=%composer%" %haslyrics%–tag-from-file=LYRICS="%lyricsfile%"%haslyrics% -T "DISCNUMBER=%cdnumber%" -T "TOTALDISCS=%totalcds%" -T "TOTALTRACKS=%numtracks%" %hascover%–picture="%coverfile%"%hascover% %source% -o %dest%


TOC of the extracted CD

Track | Start | Length | Start sector | End sector
––––––––––––––––––––––––––––-
1 | 0:00.30 | 2:29.62 | 30 | 11266
2 | 2:30.17 | 3:16.63 | 11267 | 26029
3 | 5:47.05 | 1:54.67 | 26030 | 34646
4 | 7:41.72 | 2:27.45 | 34647 | 45716
5 | 10:09.42 | 1:48.50 | 45717 | 53866
6 | 11:58.17 | 3:28.00 | 53867 | 69466
7 | 15:26.17 | 1:24.13 | 69467 | 75779
8 | 16:50.30 | 2:28.12 | 75780 | 86891
9 | 19:18.42 | 1:42.38 | 86892 | 94579
10 | 21:01.05 | 2:31.12 | 94580 | 105916
11 | 23:32.17 | 1:33.05 | 105917 | 112896
12 | 25:05.22 | 1:27.08 | 112897 | 119429
13 | 26:32.30 | 2:34.25 | 119430 | 131004
14 | 29:06.55 | 2:33.50 | 131005 | 142529
15 | 31:40.30 | 1:14.72 | 142530 | 148151
16 | 32:55.27 | 1:13.00 | 148152 | 153626
17 | 34:08.27 | 2:49.53 | 153627 | 166354
18 | 36:58.05 | 2:42.32 | 166355 | 178536
19 | 39:40.37 | 5:14.23 | 178537 | 202109
20 | 44:54.60 | 1:51.57 | 202110 | 210491
21 | 46:46.42 | 2:55.63 | 210492 | 223679
22 | 49:42.30 | 1:46.12 | 223680 | 231641
23 | 51:28.42 | 2:03.63 | 231642 | 240929
24 | 53:32.30 | 2:30.37 | 240930 | 252216
25 | 56:02.67 | 1:35.05 | 252217 | 259346
26 | 57:37.72 | 3:42.33 | 259347 | 276029


Range status and errors

Selected range

Filename Q:\Jacquet de La Guerre Pièces de Clavecin Verlet.wav

Peak level 95.3 %
Extraction speed 1.8 X
Range quality 100.0 %
Copy CRC E1D1908D
Copy OK

No errors occurred


AccurateRip summary

Track 1 accurately ripped (confidence 2) [3E4DCB26] (AR v2)
Track 2 accurately ripped (confidence 2) [7BA3C51B] (AR v2)
Track 3 accurately ripped (confidence 2) [4DC58EAD] (AR v2)
Track 4 accurately ripped (confidence 2) [BE51E482] (AR v2)
Track 5 accurately ripped (confidence 2) [F7C291B3] (AR v2)
Track 6 accurately ripped (confidence 2) [C09217A0] (AR v2)
Track 7 accurately ripped (confidence 2) [AD997CEB] (AR v2)
Track 8 accurately ripped (confidence 2) [A0E10AD1] (AR v2)
Track 9 accurately ripped (confidence 2) [1E2DBCBF] (AR v2)
Track 10 accurately ripped (confidence 2) [3288CB1F] (AR v2)
Track 11 accurately ripped (confidence 2) [24A7F604] (AR v2)
Track 12 accurately ripped (confidence 2) [1072C9A2] (AR v2)
Track 13 accurately ripped (confidence 2) [44FA6A6C] (AR v2)
Track 14 accurately ripped (confidence 2) [8512B3DB] (AR v2)
Track 15 accurately ripped (confidence 2) [6D86E3CD] (AR v2)
Track 16 accurately ripped (confidence 2) [CF0914D3] (AR v2)
Track 17 accurately ripped (confidence 2) [97F21491] (AR v2)
Track 18 accurately ripped (confidence 2) [BC91EAE2] (AR v2)
Track 19 accurately ripped (confidence 2) [FB1A9897] (AR v2)
Track 20 accurately ripped (confidence 2) [05C4DD14] (AR v2)
Track 21 accurately ripped (confidence 2) [4489D48B] (AR v2)
Track 22 accurately ripped (confidence 2) [945F0561] (AR v2)
Track 23 accurately ripped (confidence 2) [61206678] (AR v2)
Track 24 accurately ripped (confidence 2) [1B2FF3F4] (AR v2)
Track 25 accurately ripped (confidence 2) [B5900A77] (AR v2)
Track 26 accurately ripped (confidence 2) [46E9C9E6] (AR v2)

All tracks accurately ripped

End of status report

–– CUETools DB Plugin V2.1.6

[CTDB TOCID: NIGRF75Iddw4OOuJKQ8aha7.QQ4-] found
Submit result: already submitted
Track | CTDB Status
1 | (6/6) Accurately ripped
2 | (6/6) Accurately ripped
3 | (6/6) Accurately ripped
4 | (6/6) Accurately ripped
5 | (6/6) Accurately ripped
6 | (6/6) Accurately ripped
7 | (6/6) Accurately ripped
8 | (6/6) Accurately ripped
9 | (6/6) Accurately ripped
10 | (6/6) Accurately ripped
11 | (6/6) Accurately ripped
12 | (6/6) Accurately ripped
13 | (6/6) Accurately ripped
14 | (6/6) Accurately ripped
15 | (6/6) Accurately ripped
16 | (6/6) Accurately ripped
17 | (6/6) Accurately ripped
18 | (6/6) Accurately ripped
19 | (6/6) Accurately ripped
20 | (6/6) Accurately ripped
21 | (6/6) Accurately ripped
22 | (6/6) Accurately ripped
23 | (6/6) Accurately ripped
24 | (6/6) Accurately ripped
25 | (6/6) Accurately ripped
26 | (6/6) Accurately ripped

[CUETools log; Date: 14.02.2018 11:25:17; Version: 2.1.5]
Pregap length 00:00:30.
[CTDB TOCID: NIGRF75Iddw4OOuJKQ8aha7.QQ4-] found.
Track | CTDB Status
1 | (6/6) Accurately ripped
2 | (6/6) Accurately ripped
3 | (6/6) Accurately ripped
4 | (6/6) Accurately ripped
5 | (6/6) Accurately ripped
6 | (6/6) Accurately ripped
7 | (6/6) Accurately ripped
8 | (6/6) Accurately ripped
9 | (6/6) Accurately ripped
10 | (6/6) Accurately ripped
11 | (6/6) Accurately ripped
12 | (6/6) Accurately ripped
13 | (6/6) Accurately ripped
14 | (6/6) Accurately ripped
15 | (6/6) Accurately ripped
16 | (6/6) Accurately ripped
17 | (6/6) Accurately ripped
18 | (6/6) Accurately ripped
19 | (6/6) Accurately ripped
20 | (6/6) Accurately ripped
21 | (6/6) Accurately ripped
22 | (6/6) Accurately ripped
23 | (6/6) Accurately ripped
24 | (6/6) Accurately ripped
25 | (6/6) Accurately ripped
26 | (6/6) Accurately ripped
[AccurateRip ID: 0037be37-040de492-5d0e601a] found.
Track [ CRC | V2 ] Status
01 [a4040cf8|3e4dcb26] (0+4/4) Accurately ripped
02 [0030afbb|7ba3c51b] (0+4/4) Accurately ripped
03 [461d7de7|4dc58ead] (0+4/4) Accurately ripped
04 [b237165a|be51e482] (0+4/4) Accurately ripped
05 [5f4a33ce|f7c291b3] (0+4/4) Accurately ripped
06 [f8380b0c|c09217a0] (0+4/4) Accurately ripped
07 [8f65b2a3|ad997ceb] (0+4/4) Accurately ripped
08 [42930183|a0e10ad1] (0+4/4) Accurately ripped
09 [28c93132|1e2dbcbf] (0+4/4) Accurately ripped
10 [f031ab46|3288cb1f] (0+4/4) Accurately ripped
11 [b5b28d78|24a7f604] (0+4/4) Accurately ripped
12 [59411518|1072c9a2] (0+4/4) Accurately ripped
13 [b101ab40|44fa6a6c] (0+4/4) Accurately ripped
14 [facaba5e|8512b3db] (0+4/4) Accurately ripped
15 [cf1e2aa2|6d86e3cd] (0+4/4) Accurately ripped
16 [b17ca109|cf0914d3] (0+4/4) Accurately ripped
17 [776577d1|97f21491] (0+4/4) Accurately ripped
18 [00358315|bc91eae2] (0+4/4) Accurately ripped
19 [bca5aaf1|fb1a9897] (0+4/4) Accurately ripped
20 [9ab4a0d0|05c4dd14] (0+4/4) Accurately ripped
21 [b1cb180b|4489d48b] (0+4/4) Accurately ripped
22 [48ef8dbe|945f0561] (0+4/4) Accurately ripped
23 [b0b965d5|61206678] (0+4/4) Accurately ripped
24 [67c72d3e|1b2ff3f4] (0+4/4) Accurately ripped
25 [eb8746e0|b5900a77] (0+4/4) Accurately ripped
26 [43171262|46e9c9e6] (0+4/4) Accurately ripped

Track Peak [ CRC32 ] [W/O NULL] [ LOG ]
– 95,3 [E1D1908D] [9867ED2D] CRC32
01 86,1 [F0DAFDAE] [8EDA2B87]
02 57,9 [13911FFB] [C2F5FD58]
03 63,8 [D9F46666] [BB2C578E]
04 81,9 [E850541E] [4077BD7A]
05 95,3 [B3ACD7F7] [8222DD72]
06 75,4 [AA3092A1] [AC4C8EA4]
07 66,5 [C2C0D096] [106E7AEA]
08 45,2 [432A716D] [F5D3433A]
09 59,5 [DECCE77E] [F66611E8]
10 47,5 [A0BD91D4] [01BA12FC]
11 65,3 [83B8A2E2] [3620A46F]
12 39,1 [8D5939D9] [282311DD]
13 77,5 [5A196ACA] [9881139C]
14 63,8 [E38483DB] [C3239AB5]
15 46,8 [B16E8BEA] [3BA45607]
16 41,1 [2A239966] [6378749C]
17 70,3 [26C48E7F] [9A98042F]
18 70,6 [E977CA20] [5CEBBB25]
19 66,8 [B21F0D98] [5C894B16]
20 42,8 [F8314526] [230D4BDF]
21 42,8 [CDD3F7A2] [216408EE]
22 66,0 [24D039D3] [3084533F]
23 51,1 [F0887327] [CF84B0C4]
24 49,4 [FE346B01] [FE7B605C]
25 75,5 [6A8DE21B] [14A794B3]
26 60,5 [2E1F00C0] [92651EB9]

Thanks to the Original ripper (unknown)!

Download: