Subcategories

Bread - The Elektra Years: The Complete Albums Box (2017)

Posted By: v3122
Bread - The Elektra Years: The Complete Albums Box (2017)

Bread - The Elektra Years: The Complete Albums Box (2017)
EAC | Flac(Image) + Cue + Log & MP3 CBR 320Kbps
6CD | Rhino Records, 081227933869 | ~ 1380 or 540 Mb | Scans(png) -> 794 Mb
Rock / Pop / Soft Rock

The reputation of Bread as a soft rock band isn't quite accurate. Yes, all of the bit hits were ballads by David Gates BUT there were rock songs that weren't released as singles that are the albums by the other two songwriters in the band–the late Jimmy Griffith and Rob Royer (who collaborated on a number of songs together). The band is certainly underrated due to all of the hit ballads by Gates but the albums themselves exhibit strong song craft, precision playing and production.

The CDs in this set, as with the majority of the Complete Albums sets from Rhino, provides replicas of the original vinyl packaging (including lyric sheet inserts although they are, not a surprise, too small to read) including gatefolds where they were originally. The labels, likewise, are replicas of the original vinyl labels.

The music appears to be remastered for some of these discs as the bright, sharp sound of the previous CD mastering and vinyl, appears a bit more subdued here compared to the originals–which is a good thing because the original masterings could be a bit painful at times to listen to at high volumes (because of the bright mastering which evidently isn't on the original master tapes based on what I've heard).

The only flaw with this set is that none of the singles, single edits or mono mixes/fold downs are included on an additional disc. Given that the band's hit single "It Don't Matter To Me" was re-recorded for its single release (with a slightly different sounding arrangement), it would make sense at least to include that on one of the discs unfortunately, we don't. With that on disc, this would be just about a perfect release.

By Wayne Klein, amazon
Bread - The Elektra Years: The Complete Albums Box (2017)

Bread - The Elektra Years: The Complete Albums Box (2017):

Bread - The Elektra Years: The Complete Albums Box (2017)

Tracklist CD1 - 1969 Bread:

01 Dismal Day
02 London Bridge
03 Could I
04 Look At Me
05 The Last Time
06 Any Way You Want Me
07 Move Over
08 Don't Shut Me Out
09 You Can't Measure The Cost
10 Family Doctor
11 It Don't Matter To Me
12 Friends And Lovers

Exact Audio Copy V1.3 from 2. September 2016

EAC extraction logfile from 25. December 2017, 10:41

Bread / Bread

Used drive : PLEXTOR BD-R PX-B950SA Adapter: 1 ID: 1

Read mode : Secure
Utilize accurate stream : Yes
Defeat audio cache : Yes
Make use of C2 pointers : No

Read offset correction : 6
Overread into Lead-In and Lead-Out : No
Fill up missing offset samples with silence : Yes
Delete leading and trailing silent blocks : No
Null samples used in CRC calculations : Yes
Used interface : Native Win32 interface for Win NT & 2000

Used output format : Internal WAV Routines
Sample format : 44.100 Hz; 16 Bit; Stereo


TOC of the extracted CD

Track | Start | Length | Start sector | End sector
––––––––––––––––––––––––––––-
1 | 0:00.00 | 2:21.54 | 0 | 10628
2 | 2:21.54 | 2:32.25 | 10629 | 22053
3 | 4:54.04 | 3:31.36 | 22054 | 37914
4 | 8:25.40 | 2:43.67 | 37915 | 50206
5 | 11:09.32 | 4:10.26 | 50207 | 68982
6 | 15:19.58 | 3:15.11 | 68983 | 83618
7 | 18:34.69 | 2:36.36 | 83619 | 95354
8 | 21:11.30 | 2:39.72 | 95355 | 107351
9 | 23:51.27 | 3:22.29 | 107352 | 122530
10 | 27:13.56 | 2:15.01 | 122531 | 132656
11 | 29:28.57 | 2:43.26 | 132657 | 144907
12 | 32:12.08 | 3:54.71 | 144908 | 162528


Range status and errors

Selected range

Filename C:\Users\Alex\Desktop\ALLexxess\Bread\2017 Elektra Years Complete Albums (6CD Box Set Rhino Records)\1969 Bread\Bread - Bread.wav

Peak level 96.8 %
Extraction speed 6.6 X
Range quality 100.0 %
Test CRC 9D883782
Copy CRC 9D883782
Copy OK

No errors occurred


AccurateRip summary

Track 1 not present in database
Track 2 not present in database
Track 3 not present in database
Track 4 not present in database
Track 5 not present in database
Track 6 not present in database
Track 7 not present in database
Track 8 not present in database
Track 9 not present in database
Track 10 not present in database
Track 11 not present in database
Track 12 not present in database

None of the tracks are present in the AccurateRip database

End of status report

–– CUETools DB Plugin V2.1.6

[CTDB TOCID: glVE9u25ZDLWhNA6mEoPENO7LFc-] found
Submit result: glVE9u25ZDLWhNA6mEoPENO7LFc- has been confirmed
Track | CTDB Status
1 | (6/6) Accurately ripped
2 | (6/6) Accurately ripped
3 | (6/6) Accurately ripped
4 | (6/6) Accurately ripped
5 | (6/6) Accurately ripped
6 | (6/6) Accurately ripped
7 | (6/6) Accurately ripped
8 | (6/6) Accurately ripped
9 | (6/6) Accurately ripped
10 | (6/6) Accurately ripped
11 | (6/6) Accurately ripped
12 | (6/6) Accurately ripped


==== Log checksum F9DB222DB187925EA8DB9E1A44FA38BF46D6A4BEDF84EAE1EE317E8BDFAF8A81 ====


[CUETools log; Date: 12.01.2018 10:51:20; Version: 2.1.5]
[CTDB TOCID: glVE9u25ZDLWhNA6mEoPENO7LFc-] found.
Track | CTDB Status
1 | (8/8) Accurately ripped
2 | (8/8) Accurately ripped
3 | (8/8) Accurately ripped
4 | (8/8) Accurately ripped
5 | (8/8) Accurately ripped
6 | (8/8) Accurately ripped
7 | (8/8) Accurately ripped
8 | (8/8) Accurately ripped
9 | (8/8) Accurately ripped
10 | (8/8) Accurately ripped
11 | (8/8) Accurately ripped
12 | (8/8) Accurately ripped
[AccurateRip ID: 000fd993-0094d829-9108770c] found.
Track [ CRC | V2 ] Status
01 [103b728c|7620bdb4] (0+4/4) Accurately ripped
02 [8fcdea32|c2a0483d] (0+4/4) Accurately ripped
03 [44304c31|0d9d7fc1] (0+4/4) Accurately ripped
04 [9ac7f674|f5a2fd19] (0+4/4) Accurately ripped
05 [41edca0a|3cb60614] (0+4/4) Accurately ripped
06 [04c67a6e|783a1416] (0+4/4) Accurately ripped
07 [b64f6468|6a1e3fea] (0+4/4) Accurately ripped
08 [0315a7d9|5db11ec3] (0+4/4) Accurately ripped
09 [50a42bd5|b240ed75] (0+4/4) Accurately ripped
10 [b36a7e8f|3c2806c5] (0+4/4) Accurately ripped
11 [b287c224|6f097562] (0+4/4) Accurately ripped
12 [a20defe3|79e11d46] (0+4/4) Accurately ripped

Track Peak [ CRC32 ] [W/O NULL] [ LOG ]
– 96,8 [9D883782] [5DC61CF9] CRC32
01 83,6 [42E6D430] [6EBDF93A]
02 79,8 [E2F5348A] [01B8070F]
03 96,0 [AD91D2A6] [4FAF26C3]
04 73,6 [846BF5B1] [8C6E18FA]
05 96,8 [B74ECB4D] [AD07E9C0]
06 92,8 [EAB2ECD9] [91D416EA]
07 94,8 [F4B8E3D0] [E8BE1C5A]
08 94,4 [C5468E51] [FEF6ADFD]
09 96,6 [7C07EA91] [A3388ED7]
10 96,7 [76C2C4D4] [FC8F834C]
11 96,7 [2D16F159] [733CE07A]
12 96,7 [37F79254] [03D220BD]


Bread - The Elektra Years: The Complete Albums Box (2017)

Tracklist CD2 - 1970 On The Waters:

01 Why Do You Keep Me Waiting
02 Make It With You
03 Blue Satin Pillow
04 Look What You've Done
05 I Am That I Am
06 Been Too Long On The Road
07 I Want You With Me
08 Coming Apart
09 Easy Love
10 In The Afterglow
11 Call On Me
12 The Other Side Of Life

Exact Audio Copy V1.3 from 2. September 2016

EAC extraction logfile from 25. December 2017, 10:18

Bread / On The Waters

Used drive : PLEXTOR BD-R PX-B950SA Adapter: 1 ID: 1

Read mode : Secure
Utilize accurate stream : Yes
Defeat audio cache : Yes
Make use of C2 pointers : No

Read offset correction : 6
Overread into Lead-In and Lead-Out : No
Fill up missing offset samples with silence : Yes
Delete leading and trailing silent blocks : No
Null samples used in CRC calculations : Yes
Used interface : Native Win32 interface for Win NT & 2000

Used output format : Internal WAV Routines
Sample format : 44.100 Hz; 16 Bit; Stereo


TOC of the extracted CD

Track | Start | Length | Start sector | End sector
––––––––––––––––––––––––––––-
1 | 0:00.00 | 2:33.10 | 0 | 11484
2 | 2:33.10 | 3:18.18 | 11485 | 26352
3 | 5:51.28 | 2:29.54 | 26353 | 37581
4 | 8:21.07 | 3:14.27 | 37582 | 52158
5 | 11:35.34 | 3:20.52 | 52159 | 67210
6 | 14:56.11 | 4:54.42 | 67211 | 89302
7 | 19:50.53 | 2:52.60 | 89303 | 102262
8 | 22:43.38 | 3:30.50 | 102263 | 118062
9 | 26:14.13 | 2:29.09 | 118063 | 129246
10 | 28:43.22 | 2:38.29 | 129247 | 141125
11 | 31:21.51 | 4:04.28 | 141126 | 159453
12 | 35:26.04 | 2:03.26 | 159454 | 168704


Range status and errors

Selected range

Filename C:\Users\Alex\Desktop\ALLexxess\Bread\2017 Elektra Years Complete Albums (6CD Box Set Rhino Records)\1970 On The Waters\Bread - On The Waters.wav

Peak level 96.7 %
Extraction speed 6.4 X
Range quality 100.0 %
Test CRC EB9CC7EF
Copy CRC EB9CC7EF
Copy OK

No errors occurred


AccurateRip summary

Track 1 not present in database
Track 2 not present in database
Track 3 not present in database
Track 4 not present in database
Track 5 not present in database
Track 6 not present in database
Track 7 not present in database
Track 8 not present in database
Track 9 not present in database
Track 10 not present in database
Track 11 not present in database
Track 12 not present in database

None of the tracks are present in the AccurateRip database

End of status report

–– CUETools DB Plugin V2.1.6

[CTDB TOCID: aK2mdTezQC7D93aCkj6bnIYZPks-] found
Submit result: aK2mdTezQC7D93aCkj6bnIYZPks- has been confirmed
Track | CTDB Status
1 | (6/6) Accurately ripped
2 | (6/6) Accurately ripped
3 | (6/6) Accurately ripped
4 | (6/6) Accurately ripped
5 | (6/6) Accurately ripped
6 | (6/6) Accurately ripped
7 | (6/6) Accurately ripped
8 | (6/6) Accurately ripped
9 | (6/6) Accurately ripped
10 | (6/6) Accurately ripped
11 | (6/6) Accurately ripped
12 | (6/6) Accurately ripped


==== Log checksum 88D1C5007C973EC9532CA9BF2BD6202F594962529557FA431BE477C858E16106 ====


[CUETools log; Date: 12.01.2018 10:51:51; Version: 2.1.5]
[CTDB TOCID: aK2mdTezQC7D93aCkj6bnIYZPks-] found.
Track | CTDB Status
1 | (8/8) Accurately ripped
2 | (8/8) Accurately ripped
3 | (8/8) Accurately ripped
4 | (8/8) Accurately ripped
5 | (8/8) Accurately ripped
6 | (8/8) Accurately ripped
7 | (8/8) Accurately ripped
8 | (8/8) Accurately ripped
9 | (8/8) Accurately ripped
10 | (8/8) Accurately ripped
11 | (8/8) Accurately ripped
12 | (8/8) Accurately ripped
[AccurateRip ID: 0010d467-009e4a30-ae08c90c] found.
Track [ CRC | V2 ] Status
01 [6d5b0659|9e19cf54] (0+3/3) Accurately ripped
02 [c7cfecf4|dfd342a0] (0+3/3) Accurately ripped
03 [77a60c81|9d8d298b] (0+3/3) Accurately ripped
04 [fb1488ef|2192a65b] (0+3/3) Accurately ripped
05 [9df1875e|4d3deefe] (0+3/3) Accurately ripped
06 [5bdc9326|26813235] (0+3/3) Accurately ripped
07 [f88a6301|f84311ae] (0+3/3) Accurately ripped
08 [a1abf1e1|e1940556] (0+3/3) Accurately ripped
09 [2c5694a3|94277315] (0+3/3) Accurately ripped
10 [cabd3435|09e292d8] (0+3/3) Accurately ripped
11 [6a4fdf6e|c5c65aa2] (0+3/3) Accurately ripped
12 [256e72dd|cfd3aee3] (0+3/3) Accurately ripped

Track Peak [ CRC32 ] [W/O NULL] [ LOG ]
– 96,7 [EB9CC7EF] [DC3CEF6D] CRC32
01 96,7 [B797A65B] [4C9A617C]
02 79,1 [44E08BBA] [16814F05]
03 93,2 [38DFA7E0] [50811D66]
04 93,5 [A006ECB5] [AD68FA2C]
05 81,7 [8E05BCE1] [391174E5]
06 95,0 [9C15E37C] [EDCDBC62]
07 69,0 [7BE45A38] [FBB08AD6]
08 96,5 [1D3F460B] [987DD260]
09 88,3 [C41215A9] [4717F408]
10 92,5 [0DECDBE8] [C63D5EE2]
11 90,3 [3585146F] [8AE0A5F2]
12 68,4 [43D204EA] [6C1BC00B]


Bread - The Elektra Years: The Complete Albums Box (2017)

Tracklist CD3 - 1971 Manna:

01 Let Your Love Go
02 Take Comfort
03 Too Much Love
04 If
05 Be Kind To Me
06 He's A Good Lad
07 She Was My Lady
08 Live In Your Love
09 What A Chance
10 I Say Again
11 Come Again
12 Truckin'

Exact Audio Copy V1.3 from 2. September 2016

EAC extraction logfile from 25. December 2017, 9:54

Bread / Manna

Used drive : PLEXTOR BD-R PX-B950SA Adapter: 1 ID: 1

Read mode : Secure
Utilize accurate stream : Yes
Defeat audio cache : Yes
Make use of C2 pointers : No

Read offset correction : 6
Overread into Lead-In and Lead-Out : No
Fill up missing offset samples with silence : Yes
Delete leading and trailing silent blocks : No
Null samples used in CRC calculations : Yes
Used interface : Native Win32 interface for Win NT & 2000

Used output format : Internal WAV Routines
Sample format : 44.100 Hz; 16 Bit; Stereo


TOC of the extracted CD

Track | Start | Length | Start sector | End sector
––––––––––––––––––––––––––––-
1 | 0:00.00 | 2:25.43 | 0 | 10917
2 | 2:25.43 | 3:33.31 | 10918 | 26923
3 | 5:58.74 | 2:46.60 | 26924 | 39433
4 | 8:45.59 | 2:35.58 | 39434 | 51116
5 | 11:21.42 | 3:04.20 | 51117 | 64936
6 | 14:25.62 | 3:00.70 | 64937 | 78506
7 | 17:26.57 | 2:51.30 | 78507 | 91361
8 | 20:18.12 | 2:46.57 | 91362 | 103868
9 | 23:04.69 | 3:39.58 | 103869 | 120351
10 | 26:44.52 | 2:52.62 | 120352 | 133313
11 | 29:37.39 | 4:02.70 | 133314 | 151533
12 | 33:40.34 | 2:32.45 | 151534 | 162978


Range status and errors

Selected range

Filename C:\Users\Alex\Desktop\ALLexxess\Bread\2017 Elektra Years Complete Albums (6CD Box Set Rhino Records)\1971 Manna\Bread - Manna.wav

Peak level 97.9 %
Extraction speed 6.6 X
Range quality 100.0 %
Test CRC 42B5CA33
Copy CRC 42B5CA33
Copy OK

No errors occurred


AccurateRip summary

Track 1 not present in database
Track 2 not present in database
Track 3 not present in database
Track 4 not present in database
Track 5 not present in database
Track 6 not present in database
Track 7 not present in database
Track 8 not present in database
Track 9 not present in database
Track 10 not present in database
Track 11 not present in database
Track 12 not present in database

None of the tracks are present in the AccurateRip database

End of status report

–– CUETools DB Plugin V2.1.6

[CTDB TOCID: kSh_Hqp8UdUWO.wX1S2hrtCgBfg-] found
Submit result: kSh_Hqp8UdUWO.wX1S2hrtCgBfg- has been confirmed
Track | CTDB Status
1 | (6/6) Accurately ripped
2 | (6/6) Accurately ripped
3 | (6/6) Accurately ripped
4 | (6/6) Accurately ripped
5 | (6/6) Accurately ripped
6 | (6/6) Accurately ripped
7 | (6/6) Accurately ripped
8 | (6/6) Accurately ripped
9 | (6/6) Accurately ripped
10 | (6/6) Accurately ripped
11 | (6/6) Accurately ripped
12 | (6/6) Accurately ripped


==== Log checksum A1984DEF46CEB61DCD75ABB3CD0E2D1B008689D1E0B9C3B4988C07C3A66415BD ====


[CUETools log; Date: 12.01.2018 10:52:26; Version: 2.1.5]
[CTDB TOCID: kSh_Hqp8UdUWO.wX1S2hrtCgBfg-] found.
Track | CTDB Status
1 | (8/8) Accurately ripped
2 | (8/8) Accurately ripped
3 | (8/8) Accurately ripped
4 | (8/8) Accurately ripped
5 | (8/8) Accurately ripped
6 | (8/8) Accurately ripped
7 | (8/8) Accurately ripped
8 | (8/8) Accurately ripped
9 | (8/8) Accurately ripped
10 | (8/8) Accurately ripped
11 | (8/8) Accurately ripped
12 | (8/8) Accurately ripped
[AccurateRip ID: 000fcbef-00946fb7-9a087d0c] found.
Track [ CRC | V2 ] Status
01 [3bff3822|96399b52] (0+3/3) Accurately ripped
02 [4438a022|6be51867] (0+3/3) Accurately ripped
03 [6891b0a3|7c1fb69e] (0+3/3) Accurately ripped
04 [16c92f8b|8c7d2046] (0+3/3) Accurately ripped
05 [463c4a61|3d628448] (0+3/3) Accurately ripped
06 [380f5e0b|68ff4d2d] (0+3/3) Accurately ripped
07 [421030c1|baeaf7f0] (0+3/3) Accurately ripped
08 [4f5433ff|fc4b4f60] (0+3/3) Accurately ripped
09 [e5af62d4|4170a862] (0+3/3) Accurately ripped
10 [0310d3bf|01439bd1] (0+3/3) Accurately ripped
11 [d25d4c39|f9efda67] (0+3/3) Accurately ripped
12 [7232fa64|7e5860d0] (0+3/3) Accurately ripped

Track Peak [ CRC32 ] [W/O NULL] [ LOG ]
– 97,9 [42B5CA33] [7F4AB2F7] CRC32
01 96,9 [5B0ECE44] [FB920F63]
02 95,9 [BE1D5189] [FA49A924]
03 95,8 [4C117398] [6DBA5EA1]
04 62,3 [4C135301] [9365FB3A]
05 96,7 [841AE47E] [892C426F]
06 80,1 [F3544432] [AEC61BE8]
07 85,2 [C402E13F] [5D1A4412]
08 96,8 [3466FF48] [AC97EA29]
09 97,9 [5A7D2D4F] [E6B541BE]
10 93,0 [28290344] [3491902A]
11 91,2 [E86370B4] [2C0AC7B3]
12 94,2 [FDB2C99B] [278B408B]


Bread - The Elektra Years: The Complete Albums Box (2017)

Tracklist CD4 - 1972 Baby I'm-A Want You:

01 Mother Freedom
02 Baby I'm-A Want You
03 Down On My Knees
04 Everything I Own
05 Nobody Like You
06 Diary
07 Dream Lady
08 Daughter
09 Games Of Magic
10 This Isn't What The Governmeant
11 Just Like Yesterday
12 I Don't Love You

Exact Audio Copy V1.3 from 2. September 2016

EAC extraction logfile from 25. December 2017, 9:24

Bread / Baby I'm-A Want You

Used drive : PLEXTOR BD-R PX-B950SA Adapter: 1 ID: 1

Read mode : Secure
Utilize accurate stream : Yes
Defeat audio cache : Yes
Make use of C2 pointers : No

Read offset correction : 6
Overread into Lead-In and Lead-Out : No
Fill up missing offset samples with silence : Yes
Delete leading and trailing silent blocks : No
Null samples used in CRC calculations : Yes
Used interface : Native Win32 interface for Win NT & 2000

Used output format : Internal WAV Routines
Sample format : 44.100 Hz; 16 Bit; Stereo


TOC of the extracted CD

Track | Start | Length | Start sector | End sector
––––––––––––––––––––––––––––-
1 | 0:00.00 | 2:35.40 | 0 | 11664
2 | 2:35.40 | 2:30.53 | 11665 | 22967
3 | 5:06.18 | 2:44.68 | 22968 | 35335
4 | 7:51.11 | 3:07.00 | 35336 | 49360
5 | 10:58.11 | 3:14.25 | 49361 | 63935
6 | 14:12.36 | 3:09.32 | 63936 | 78142
7 | 17:21.68 | 3:22.25 | 78143 | 93317
8 | 20:44.18 | 3:23.42 | 93318 | 108584
9 | 24:07.60 | 3:10.15 | 108585 | 122849
10 | 27:18.00 | 2:27.16 | 122850 | 133890
11 | 29:45.16 | 2:15.42 | 133891 | 144057
12 | 32:00.58 | 2:50.69 | 144058 | 156876


Range status and errors

Selected range

Filename C:\Users\Alex\Desktop\ALLexxess\Bread\2017 Elektra Years Complete Albums (6CD Box Set Rhino Records)\1972 Baby I'm-A Want You\Bread - Baby I'm-A Want You.wav

Peak level 98.0 %
Extraction speed 6.3 X
Range quality 100.0 %
Test CRC 56B1D08D
Copy CRC 56B1D08D
Copy OK

No errors occurred


AccurateRip summary

Track 1 not present in database
Track 2 not present in database
Track 3 not present in database
Track 4 not present in database
Track 5 not present in database
Track 6 not present in database
Track 7 not present in database
Track 8 not present in database
Track 9 not present in database
Track 10 not present in database
Track 11 not present in database
Track 12 not present in database

None of the tracks are present in the AccurateRip database

End of status report

–– CUETools DB Plugin V2.1.6

[CTDB TOCID: xd1GQ71uqZXgNC55DruAS.R5Vt4-] found
Submit result: xd1GQ71uqZXgNC55DruAS.R5Vt4- has been confirmed
Track | CTDB Status
1 | (6/6) Accurately ripped
2 | (6/6) Accurately ripped
3 | (6/6) Accurately ripped
4 | (6/6) Accurately ripped
5 | (6/6) Accurately ripped
6 | (6/6) Accurately ripped
7 | (6/6) Accurately ripped
8 | (6/6) Accurately ripped
9 | (6/6) Accurately ripped
10 | (6/6) Accurately ripped
11 | (6/6) Accurately ripped
12 | (6/6) Accurately ripped


==== Log checksum 822C5C52191392B93AB3036696AC4062D5D6070D686F7DF4A49DD4EECCF9FD2B ====


[CUETools log; Date: 12.01.2018 10:53:08; Version: 2.1.5]
[CTDB TOCID: xd1GQ71uqZXgNC55DruAS.R5Vt4-] found.
Track | CTDB Status
1 | (8/8) Accurately ripped
2 | (8/8) Accurately ripped
3 | (8/8) Accurately ripped
4 | (8/8) Accurately ripped
5 | (8/8) Accurately ripped
6 | (8/8) Accurately ripped
7 | (8/8) Accurately ripped
8 | (8/8) Accurately ripped
9 | (8/8) Accurately ripped
10 | (8/8) Accurately ripped
11 | (8/8) Accurately ripped
12 | (8/8) Accurately ripped
[AccurateRip ID: 000f943c-00928c70-9c082b0c] found.
Track [ CRC | V2 ] Status
01 [15aae093|0386b584] (0+4/4) Accurately ripped
02 [bd7bddfe|4927c007] (0+4/4) Accurately ripped
03 [ac5aca77|8e901de4] (0+4/4) Accurately ripped
04 [8eca5a6a|dec26c60] (0+4/4) Accurately ripped
05 [31adfa61|477c5d7c] (0+4/4) Accurately ripped
06 [a66c41f9|70d67264] (0+4/4) Accurately ripped
07 [08df92e3|26d11909] (0+4/4) Accurately ripped
08 [6be2dcbe|d14cbda4] (0+4/4) Accurately ripped
09 [846f79d8|b87b6ddc] (0+4/4) Accurately ripped
10 [4d6e3fc7|b7291106] (0+4/4) Accurately ripped
11 [9e584515|1d4b3f39] (0+4/4) Accurately ripped
12 [cc6577e4|42b15d93] (0+4/4) Accurately ripped

Track Peak [ CRC32 ] [W/O NULL] [ LOG ]
– 98,0 [56B1D08D] [FD063CC4] CRC32
01 96,7 [8CAB24A2] [638B99D5]
02 73,8 [95E2F709] [889B1D88]
03 96,7 [A99D007E] [3EC1DA31]
04 98,0 [CD9646FC] [70D125B9]
05 96,6 [EB785AAA] [89CDD913]
06 82,7 [D4EBBD6B] [A15A573E]
07 97,0 [738A6804] [86688BC9]
08 96,6 [CDF4D7F4] [36133763]
09 94,6 [107BA891] [99399AA8]
10 96,6 [34A1BFCA] [F56A2352]
11 96,8 [78E15734] [F634B0E8]
12 96,7 [BB1A2AC0] [00015101]


Bread - The Elektra Years: The Complete Albums Box (2017)

Tracklist CD5 - 1972 Guitar Man:

01 Welcome To The Music
02 The Guitar Man
03 Make It By Yourself
04 Aubrey
05 Fancy Dancer
06 Sweet Surrender
07 Tecolote
08 Let Me Go
09 Yours For Life
10 Picture In Your Mind
11 Don't Tell Me No
12 Didn't Even Know Her Name

Exact Audio Copy V1.3 from 2. September 2016

EAC extraction logfile from 24. December 2017, 14:37

Bread / Guitar Man

Used drive : PLEXTOR BD-R PX-B950SA Adapter: 1 ID: 1

Read mode : Secure
Utilize accurate stream : Yes
Defeat audio cache : Yes
Make use of C2 pointers : No

Read offset correction : 6
Overread into Lead-In and Lead-Out : No
Fill up missing offset samples with silence : Yes
Delete leading and trailing silent blocks : No
Null samples used in CRC calculations : Yes
Used interface : Native Win32 interface for Win NT & 2000

Used output format : Internal WAV Routines
Sample format : 44.100 Hz; 16 Bit; Stereo


TOC of the extracted CD

Track | Start | Length | Start sector | End sector
––––––––––––––––––––––––––––-
1 | 0:00.00 | 2:57.16 | 0 | 13290
2 | 2:57.16 | 3:46.16 | 13291 | 30256
3 | 6:43.32 | 3:50.30 | 30257 | 47536
4 | 10:33.62 | 3:39.37 | 47537 | 63998
5 | 14:13.24 | 3:33.15 | 63999 | 79988
6 | 17:46.39 | 2:36.73 | 79989 | 91761
7 | 20:23.37 | 4:35.48 | 91762 | 112434
8 | 24:59.10 | 3:27.10 | 112435 | 127969
9 | 28:26.20 | 3:21.34 | 127970 | 143078
10 | 31:47.54 | 4:41.72 | 143079 | 164225
11 | 36:29.51 | 3:34.70 | 164226 | 180345
12 | 40:04.46 | 3:10.50 | 180346 | 194645


Range status and errors

Selected range

Filename C:\Users\Alex\Desktop\ALLexxess\Bread\2017 Elektra Years Complete Albums (6CD Box Set Rhino Records)\1972 Guitar Man\Bread - Guitar Man.wav

Peak level 96.5 %
Extraction speed 6.5 X
Range quality 99.9 %
Test CRC 1A5628BA
Copy CRC 1A5628BA
Copy OK

No errors occurred


AccurateRip summary

Track 1 not present in database
Track 2 not present in database
Track 3 not present in database
Track 4 not present in database
Track 5 not present in database
Track 6 not present in database
Track 7 not present in database
Track 8 not present in database
Track 9 not present in database
Track 10 not present in database
Track 11 not present in database
Track 12 not present in database

None of the tracks are present in the AccurateRip database

End of status report

–– CUETools DB Plugin V2.1.6

[CTDB TOCID: kVKBozqZmdarGcqZdvN8vl.sDnI-] found
Submit result: kVKBozqZmdarGcqZdvN8vl.sDnI- has been confirmed
Track | CTDB Status
1 | (6/6) Accurately ripped
2 | (6/6) Accurately ripped
3 | (6/6) Accurately ripped
4 | (6/6) Accurately ripped
5 | (6/6) Accurately ripped
6 | (6/6) Accurately ripped
7 | (6/6) Accurately ripped
8 | (6/6) Accurately ripped
9 | (6/6) Accurately ripped
10 | (6/6) Accurately ripped
11 | (6/6) Accurately ripped
12 | (6/6) Accurately ripped


==== Log checksum CB87D476642DAA59A3DF089C1025277B3134C6E6399E1011B13DD39A7714FB20 ====


[CUETools log; Date: 12.01.2018 10:53:37; Version: 2.1.5]
[CTDB TOCID: kVKBozqZmdarGcqZdvN8vl.sDnI-] found.
Track | CTDB Status
1 | (8/8) Accurately ripped
2 | (8/8) Accurately ripped
3 | (8/8) Accurately ripped
4 | (8/8) Accurately ripped
5 | (8/8) Accurately ripped
6 | (8/8) Accurately ripped
7 | (8/8) Accurately ripped
8 | (8/8) Accurately ripped
9 | (8/8) Accurately ripped
10 | (8/8) Accurately ripped
11 | (8/8) Accurately ripped
12 | (8/8) Accurately ripped
[AccurateRip ID: 00131101-00b30741-980a230c] found.
Track [ CRC | V2 ] Status
01 [1c271db1|ca748445] (0+3/3) Accurately ripped
02 [be1fa539|f83a27ba] (0+3/3) Accurately ripped
03 [2fda3ffd|0fbbddeb] (0+3/3) Accurately ripped
04 [41cfe804|d768c412] (0+3/3) Accurately ripped
05 [2e9c0b63|4105bfb4] (0+3/3) Accurately ripped
06 [ac19292c|283650ba] (0+3/3) Accurately ripped
07 [6298a0f8|861bac56] (0+3/3) Accurately ripped
08 [cc1291ec|6d23f00c] (0+3/3) Accurately ripped
09 [1e6d8260|3ce85b1e] (0+3/3) Accurately ripped
10 [e621c950|2a6557d7] (0+3/3) Accurately ripped
11 [95331405|e20cf280] (0+3/3) Accurately ripped
12 [f899d82a|d01579a4] (0+3/3) Accurately ripped

Track Peak [ CRC32 ] [W/O NULL] [ LOG ]
– 96,5 [1A5628BA] [B4F77276] CRC32
01 92,4 [86C3F5C3] [B5B5705C]
02 94,5 [2A7508FE] [2ED50D59]
03 96,5 [47795594] [17807D8E]
04 74,3 [44E9FF7B] [B5CFB5BF]
05 96,4 [29D7F2BA] [401C3AFB]
06 80,2 [7874A9DE] [7EC47ED6]
07 96,3 [162AFD00] [C6783876]
08 96,3 [51F90727] [06811BF7]
09 78,9 [C5695526] [2BED4EE3]
10 90,1 [023114AD] [07BD16F6]
11 94,3 [96AC8CC9] [F7DE5A04]
12 76,3 [226D0E18] [1B00F146]


Bread - The Elektra Years: The Complete Albums Box (2017)

Tracklist CD6 - 1977 Lost Without Your Love:

01 Hooked On You
02 She's The Only One
03 Lost Without Your Love
04 Change Of Heart
05 Belonging
06 Fly Away
07 Lay Your Money Down
08 The Chosen One
09 Today's The First Day
10 Hold Tight
11 Our Lady Of Sorrow

Exact Audio Copy V1.3 from 2. September 2016

EAC extraction logfile from 24. December 2017, 14:08

Bread / Lost Without Your Love

Used drive : PLEXTOR BD-R PX-B950SA Adapter: 1 ID: 1

Read mode : Secure
Utilize accurate stream : Yes
Defeat audio cache : Yes
Make use of C2 pointers : No

Read offset correction : 6
Overread into Lead-In and Lead-Out : No
Fill up missing offset samples with silence : Yes
Delete leading and trailing silent blocks : No
Null samples used in CRC calculations : Yes
Used interface : Native Win32 interface for Win NT & 2000

Used output format : Internal WAV Routines
Sample format : 44.100 Hz; 16 Bit; Stereo


TOC of the extracted CD

Track | Start | Length | Start sector | End sector
––––––––––––––––––––––––––––-
1 | 0:00.00 | 2:21.10 | 0 | 10584
2 | 2:21.10 | 3:01.32 | 10585 | 24191
3 | 5:22.42 | 2:56.57 | 24192 | 37448
4 | 8:19.24 | 3:20.43 | 37449 | 52491
5 | 11:39.67 | 3:19.33 | 52492 | 67449
6 | 14:59.25 | 3:07.25 | 67450 | 81499
7 | 18:06.50 | 2:42.70 | 81500 | 93719
8 | 20:49.45 | 4:40.64 | 93720 | 114783
9 | 25:30.34 | 3:25.45 | 114784 | 130203
10 | 28:56.04 | 3:07.38 | 130204 | 144266
11 | 32:03.42 | 4:17.34 | 144267 | 163575


Range status and errors

Selected range

Filename C:\Users\Alex\Desktop\ALLexxess\Bread\2017 Elektra Years Complete Albums (6CD Box Set Rhino Records)\1977 Lost Without Your Love\Bread - Lost Without Your Love.wav

Peak level 97.4 %
Extraction speed 6.4 X
Range quality 100.0 %
Test CRC 7DB7835A
Copy CRC 7DB7835A
Copy OK

No errors occurred


AccurateRip summary

Track 1 not present in database
Track 2 not present in database
Track 3 not present in database
Track 4 not present in database
Track 5 not present in database
Track 6 not present in database
Track 7 not present in database
Track 8 not present in database
Track 9 not present in database
Track 10 not present in database
Track 11 not present in database

None of the tracks are present in the AccurateRip database

End of status report

–– CUETools DB Plugin V2.1.6

[CTDB TOCID: 287kL2vSTPhX14HuayHpewUy0T8-] found
Submit result: 287kL2vSTPhX14HuayHpewUy0T8- has been confirmed
Track | CTDB Status
1 | (6/6) Accurately ripped
2 | (6/6) Accurately ripped
3 | (6/6) Accurately ripped
4 | (6/6) Accurately ripped
5 | (6/6) Accurately ripped
6 | (6/6) Accurately ripped
7 | (6/6) Accurately ripped
8 | (6/6) Accurately ripped
9 | (6/6) Accurately ripped
10 | (6/6) Accurately ripped
11 | (6/6) Accurately ripped


==== Log checksum E8854A9F6F3555AB897D3FC248E05854C505CC0225F2FCCD97A66617682CB913 ====


[CUETools log; Date: 12.01.2018 10:54:09; Version: 2.1.5]
[CTDB TOCID: 287kL2vSTPhX14HuayHpewUy0T8-] found.
Track | CTDB Status
1 | (8/8) Accurately ripped
2 | (8/8) Accurately ripped
3 | (8/8) Accurately ripped
4 | (8/8) Accurately ripped
5 | (8/8) Accurately ripped
6 | (8/8) Accurately ripped
7 | (8/8) Accurately ripped
8 | (8/8) Accurately ripped
9 | (8/8) Accurately ripped
10 | (8/8) Accurately ripped
11 | (8/8) Accurately ripped
[AccurateRip ID: 000e0a9b-007bd6c4-7408850b] found.
Track [ CRC | V2 ] Status
01 [15d7ae45|acda094a] (0+4/4) Accurately ripped
02 [6657eba7|69081c33] (0+4/4) Accurately ripped
03 [4afeb9b0|ba2f491f] (0+4/4) Accurately ripped
04 [37244d0d|c5d5ee48] (0+4/4) Accurately ripped
05 [3eb193a5|85d6c909] (0+4/4) Accurately ripped
06 [01e80a9d|b048a8a8] (0+4/4) Accurately ripped
07 [9bcef0cb|086b2078] (0+4/4) Accurately ripped
08 [2fef7c8e|b08b4e5a] (0+4/4) Accurately ripped
09 [c2012bc8|4531f572] (0+4/4) Accurately ripped
10 [b5296eab|87063fb9] (0+4/4) Accurately ripped
11 [93454e9e|9c07d2e7] (0+4/4) Accurately ripped

Track Peak [ CRC32 ] [W/O NULL] [ LOG ]
– 97,4 [7DB7835A] [A1564C61] CRC32
01 96,5 [59FF051E] [003A07C8]
02 96,8 [8E34920A] [BC7D7B24]
03 96,8 [005F0ADF] [AA4A0C92]
04 96,9 [C7285115] [4FB50D69]
05 57,8 [9E6BFF0C] [8DD56528]
06 91,2 [513AAE9A] [D87B868B]
07 97,4 [4840C24F] [2EFCC4D2]
08 97,0 [5E7E5D77] [085FB6F2]
09 96,6 [7DBA7A72] [1F972119]
10 96,6 [20DAF144] [E287EF68]
11 96,6 [E9C7B8D2] [16F58D77]


Bread - The Elektra Years: The Complete Albums Box (2017)

All thanks go to ALLexxess

Bread or Bread in my Blog

Download Bread - The Elektra Years: The Complete Albums Box (2017):