Subcategories

Chris Norman - Break Away (2004)

Posted By: popsakov
Chris Norman - Break Away (2004)

Chris Norman - Break Away (2004)
EAC Rip | FLAC (Img) + Cue + Log ~ 363 Mb | MP3 CBR320 ~ 119 Mb
Full Scans (JPG, 600 dpi) ~ 108 Mb | RAR 5% Recovery
Soft Rock, Pop Rock | Polydor / Constantin Entertainment Music / Universal Music #9866596

Known for his solo hits in the 1980s as well as his hits with the band Smokie in the '70s, Chris Norman is a British soft rock singer with an international following whose career spans several decades. Born on October 25, 1950, in Redcar, North Yorkshire, England, he began his musical career in the band Smokie. Originally founded in 1965, the band changed its name several times before ultimately deciding upon Smokie in the mid-'70s. Comprised of Alan Silson (lead guitar, vocals), Terry Uttley (bass, vocals), and Pete Spencer (drums), in addition to Norman (lead vocals, rhythm guitar), Smokie made their album debut in 1975 with Pass It Around. Their second album, Changing All the Time (1975), broke them into the pop mainstream not only in the United Kingdom but also in parts of Western Europe, where the album's single, "If You Think You Know How to Love Me," was a Top Ten hit. Subsequent albums Midnight Cafe (1976), Bright Lights and Back Alleys (1977), and The Montreux Album (1978) were also international hits. Moreover, Norman scored an international Top Ten hit single in 1978 with "Stumblin' In," a duet with Suzi Quatro.

As Smokie's popularity trailed off around the turn of the decade, Norman split from the band and made his solo album debut in 1982 with Rock Away Your Teardrops. While his debut album was fairly unsuccessful, his second full-length effort, Some Hearts Are Diamonds (1986), was another story, spawning the international Top Ten smash hit single "Midnight Lady." Norman's popularity was greatest in Germany, where he racked up several additional hits during the late '80s, among them "No Arms Can Ever Hold You," "Sarah (You Take My Breath Away)," and "Broken Heroes." While Norman released a new album every couple years from the mid-'80s onward, his popularity waned in the '90s, and not until after the turn of the century did he start hitting the charts again. Once again, his popularity was greatest in Germany, where he had a banner year in 2004 with the compilation The Very Best of Chris Norman, the new album Break Away, and the Top Ten hit single "Amazing." Subsequent albums including One Acoustic Evening (2005), Million Miles (2006), and Close Up (2007) were also well received in Germany while the career-spanning compilation The Hits! From His Smokie and Solo Years (2009) was an international success.
~ All Music

***************

Chris Norman - Break Away (2004)

Track List:

01. Amazing [3:55]
02. Break Away [3:31]
03. Here With Me Tonight [3:49]
04. Alone [3:55]
05. Drift Away [3:49]
06. Breathless [4:42]
07. Big Chance [3:27]
08. Without Your Love [4:29]
09. Don't You Cry [3:34]
10. Too Much (And Not Enough) [3:34]
11. Vision Of Life [3:36]
12. Tears Run Dry [4:25]
13. Midnight Hour (Bonus Track) [2:26]

Exact Audio Copy V1.0 beta 3 from 29. August 2011

Отчёт EAC об извлечении, выполненном 29. августа 2012, 20:04

Chris Norman / Break Away

Дисковод: ATAPI iHAP122 W Adapter: 0 ID: 1

Режим чтения : Достоверность
Использование точного потока : Да
Отключение кэша аудио : Да
Использование указателей C2 : Нет

Коррекция смещения при чтении : 6
Способность читать области Lead-in и Lead-out : Нет
Заполнение пропущенных сэмплов тишиной : Да
Удаление блоков с тишиной в начале и конце : Нет
При вычислениях CRC использовались нулевые сэмплы : Да
Интерфейс : Установленный внешний ASPI-интерфейс

Выходной формат : Пользовательский кодировщик
Выбранный битрейт : 128 kBit/s
Качество : Высокий
Добавление ID3-тега : Нет
Утилита сжатия : C:\Program Files\Exact Audio Copy\Flac\flac.exe
Дополнительные параметры : -V -8 -T "Date=%year%" -T "Genre=%genre%" %source%


TOC извлечённого CD

Трек | Старт | Длительность | Начальный сектор | Конечный сектор
––––––––––––––––––––––––––––––––––-
1 | 0:00.00 | 3:54.74 | 0 | 17623
2 | 3:54.74 | 3:31.14 | 17624 | 33462
3 | 7:26.13 | 3:49.30 | 33463 | 50667
4 | 11:15.43 | 3:55.15 | 50668 | 68307
5 | 15:10.58 | 3:48.53 | 68308 | 85460
6 | 18:59.36 | 4:42.03 | 85461 | 106613
7 | 23:41.39 | 3:27.34 | 106614 | 122172
8 | 27:08.73 | 4:29.30 | 122173 | 142377
9 | 31:38.28 | 3:33.61 | 142378 | 158413
10 | 35:12.14 | 3:34.18 | 158414 | 174481
11 | 38:46.32 | 3:36.03 | 174482 | 190684
12 | 42:22.35 | 4:24.67 | 190685 | 210551
13 | 46:47.27 | 2:26.29 | 210552 | 221530


Характеристики диапазона извлечения и сообщения об ошибках

Выбранный диапазон

Имя файла D:\flacmusic\Rip by moote\Chris Norman – Break Away\Chris Norman - Break Away.wav

Пиковый уровень 99.8 %
Скорость извлечения 0.8 X
Качество диапазона 100.0 %
CRC теста FCF74F97
CRC копии FCF74F97
Копирование… OK

Ошибок не произошло


AccurateRip: сводка

Трек 1 точность не определена (достоверность 2) [64249B3C], AccurateRip вернул [5067D8BC] (AR v2)
Трек 2 точность не определена (достоверность 2) [0A31E1DA], AccurateRip вернул [61449637] (AR v2)
Трек 3 точность не определена (достоверность 2) [33E92504], AccurateRip вернул [DDAABFA8] (AR v2)
Трек 4 точность не определена (достоверность 2) [DED8CC37], AccurateRip вернул [65970493] (AR v2)
Трек 5 точность не определена (достоверность 2) [DE6A2662], AccurateRip вернул [9A3EF0E5] (AR v2)
Трек 6 точность не определена (достоверность 2) [172A8902], AccurateRip вернул [DC565716] (AR v2)
Трек 7 точность не определена (достоверность 2) [1371B7A6], AccurateRip вернул [1AF04EF4] (AR v2)
Трек 8 точность не определена (достоверность 2) [5FEA36B7], AccurateRip вернул [A407CFD9] (AR v2)
Трек 9 точность не определена (достоверность 2) [E4C8B5BD], AccurateRip вернул [C6690437] (AR v2)
Трек 10 точность не определена (достоверность 2) [7801D32D], AccurateRip вернул [561B3806] (AR v2)
Трек 11 точность не определена (достоверность 2) [C7B67C24], AccurateRip вернул [A642FAB2] (AR v2)
Трек 12 точность не определена (достоверность 2) [FBA64919], AccurateRip вернул [3AF4423D] (AR v2)
Трек 13 точность не определена (достоверность 2) [A5FD3F16], AccurateRip вернул [0F58C30F] (AR v2)

Ни один трек не прошёл проверки на точность
В вашей базе может быть иной вариант штамповки диска

Конец отчёта

==== Контрольная сумма отчёта 7248B49B2296143C33AEA999046807DADDEE8AA0050999731139023B6C70F207 ====

foobar2000 1.3.16 / Dynamic Range Meter 1.1.1
log date: 2018-04-17 11:34:56

––––––––––––––––––––––––––––––––––––––––
Analyzed: Chris Norman / Break Away
––––––––––––––––––––––––––––––––––––––––

DR Peak RMS Duration Track
––––––––––––––––––––––––––––––––––––––––
DR7 -0.01 dB -9.32 dB 3:55 01-Amazing
DR6 -0.10 dB -7.39 dB 3:31 02-Break Away
DR7 -0.10 dB -8.73 dB 3:49 03-Here With Me Tonight
DR7 -0.10 dB -8.03 dB 3:55 04-Alone
DR7 -0.10 dB -8.53 dB 3:49 05-Drift Away
DR7 -0.10 dB -8.40 dB 4:42 06-Breathless
DR7 -0.10 dB -8.43 dB 3:27 07-Big Chance
DR6 -0.10 dB -7.72 dB 4:29 08-Without Your Love
DR7 -0.10 dB -8.07 dB 3:34 09-Don't You Cry
DR6 -0.10 dB -7.86 dB 3:34 10-Too Much (And Not Enough)
DR7 -0.10 dB -7.89 dB 3:36 11-Vision Of Life
DR7 -0.10 dB -9.03 dB 4:25 12-Tears Run Dry
DR6 -0.10 dB -7.44 dB 2:26 13-Midnight Hour (Bonus Track)
––––––––––––––––––––––––––––––––––––––––

Number of tracks: 13
Official DR value: DR7

Samplerate: 44100 Hz
Channels: 2
Bits per sample: 16
Bitrate: 980 kbps
Codec: FLAC
================================================================================

[CUETools log; Date: 17.04.2018 11:35:08; Version: 2.1.6]
[CTDB TOCID: Kf8YG_YVJS56ehAGDhkHuB3oMoA-] found.
Track | CTDB Status
1 | (18/18) Accurately ripped
2 | (18/18) Accurately ripped
3 | (18/18) Accurately ripped
4 | (18/18) Accurately ripped
5 | (18/18) Accurately ripped
6 | (18/18) Accurately ripped
7 | (18/18) Accurately ripped
8 | (18/18) Accurately ripped
9 | (18/18) Accurately ripped
10 | (18/18) Accurately ripped
11 | (18/18) Accurately ripped
12 | (18/18) Accurately ripped
13 | (18/18) Accurately ripped
[AccurateRip ID: 00182511-00f18404-9b0b890d] found.
Track [ CRC | V2 ] Status
01 [cb3fa9d0|64249b3c] (00+00/13) No match
02 [5841d7bb|0a31e1da] (00+00/13) No match
03 [72c53258|33e92504] (00+00/13) No match
04 [9b42da13|ded8cc37] (00+00/13) No match
05 [e179b729|de6a2662] (00+00/13) No match
06 [268649f2|172a8902] (00+00/13) No match
07 [90ea8a94|1371b7a6] (00+00/13) No match
08 [f3d21855|5fea36b7] (00+00/13) No match
09 [7a02f213|e4c8b5bd] (00+00/13) No match
10 [c9ff1bee|7801d32d] (00+00/13) No match
11 [93e782da|c7b67c24] (00+00/13) No match
12 [02df31e9|fba64919] (00+00/13) No match
13 [0b53107b|a5fd3f16] (00+00/13) No match
Offsetted by 12:
01 [5067d8bc] (02/13) Accurately ripped
02 [61449637] (02/13) Accurately ripped
03 [ddaabfa8] (02/13) Accurately ripped
04 [65970493] (02/13) Accurately ripped
05 [9a3ef0e5] (02/13) Accurately ripped
06 [dc565716] (02/13) Accurately ripped
07 [1af04ef4] (02/13) Accurately ripped
08 [a407cfd9] (02/13) Accurately ripped
09 [c6690437] (02/13) Accurately ripped
10 [561b3806] (02/13) Accurately ripped
11 [a642fab2] (02/13) Accurately ripped
12 [3af4423d] (02/13) Accurately ripped
13 [0f58c30f] (02/13) Accurately ripped
Offsetted by 676:
01 [6dc1fd14] (03/13) Accurately ripped
02 [fe8717af] (03/13) Accurately ripped
03 [a348a048] (03/13) Accurately ripped
04 [211d8993] (03/13) Accurately ripped
05 [df8ac0dd] (03/13) Accurately ripped
06 [28a3d8de] (03/13) Accurately ripped
07 [f02f6bb4] (03/13) Accurately ripped
08 [64f97a61] (03/13) Accurately ripped
09 [f478efff] (03/13) Accurately ripped
10 [4983f536] (03/13) Accurately ripped
11 [9e083762] (03/13) Accurately ripped
12 [5a2c7465] (03/13) Accurately ripped
13 [433eb1b7] (03/13) Accurately ripped

Track Peak [ CRC32 ] [W/O NULL] [ LOG ]
– 99,8 [FCF74F97] [B275BE53] CRC32
01 99,8 [0D3B630E] [5674314E]
02 98,8 [F486F481] [6BE1EC8D]
03 98,8 [C16854F7] [4F19FF6F]
04 98,8 [C75BD841] [065EEF43]
05 98,8 [BEA7269C] [621BEA59]
06 98,8 [DF0790A9] [5B551F2C]
07 98,8 [68613818] [7CA8B0E9]
08 98,8 [2E0E4857] [6C56F9C1]
09 98,8 [2C2229F2] [51AD20A5]
10 98,8 [A3E0C9EB] [E7021780]
11 98,8 [5FB72660] [6EE63C39]
12 98,8 [F001D80F] [3684FADF]
13 98,8 [726FFB61] [5A22A16D]

Chris Norman - Break Away (2004)

All thanks go to moote

>>> Chris Norman in my Blog <<<

Download from icerbox.com: