Christophe Rousset, Les Talens Lyriques - Rameau - Ouvertures (2007)

Posted By: tirexiss
Christophe Rousset, Les Talens Lyriques - Rameau - Ouvertures  (2007)

Christophe Rousset, Les Talens Lyriques - Rameau: Ouvertures (2007)
EAC | APE (image+.cue, log) | Covers Included | 01:09:41 | 352 MB
Genre: Classical, Opera | Label: L'Oiseau-Lyre | Catalog: 4759107

Christophe Rousset's collection of overtures to 17 of Rameau's operas and opéra-ballets, played by his original instrument ensemble Les Talens Lyriques, won a 1998 Gramophone award for best Baroque non-vocal CD, and it's easy to hear why this outstanding performance was recognized. The ensemble plays with unflagging liveliness and brilliant, clean tone. The rhythmic vitality Rousset coaxes from his players is toe-tappingly engaging; at the same time, he maintains a fluidity that avoids metronomic rigidity. The tempos he takes sometimes have a breathtaking fleetness that leaves the listener marveling at the players' virtuosity. The overtures are mostly brief, usually four or five minutes long, but they each contain a world of volatility and drama. Many of them are wonderfully eccentric, with startling juxtapositions and exotic orchestral combinations that keep them from ever settling into any kind of easy predictability. Rameau's use of percussion is unconventionally dramatic for the late Baroque; the overture to Acante et Céphise uses the timpani with a prominence that must have been startling to his original audiences, and to modern ears it sounds slightly odd, but charming. Rousset and the ensemble are attuned to music's eccentricities and bring out its playful character and sly humor without ever resorting to exaggeration or caricature. Decca's sound is spacious and clean, with a strong sense of presence and good balance. The CD should delight fans of the Baroque, early opera, and anyone intrigued by French music of this still somewhat obscure era.

Christophe Rousset, Les Talens Lyriques - Rameau - Ouvertures  (2007)

Track List:

01. Les Fetes de Polymnie [0:02:44.27]
02. Les Indes galantes [0:04:08.28]
03. Zaпs [0:05:20.20]
04. Castor et Pollux [0:04:19.55]
05. Nais [0:03:53.47]
06. Platee [0:03:44.28]
07. Les Talens lyriques (Les Fees d'Hebe) [0:04:26.20]
08. Zoroastre [0:04:07.55]
09. Dardanus [0:04:11.20]
10. Les Paladins [0:04:03.00]
11. Hippolyte et Aricie [0:02:57.27]
12. Le Temple de la Gloire [0:03:57.00]
13. Pigmalion [0:04:40.28]
14. Les Surprises de L'Amour - Prologue (Le Retour d'Astree) [0:02:32.20]
15. Les Fetes de l'Hymen de l'Amour, ou Les Dieux d'Egypte [0:04:08.55]
16. Les Surprises de l'Amour - Acte I (L'Enlevement d'Adonis) [0:05:25.20]
17. Acante et Cephise, ou La Sympathie [0:05:08.00]

Performers:
Les Talens Lyriques
Christophe Rousset

Exact Audio Copy V0.99 prebeta 4 from 23. January 2008

EAC extraction logfile from 14. May 2008, 6:45

Rameau, Jean-Philippe (1683-1764) / Ouvertures, Les Talens Lyriques, Rousset

Used drive : _NEC DV-5800E Adapter: 4 ID: 0

Read mode : Secure
Utilize accurate stream : Yes
Defeat audio cache : Yes
Make use of C2 pointers : No

Read offset correction : 6
Overread into Lead-In and Lead-Out : No
Fill up missing offset samples with silence : Yes
Delete leading and trailing silent blocks : No
Null samples used in CRC calculations : Yes
Used interface : Native Win32 interface for Win NT & 2000

Used output format : Monkey's Audio Lossless Encoder v3.99 DLL
Sample format : High Lossless Compression


TOC of the extracted CD

Track | Start | Length | Start sector | End sector
––––––––––––––––––––––––––––-
1 | 0:00.33 | 2:44.27 | 33 | 12359
2 | 2:44.60 | 4:08.28 | 12360 | 30987
3 | 6:53.13 | 5:20.20 | 30988 | 55007
4 | 12:13.33 | 4:19.55 | 55008 | 74487
5 | 16:33.13 | 3:53.47 | 74488 | 92009
6 | 20:26.60 | 3:44.28 | 92010 | 108837
7 | 24:11.13 | 4:26.20 | 108838 | 128807
8 | 28:37.33 | 4:07.55 | 128808 | 147387
9 | 32:45.13 | 4:11.20 | 147388 | 166232
10 | 36:56.33 | 4:03.00 | 166233 | 184457
11 | 40:59.33 | 2:57.27 | 184458 | 197759
12 | 43:56.60 | 3:57.00 | 197760 | 215534
13 | 47:53.60 | 4:40.28 | 215535 | 236562
14 | 52:34.13 | 2:32.20 | 236563 | 247982
15 | 55:06.33 | 4:08.55 | 247983 | 266637
16 | 59:15.13 | 5:25.20 | 266638 | 291032
17 | 64:40.33 | 5:08.00 | 291033 | 314132


Range status and errors

Selected range

Filename F:\UPS\J-PR.O.CR.LTL\Rameau, Jean-Philippe (1683-1764) - Ouvertures, Les Talens Lyriques, Rousset.ape

Peak level 94.4 %
Range quality 100.0 %
Copy CRC F4E56BCF
Copy OK

No errors occurred


AccurateRip summary

Track 1 not present in database
Track 2 not present in database
Track 3 not present in database
Track 4 not present in database
Track 5 not present in database
Track 6 not present in database
Track 7 not present in database
Track 8 not present in database
Track 9 not present in database
Track 10 not present in database
Track 11 not present in database
Track 12 not present in database
Track 13 not present in database
Track 14 not present in database
Track 15 not present in database
Track 16 not present in database
Track 17 not present in database

None of the tracks are present in the AccurateRip database

End of status report

[CUETools log; Date: 06.12.2016 13:45:55; Version: 2.1.5]
Pregap length 00:00:33.
[CTDB TOCID: Vv0O.GeXljDa4RqLR.f7ppH6wrY-] found.
Track | CTDB Status
1 | (16/16) Accurately ripped
2 | (16/16) Accurately ripped
3 | (16/16) Accurately ripped
4 | (16/16) Accurately ripped
5 | (16/16) Accurately ripped
6 | (16/16) Accurately ripped
7 | (16/16) Accurately ripped
8 | (16/16) Accurately ripped
9 | (16/16) Accurately ripped
10 | (16/16) Accurately ripped
11 | (16/16) Accurately ripped
12 | (16/16) Accurately ripped
13 | (16/16) Accurately ripped
14 | (16/16) Accurately ripped
15 | (16/16) Accurately ripped
16 | (16/16) Accurately ripped
17 | (16/16) Accurately ripped
[AccurateRip ID: 002a4551-02184e28-0c105c11] found.
Track [ CRC | V2 ] Status
01 [e894bc9b|aef199d8] (02+30/32) Accurately ripped
02 [d2d208e0|33ac146c] (02+30/32) Accurately ripped
03 [a1c857e4|1ab00be3] (02+30/32) Accurately ripped
04 [3f82739f|5c6ec5d2] (02+30/32) Accurately ripped
05 [b5531e13|55ce6904] (02+30/32) Accurately ripped
06 [06425ea2|5c20e3f2] (02+30/32) Accurately ripped
07 [91b1c262|9e65547b] (02+30/32) Accurately ripped
08 [ffbd9c99|e6d6cd73] (02+30/32) Accurately ripped
09 [0c4e0f90|49b3c329] (02+30/32) Accurately ripped
10 [b9f05571|7245cdc3] (02+30/32) Accurately ripped
11 [301f9f3a|d3ae9b78] (02+30/32) Accurately ripped
12 [a9efb61d|7e86dcb9] (02+30/32) Accurately ripped
13 [b95cda83|eb729c9d] (02+30/32) Accurately ripped
14 [bcaf11ab|e86bc8e2] (02+30/32) Accurately ripped
15 [e71fd2d0|be8af3b4] (02+30/32) Accurately ripped
16 [5b66e038|c92259da] (02+30/32) Accurately ripped
17 [ce899eef|4cbada35] (02+30/32) Accurately ripped

Track Peak [ CRC32 ] [W/O NULL] [ LOG ]
– 94,4 [F4E56BCF] [0C736ECB] CRC32
01 65,1 [18979394] [EC17525E]
02 35,0 [6C1B9F84] [8EBF2BA2]
03 51,4 [416F15E0] [DC568342]
04 34,7 [09B8EBFF] [B840712D]
05 72,7 [9A22E822] [069E7F15]
06 34,9 [B15919E3] [46BEF5E2]
07 33,3 [FAA4750E] [8C3E6097]
08 46,9 [F4546355] [32EC09A4]
09 38,3 [06B2E5B5] [BA6A12A2]
10 52,5 [D4F88C2E] [428D8851]
11 32,4 [319DDB87] [AE8D71CF]
12 86,1 [E057D8C9] [69EB910A]
13 30,9 [ADDC4B33] [224E8C69]
14 44,9 [A8A2B6E5] [F65D27E0]
15 38,3 [E8E5DC75] [5FA2EED3]
16 48,7 [D1745F1C] [CCD85818]
17 94,4 [5DCDC5D8] [8CB0C5D8]

Christophe Rousset, Les Talens Lyriques - Rameau - Ouvertures  (2007)

Thanks to the Original ripper (unknown)!

Download: