Subcategories

David Willey - Songs from the Hamster Theatre (1995)

Posted By: gribovar
David Willey - Songs from the Hamster Theatre (1995)

David Willey - Songs from the Hamster Theatre (1995)
EAC Rip | WavPack (image+.cue+log) - 196 MB | MP3 CBR 320 kbps (LAME 3.93) - 96 MB | Covers (8 MB) included
Genre: Avant-Prog | RAR 3% Rec. | Label: Prolific (105218-1)

Dave Willey is an American experimental musician and composer, best known as the co-founder and member of the Boulder, Colorado-based avant-rock group Hamster Theatre. He is also a member of Thinking Plague and 3 Mice. He has released two solo albums and has performed with Hamster Theatre and Thinking Plague in the United States and Europe. When he returned to the United States from Europe, Willey settled near Boulder and began multi-tracking himself on numerous instruments (keyboards, accordion, guitar, bass, marimba, xylophone, percussion), completing the music, with mastering assistance from Stubbs, that he had begun in Europe and releasing his unique amalgam of rock, European folk, avant-garde experimentation, and modern composition as the solo cassette Songs from the Hamster Theatre, which was reissued on CD by the Prolific label in 1995 (and which features a particularly evocative vocal from Kooros on one track).

Tracklist:
01. Nursery Rhyme
02. At the Pencil Factory
03. Pookypoo
04. Bean Dance
05. Litost
06. Home
07. Love Theme from Wackerhaus
08. Hamster Dance
09. The Cricetus Lilt
10. Out of Harm's Way
11. Ships of Skin
12. Ester

Total time: 37:04

Exact Audio Copy V1.0 beta 3 from 29. August 2011

EAC extraction logfile from 17. April 2012, 23:07

David Willey / Songs from the Hamster Theatre

Used drive : SONY DVD RW DRU-830A Adapter: 1 ID: 0

Read mode : Secure
Utilize accurate stream : Yes
Defeat audio cache : Yes
Make use of C2 pointers : No

Read offset correction : 6
Overread into Lead-In and Lead-Out : No
Fill up missing offset samples with silence : Yes
Delete leading and trailing silent blocks : No
Null samples used in CRC calculations : Yes
Used interface : Native Win32 interface for Win NT & 2000

Used output format : User Defined Encoder
Selected bitrate : 768 kBit/s
Quality : High
Add ID3 tag : No
Command line compressor : C:\Program Files (x86)\Exact Audio Copy\wavpack\wavpack.exe
Additional command line options : -hlm %source%


TOC of the extracted CD

Track | Start | Length | Start sector | End sector
––––––––––––––––––––––––––––-
1 | 0:00.00 | 0:32.10 | 0 | 2409
2 | 0:32.10 | 3:36.35 | 2410 | 18644
3 | 4:08.45 | 0:59.24 | 18645 | 23093
4 | 5:07.69 | 4:13.41 | 23094 | 42109
5 | 9:21.35 | 4:11.67 | 42110 | 61001
6 | 13:33.27 | 3:48.40 | 61002 | 78141
7 | 17:21.67 | 4:16.55 | 78142 | 97396
8 | 21:38.47 | 3:37.48 | 97397 | 113719
9 | 25:16.20 | 2:03.60 | 113720 | 123004
10 | 27:20.05 | 2:06.37 | 123005 | 132491
11 | 29:26.42 | 2:09.50 | 132492 | 142216
12 | 31:36.17 | 5:28.13 | 142217 | 166829


Range status and errors

Selected range

Filename D:\_NL+_by_TATUK\WV.ISO2\David Willey - Songs from the Hamster Theatre.wav

Peak level 100.0 %
Extraction speed 3.9 X
Range quality 99.9 %
Copy CRC DEE89BEC
Copy OK

No errors occurred


AccurateRip summary

Track 1 accurately ripped (confidence 1) [A547A2BD] (AR v1)
Track 2 accurately ripped (confidence 1) [F288A9D9] (AR v1)
Track 3 accurately ripped (confidence 1) [E170AB81] (AR v1)
Track 4 accurately ripped (confidence 1) [E5C6DCEB] (AR v1)
Track 5 accurately ripped (confidence 1) [A8C8A6B4] (AR v1)
Track 6 accurately ripped (confidence 1) [274C8051] (AR v1)
Track 7 accurately ripped (confidence 1) [89032641] (AR v1)
Track 8 accurately ripped (confidence 1) [2CE02C81] (AR v1)
Track 9 accurately ripped (confidence 1) [6AE1AB3E] (AR v1)
Track 10 accurately ripped (confidence 1) [3E47A18A] (AR v1)
Track 11 accurately ripped (confidence 1) [A145C213] (AR v1)
Track 12 accurately ripped (confidence 1) [82FE6F43] (AR v1)

All tracks accurately ripped

End of status report

==== Log checksum 8324FF18FE9C55527276EEB22591D5874AA7289474420D8AD52A4B22B0803DA3 ====

[CUETools log; Date: 17.05.2018 13:57:41; Version: 2.1.4]
[CTDB TOCID: ZmXRsh_a.KFMXPEt8j.3nxzP5Bw-] found.
Track | CTDB Status
1 | (3/3) Accurately ripped
2 | (3/3) Accurately ripped
3 | (3/3) Accurately ripped
4 | (3/3) Accurately ripped
5 | (3/3) Accurately ripped
6 | (3/3) Accurately ripped
7 | (3/3) Accurately ripped
8 | (3/3) Accurately ripped
9 | (3/3) Accurately ripped
10 | (3/3) Accurately ripped
11 | (3/3) Accurately ripped
12 | (3/3) Accurately ripped
[AccurateRip ID: 000f4668-009320d8-9008b00c] found.
Track [ CRC | V2 ] Status
01 [a547a2bd|e8bcd12e] (0+2/2) Accurately ripped
02 [f288a9d9|b23297fe] (0+2/2) Accurately ripped
03 [e170ab81|06a20604] (0+2/2) Accurately ripped
04 [e5c6dceb|ff3b7e1a] (0+2/2) Accurately ripped
05 [a8c8a6b4|d29a1919] (0+2/2) Accurately ripped
06 [274c8051|1b0f7db2] (0+2/2) Accurately ripped
07 [89032641|7f359284] (0+2/2) Accurately ripped
08 [2ce02c81|200ee59a] (0+2/2) Accurately ripped
09 [6ae1ab3e|6d3c9d73] (0+2/2) Accurately ripped
10 [3e47a18a|3d0ad4de] (0+2/2) Accurately ripped
11 [a145c213|709b7da8] (0+2/2) Accurately ripped
12 [82fe6f43|b2bcc03e] (0+2/2) Accurately ripped

Track Peak [ CRC32 ] [W/O NULL] [ LOG ]
– 100,0 [DEE89BEC] [30155B5B] CRC32
01 82,1 [D442164C] [F7DF06D3]
02 100,0 [B07430CD] [E4BB492F]
03 99,5 [1F557B25] [276EDA4E]
04 100,0 [731F0947] [E3D6C519]
05 94,6 [6042C624] [B96C9E81]
06 67,7 [48F48FE4] [3EE9E884]
07 100,0 [71F69428] [489217C0]
08 89,1 [041AE2AC] [9DD430B3]
09 78,0 [94A97213] [78754389]
10 100,0 [91EE0EEC] [E7ED629A]
11 80,6 [220536CF] [0B0B9AA0]
12 100,0 [7F611C90] [FD1567C3]

Thanks to tatuk