Subcategories

Deep Purple: Live Albums part 3 (1972 - 2014)

Posted By: v3122
Deep Purple: Live Albums part 3 (1972 - 2014)

Deep Purple: Live Albums part 3 (1972 - 2014)
EAC | Flac(Image) + Cue + Log & MP3 CBR 320Kbps
12CD & 7DVD | Label: Various | ~ 5667 or 2266 Mb | Scans -> 879 Mb | DVD -> 40.78 Gb
Hard Rock / Classic Rock

Deep Purple are an English rock band formed in Hertford in 1968. The band is considered to be among the pioneers of heavy metal and modern hard rock, although their musical approach changed over the years. Originally formed as a progressive rock band, the band shifted to a heavier sound in 1970. Deep Purple, together with Led Zeppelin and Black Sabbath, have been referred to as the "unholy trinity of British hard rock and heavy metal in the early to mid-seventies". They were listed in the 1975 Guinness Book of World Records as "the globe's loudest band" for a 1972 concert at London's Rainbow Theatre, and have sold over 100 million albums worldwide.

Deep Purple have had several line-up changes and an eight-year hiatus (1976–1984). The 1968–1976 line-ups are commonly labelled Mark I, II, III and IV. Their second and most commercially successful line-up consisted of Ian Gillan (vocals), Jon Lord (keyboards, backing vocals), Roger Glover (bass), Ian Paice (drums), and Ritchie Blackmore (guitar). This line-up was active from 1969 to 1973, and was revived from 1984 to 1989, and again from 1992 to 1993. The band achieved more modest success in the intervening periods between 1968 and 1969 with the line-up including Rod Evans (lead vocals) and Nick Simper (bass, backing vocals), between 1974 and 1976 (Tommy Bolin replacing Blackmore in 1975) with the line-up including David Coverdale (lead vocals) and Glenn Hughes (bass, vocals), and between 1989 and 1992 with the line-up including Joe Lynn Turner (vocals). The band's line-up (currently including Ian Gillan, and guitarist Steve Morse from 1994) has been much more stable in recent years, although keyboardist Jon Lord's retirement from the band in 2002 (being succeeded by Don Airey) left Ian Paice as the only original Deep Purple member still in the band.

Deep Purple were ranked number 22 on VH1's Greatest Artists of Hard Rock programme and a poll on British radio station Planet Rock ranked them 5th among the "most influential bands ever". The band received the Legend Award at the 2008 World Music Awards. Deep Purple (specifically Blackmore, Lord, Paice, Gillan, Glover, Evans, Coverdale and Hughes) were inducted into the Rock and Roll Hall of Fame in 2016..

~ wiki
Deep Purple - Made In Japan (1972) Repost:

Deep Purple: Live Albums part 3 (1972 - 2014)

Universal, Germany, 3769638, 2014
Tracklist CD01 - Osaka 15th August:

01. Highway Star - 7:12
02. Smoke On The Water - 7:37
03. Child In Time - 11:39
04. The Mule (Drum Solo) - 10:12
05. Strange Kind Of Woman - 8:28
06. Lazy - 10:01
07. Space Truckin - 22:27

Exact Audio Copy V1.0 beta 3 from 29. August 2011

EAC extraction logfile from 15. July 2014, 16:46

Deep Purple / Made In Japan CD1 Osaka 15th August

Used drive : ATAPI iHAS124 B Adapter: 1 ID: 0

Read mode : Secure
Utilize accurate stream : Yes
Defeat audio cache : Yes
Make use of C2 pointers : No

Read offset correction : 6
Overread into Lead-In and Lead-Out : No
Fill up missing offset samples with silence : Yes
Delete leading and trailing silent blocks : No
Null samples used in CRC calculations : Yes
Used interface : Installed external ASPI interface

Used output format : User Defined Encoder
Selected bitrate : 128 kBit/s
Quality : High
Add ID3 tag : Yes
Command line compressor : C:\Program Files (x86)\Exact Audio Copy\Flac\flac.exe
Additional command line options : -V -8 -T "Date=%year%" -T "Genre=%genre%" %source%


TOC of the extracted CD

Track | Start | Length | Start sector | End sector
––––––––––––––––––––––––––––-
1 | 0:00.00 | 7:12.09 | 0 | 32408
2 | 7:12.09 | 7:37.12 | 32409 | 66695
3 | 14:49.21 | 11:38.42 | 66696 | 119087
4 | 26:27.63 | 10:11.60 | 119088 | 164972
5 | 36:39.48 | 8:28.07 | 164973 | 203079
6 | 45:07.55 | 10:01.35 | 203080 | 248189
7 | 55:09.15 | 22:27.25 | 248190 | 349239


Range status and errors

Selected range

Filename G:\CD\Deep Purple - Made In Japan CD1.wav

Peak level 100.0 %
Extraction speed 6.7 X
Range quality 100.0 %
Test CRC 941664CB
Copy CRC 941664CB
Copy OK

No errors occurred


AccurateRip summary

Track 1 accurately ripped (confidence 8) [6836A9B8] (AR v2)
Track 2 accurately ripped (confidence 8) [5BF44A1B] (AR v2)
Track 3 accurately ripped (confidence 8) [5A2F2290] (AR v2)
Track 4 accurately ripped (confidence 8) [3F7E164A] (AR v2)
Track 5 accurately ripped (confidence 8) [187D46A6] (AR v2)
Track 6 accurately ripped (confidence 8) [DD507FAE] (AR v2)
Track 7 accurately ripped (confidence 8) [E25C859F] (AR v2)

All tracks accurately ripped

End of status report

–– CUETools DB Plugin V2.1.3

[CTDB TOCID: zEumYPhDdTRUv7sq0FSNoSOv_Uw-] found, Submit result: already submitted
[eddaa84e] (9/9) Accurately ripped


==== Log checksum F4AE1EC0BDC4CBE55DE78516C4BE36C468AD92398878C9E96F27091ABB860F45 ====


[CUETools log; Date: 08.10.2014 14:05:44; Version: 2.1.4]
[CTDB TOCID: zEumYPhDdTRUv7sq0FSNoSOv_Uw-] found.
Track | CTDB Status
1 | (12/12) Accurately ripped
2 | (12/12) Accurately ripped
3 | (12/12) Accurately ripped
4 | (12/12) Accurately ripped
5 | (12/12) Accurately ripped
6 | (12/12) Accurately ripped
7 | (12/12) Accurately ripped
[AccurateRip ID: 00120fbc-006fa18e-55123007] found.
Track [ CRC | V2 ] Status
01 [90b82358|6836a9b8] (02+16/18) Accurately ripped
02 [fae62d0e|5bf44a1b] (02+16/18) Accurately ripped
03 [fcd1f893|5a2f2290] (02+16/18) Accurately ripped
04 [698e8389|3f7e164a] (02+16/18) Accurately ripped
05 [1d2f2d9a|187d46a6] (02+16/18) Accurately ripped
06 [835d0c53|dd507fae] (02+16/18) Accurately ripped
07 [1a9f7c50|e25c859f] (02+16/18) Accurately ripped

Track Peak [ CRC32 ] [W/O NULL] [ LOG ]
– 100,0 [941664CB] [6930F7ED] CRC32
01 100,0 [8A7675B4] [1A41786D]
02 100,0 [5EDD32E7] [A049D244]
03 100,0 [98DF0E81] [95DC5DEA]
04 98,5 [3EA06C45] [75B66293]
05 100,0 [23D97FE9] [16D2B03F]
06 100,0 [5ABB2DFA] [D6799281]
07 100,0 [47F37F47] [F92B7965]


Tracklist CD02 - Osaka 16th August:

01. Highway Star - 7:28
02. Smoke on the Water - 7:29
03. Child in Time - 13:15
04. The Mule - 10:49
05. Strange Kind of Woman - 9:40
06. Lazy - 10:11
07. Space Truckin' - 20:09

Exact Audio Copy V1.0 beta 3 from 29. August 2011

EAC extraction logfile from 15. July 2014, 16:24

Deep Purple / Made In Japan CD2 Osaka 16th August

Used drive : ATAPI iHAS124 B Adapter: 1 ID: 0

Read mode : Secure
Utilize accurate stream : Yes
Defeat audio cache : Yes
Make use of C2 pointers : No

Read offset correction : 6
Overread into Lead-In and Lead-Out : No
Fill up missing offset samples with silence : Yes
Delete leading and trailing silent blocks : No
Null samples used in CRC calculations : Yes
Used interface : Installed external ASPI interface

Used output format : User Defined Encoder
Selected bitrate : 128 kBit/s
Quality : High
Add ID3 tag : Yes
Command line compressor : C:\Program Files (x86)\Exact Audio Copy\Flac\flac.exe
Additional command line options : -V -8 -T "Date=%year%" -T "Genre=%genre%" %source%


TOC of the extracted CD

Track | Start | Length | Start sector | End sector
––––––––––––––––––––––––––––-
1 | 0:00.00 | 7:28.32 | 0 | 33631
2 | 7:28.32 | 7:28.66 | 33632 | 67297
3 | 14:57.23 | 13:14.44 | 67298 | 126891
4 | 28:11.67 | 10:48.53 | 126892 | 175544
5 | 39:00.45 | 9:39.47 | 175545 | 219016
6 | 48:40.17 | 10:11.09 | 219017 | 264850
7 | 58:51.26 | 20:08.38 | 264851 | 355488


Range status and errors

Selected range

Filename G:\CD\Deep Purple - Made In Japan CD2.wav

Peak level 100.0 %
Extraction speed 6.8 X
Range quality 100.0 %
Test CRC 391C6373
Copy CRC 391C6373
Copy OK

No errors occurred


AccurateRip summary

Track 1 accurately ripped (confidence 7) [8DB1B1A3] (AR v2)
Track 2 accurately ripped (confidence 7) [A51AA7B5] (AR v2)
Track 3 accurately ripped (confidence 7) [BAF917A0] (AR v2)
Track 4 accurately ripped (confidence 7) [3D815C7D] (AR v2)
Track 5 accurately ripped (confidence 7) [21E05FB5] (AR v2)
Track 6 accurately ripped (confidence 7) [19E29C85] (AR v2)
Track 7 accurately ripped (confidence 7) [DFC071D3] (AR v2)

All tracks accurately ripped

End of status report

–– CUETools DB Plugin V2.1.3

[CTDB TOCID: E.zy9MdAGrnOU1eOJbDszTVyyd4-] found, Submit result: already submitted
[82966533] (7/8) Accurately ripped
[7faaffaa] (1/8) No match


==== Log checksum 64F72968C0804DA6227470D6B98F018CEE64F0E88A98A1742C9D5C82693F5F76 ====


[CUETools log; Date: 08.10.2014 14:05:57; Version: 2.1.4]
[CTDB TOCID: E.zy9MdAGrnOU1eOJbDszTVyyd4-] found.
Track | CTDB Status
1 | (11/11) Accurately ripped
2 | (11/11) Accurately ripped
3 | (11/11) Accurately ripped
4 | (11/11) Accurately ripped
5 | (11/11) Accurately ripped
6 | (11/11) Accurately ripped
7 | (10/11) Accurately ripped
[AccurateRip ID: 0012f664-0074faf7-60128307] found.
Track [ CRC | V2 ] Status
01 [40dd9394|8db1b1a3] (02+14/16) Accurately ripped
02 [afea60cb|a51aa7b5] (02+14/16) Accurately ripped
03 [d0d240da|baf917a0] (02+14/16) Accurately ripped
04 [4bd4655a|3d815c7d] (02+14/16) Accurately ripped
05 [086a0c42|21e05fb5] (02+14/16) Accurately ripped
06 [86cd03d3|19e29c85] (02+14/16) Accurately ripped
07 [ee8677de|dfc071d3] (02+14/16) Accurately ripped

Track Peak [ CRC32 ] [W/O NULL] [ LOG ]
– 100,0 [391C6373] [82C7175C] CRC32
01 100,0 [7C3284C9] [6B872483]
02 100,0 [F1FD6A62] [08ACFB2C]
03 100,0 [86416815] [49E3AAC5]
04 100,0 [A17FE4C5] [C485DD85]
05 100,0 [4A29A64F] [729CDC50]
06 100,0 [3F2AB023] [B645D3D0]
07 100,0 [910EE297] [EFAC8DE4]


Tracklist CD03 - Tokyo 17th August:

01. Highway Star - 8:02
02. Smoke On The Water - 7:21
03. Child In Time - 11:29
04. The Mule - 10:26
05. Strange Kind Of Woman - 11:04
06. Lazy - 10:59
07. Space Truckin' - 19:38

Exact Audio Copy V1.0 beta 3 from 29. August 2011

EAC extraction logfile from 15. July 2014, 17:50

Deep Purple / Made In Japan CD3 Tokyo 17th August

Used drive : ATAPI iHAS124 B Adapter: 1 ID: 0

Read mode : Secure
Utilize accurate stream : Yes
Defeat audio cache : Yes
Make use of C2 pointers : No

Read offset correction : 6
Overread into Lead-In and Lead-Out : No
Fill up missing offset samples with silence : Yes
Delete leading and trailing silent blocks : No
Null samples used in CRC calculations : Yes
Used interface : Installed external ASPI interface

Used output format : User Defined Encoder
Selected bitrate : 128 kBit/s
Quality : High
Add ID3 tag : Yes
Command line compressor : C:\Program Files (x86)\Exact Audio Copy\Flac\flac.exe
Additional command line options : -V -8 -T "Date=%year%" -T "Genre=%genre%" %source%


TOC of the extracted CD

Track | Start | Length | Start sector | End sector
––––––––––––––––––––––––––––-
1 | 0:00.00 | 8:01.67 | 0 | 36141
2 | 8:01.67 | 7:20.64 | 36142 | 69205
3 | 15:22.56 | 11:29.34 | 69206 | 120914
4 | 26:52.15 | 10:25.62 | 120915 | 167851
5 | 37:18.02 | 11:03.43 | 167852 | 217619
6 | 48:21.45 | 10:59.21 | 217620 | 267065
7 | 59:20.66 | 19:38.06 | 267066 | 355421


Range status and errors

Selected range

Filename G:\CD\Deep Purple - Made In Japan CD3.wav

Peak level 100.0 %
Extraction speed 6.7 X
Range quality 99.9 %
Test CRC 7FF4577F
Copy CRC 7FF4577F
Copy OK

No errors occurred


AccurateRip summary

Track 1 accurately ripped (confidence 8) [1D3D8033] (AR v2)
Track 2 accurately ripped (confidence 8) [0661C1E6] (AR v2)
Track 3 accurately ripped (confidence 8) [4F56F392] (AR v2)
Track 4 accurately ripped (confidence 8) [A083FAF8] (AR v2)
Track 5 accurately ripped (confidence 8) [64E3F905] (AR v2)
Track 6 accurately ripped (confidence 8) [95A8C52D] (AR v2)
Track 7 accurately ripped (confidence 8) [56E8052C] (AR v2)

All tracks accurately ripped

End of status report

–– CUETools DB Plugin V2.1.3

[CTDB TOCID: X1rmw9HutSQtdlYOI4bmCk2ZeY0-] found, Submit result: already submitted
[4133795b] (10/10) Accurately ripped


==== Log checksum 9AA828E41EE7C0565EE3A29A8099415C794CF596A79F790B9A7CD7DEBD3FF0B0 ====


[CUETools log; Date: 08.10.2014 14:06:09; Version: 2.1.4]
[CTDB TOCID: X1rmw9HutSQtdlYOI4bmCk2ZeY0-] found.
Track | CTDB Status
1 | (13/13) Accurately ripped
2 | (13/13) Accurately ripped
3 | (13/13) Accurately ripped
4 | (13/13) Accurately ripped
5 | (13/13) Accurately ripped
6 | (13/13) Accurately ripped
7 | (13/13) Accurately ripped
[AccurateRip ID: 0012d52f-00744b05-52128207] found.
Track [ CRC | V2 ] Status
01 [7a3bb7a0|1d3d8033] (00+15/15) Accurately ripped
02 [2d971621|0661c1e6] (00+15/15) Accurately ripped
03 [577aebdf|4f56f392] (00+15/15) Accurately ripped
04 [78ad9830|a083faf8] (00+15/15) Accurately ripped
05 [547f22e0|64e3f905] (00+15/15) Accurately ripped
06 [03ca7ca7|95a8c52d] (00+15/15) Accurately ripped
07 [d2e86a5c|56e8052c] (00+15/15) Accurately ripped

Track Peak [ CRC32 ] [W/O NULL] [ LOG ]
– 100,0 [7FF4577F] [3EB0FCE4] CRC32
01 100,0 [B7F24D5C] [4549AC32]
02 99,2 [E5BA6BE6] [CBED78B4]
03 100,0 [DCD22B51] [2C129646]
04 100,0 [0854E455] [28986BE4]
05 100,0 [5171DE89] [5EB64F26]
06 99,2 [FFC8A411] [A7CE6690]
07 100,0 [8EA0D6D5] [0B869FEA]


Tracklist CD04 - Encores From All Three Nights:

01. Black Night (Live in Osaka, Japan 15th August 1972) - 6:58
02. Speed King (Live in Osaka, Japan 15th August 1972) - 8:29
03. Black Night (Live in Osaka, Japan 16th August 1972) - 6:58
04. Lucille (Live in Osaka, Japan 16th August 1972) - 9:04
05. Black Night (Live in Tokyo, Japan 17th August 1972) - 8:02
06. Speed King (Live in Tokyo, Japan 17th August 1972) - 7:20

Exact Audio Copy V1.0 beta 3 from 29. August 2011

EAC extraction logfile from 15. July 2014, 19:36

Deep Purple / Made In Japan CD4 Encores From All Three Nights

Used drive : ATAPI iHAS124 B Adapter: 1 ID: 0

Read mode : Secure
Utilize accurate stream : Yes
Defeat audio cache : Yes
Make use of C2 pointers : No

Read offset correction : 6
Overread into Lead-In and Lead-Out : No
Fill up missing offset samples with silence : Yes
Delete leading and trailing silent blocks : No
Null samples used in CRC calculations : Yes
Used interface : Installed external ASPI interface

Used output format : User Defined Encoder
Selected bitrate : 128 kBit/s
Quality : High
Add ID3 tag : Yes
Command line compressor : C:\Program Files (x86)\Exact Audio Copy\Flac\flac.exe
Additional command line options : -V -8 -T "Date=%year%" -T "Genre=%genre%" %source%


TOC of the extracted CD

Track | Start | Length | Start sector | End sector
––––––––––––––––––––––––––––-
1 | 0:00.00 | 6:58.35 | 0 | 31384
2 | 6:58.35 | 8:28.60 | 31385 | 69544
3 | 15:27.20 | 6:58.22 | 69545 | 100916
4 | 22:25.42 | 9:03.54 | 100917 | 141695
5 | 31:29.21 | 8:01.66 | 141696 | 177836
6 | 39:31.12 | 7:19.42 | 177837 | 210803


Range status and errors

Selected range

Filename G:\CD\Deep Purple - Made In Japan CD4.wav

Peak level 100.0 %
Extraction speed 5.3 X
Range quality 99.9 %
Test CRC 004DA31F
Copy CRC 004DA31F
Copy OK

No errors occurred


AccurateRip summary

Track 1 accurately ripped (confidence 8) [83F5EE84] (AR v2)
Track 2 accurately ripped (confidence 8) [E08E31B0] (AR v2)
Track 3 accurately ripped (confidence 8) [7B77BD30] (AR v2)
Track 4 accurately ripped (confidence 8) [D406C34C] (AR v2)
Track 5 accurately ripped (confidence 8) [F49D4129] (AR v2)
Track 6 accurately ripped (confidence 8) [47E2583C] (AR v2)

All tracks accurately ripped

End of status report

–– CUETools DB Plugin V2.1.3

[CTDB TOCID: WpaDgCO14fKk5PxLnrBHHeL.lzI-] found, Submit result: already submitted
[ad6c64ba] (26/26) Accurately ripped


==== Log checksum DFDEE1912A207A8240B8D86F22D51C62E7376661CF1332F89B7A8E85B2C22C9D ====


[CUETools log; Date: 08.10.2014 14:06:17; Version: 2.1.4]
[CTDB TOCID: WpaDgCO14fKk5PxLnrBHHeL.lzI-] found.
Track | CTDB Status
1 | (37/37) Accurately ripped
2 | (37/37) Accurately ripped
3 | (37/37) Accurately ripped
4 | (37/37) Accurately ripped
5 | (37/37) Accurately ripped
6 | (37/37) Accurately ripped
[AccurateRip ID: 000b2c18-003be8bc-4d0afa06] found.
Track [ CRC | V2 ] Status
01 [cde43a03|83f5ee84] (00+15/41) Accurately ripped
02 [e80adc42|e08e31b0] (00+15/39) Accurately ripped
03 [20cd372e|7b77bd30] (00+15/40) Accurately ripped
04 [35cb83b2|d406c34c] (00+14/39) Accurately ripped
05 [e1da6ed2|f49d4129] (00+15/41) Accurately ripped
06 [ec21e6b6|47e2583c] (00+15/40) Accurately ripped
Offsetted by 12:
01 [d698798c] (00/41) No match (V2 was not tested)
02 [80cd7b80] (00/39) No match (V2 was not tested)
03 [4fdf1322] (00/40) No match (V2 was not tested)
04 [1cab7caa] (00/39) No match (V2 was not tested)
05 [f1940585] (00/41) No match (V2 was not tested)
06 [f72d15b3] (00/40) No match (V2 was not tested)

Track Peak [ CRC32 ] [W/O NULL] [ LOG ]
– 100,0 [004DA31F] [7010EE05] CRC32
01 100,0 [FEA4EFCD] [8264C6D6]
02 100,0 [6F2217EC] [076BC234]
03 100,0 [B0EAB5B2] [59F7266C]
04 100,0 [6DBD8256] [DD3ABD0A]
05 100,0 [03EDC5DB] [A8D3ADB5]
06 100,0 [2E34F09E] [BC3B1FB5]


Tracklist DVD:

01. Made In Japan - The Rise Of Deep Purple MK II Documentary
02. Smoke On The Water (Official Clip)
03. The Revolution Germany 1972 (Small Documentary Piece From Boblingen Sporthalle Stuttgart 10th February 1972)
04. Smoke On The Water (Live Clip From Hoftsra University 29th May 1973)

Title: CD01-4. 1972 - Made In Japan - DVD
Size: 5.04 Gb ( 5 285 174,00 KBytes ) - DVD-9
Enabled regions: 1, 2, 3, 4, 5, 6, 7, 8

VTS_01 :
Play Length: 00:00:18
Video: NTSC 16:9 (720x480) VBR, Auto Letterboxed
Audio:
English (LinearPCM, 2 ch)

VTS_02 :
Play Length: 00:59:06+00:07:19
Video: NTSC 16:9 (720x480) VBR, Auto Letterboxed
Audio:
English (LinearPCM, 2 ch)
English (Dolby AC3, 2 ch)
Subtitles:
English
Italiano
Francais
Deutsch
Espanol
Portugues

VTS_03 :
Play Length: 00:11:15
Video: NTSC 4:3 (720x480) VBR
Audio:
English (LinearPCM, 2 ch)
English (Dolby AC3, 2 ch)
Subtitles:
English
Italiano
Francais
Deutsch
Espanol
Portugues

VTS_04 :
Play Length: 00:06:04+00:03:29
Video: NTSC 4:3 (720x480) VBR
Audio:
English (LinearPCM, 2 ch)
English (Dolby AC3, 2 ch)
Subtitles:
English
Italiano
Francais
Deutsch
Espanol
Portugues


Deep Purple: Live Albums part 3 (1972 - 2014)

Deep Purple: Live Albums part 3 (1972 - 2014)

Deep Purple: Live Albums part 3 (1972 - 2014)

* * * * *


Deep Purple - Live At Montreux 2006 (19):

Deep Purple: Live Albums part 3 (1972 - 2014)

Salvo, SALVOSVX009, 2007
Tracklist CD:

01. Pictures Of Home - 3:57
02. Things I Never Said - 5:44
03. Strange Kind Of Woman - 5:05
04. Rapture Of The Deep - 5:16
05. Wrong Man - 4:25
06. Kiss Tomorrow Goodbye - 4:13
07. When A Blind Man Cries - 3:33
08. Lazy - 7:34
09. Keyboard Solo - 4:58
10. Space Truckin' - 4:54
11. Highway Star - 8:42
12. Smoke On The Water - 9:12

Exact Audio Copy V1.0 beta 3 from 29. August 2011

EAC extraction logfile from 25. July 2013, 21:22

Deep Purple / Live At Montreux 2006

Used drive : ATAPI iHAS124 B Adapter: 2 ID: 0

Read mode : Secure
Utilize accurate stream : Yes
Defeat audio cache : Yes
Make use of C2 pointers : No

Read offset correction : 6
Overread into Lead-In and Lead-Out : No
Fill up missing offset samples with silence : Yes
Delete leading and trailing silent blocks : No
Null samples used in CRC calculations : Yes
Used interface : Native Win32 interface for Win NT & 2000

Used output format : User Defined Encoder
Selected bitrate : 1024 kBit/s
Quality : High
Add ID3 tag : No
Command line compressor : C:\Program Files (x86)\Exact Audio Copy\FLAC\FLAC.EXE
Additional command line options : -8 -V -T "ARTIST=%artist%" -T "TITLE=%title%" -T "ALBUM=%albumtitle%" -T "DATE=%year%" -T "TRACKNUMBER=%tracknr%" -T "GENRE=%genre%" -T "PERFORMER=%albuminterpret%" -T "COMPOSER=%composer%" %haslyrics%–tag-from-file=LYRICS="%lyricsfile%"%haslyrics% -T "ALBUMARTIST=%albumartist%" -T "DISCNUMBER=%cdnumber%" -T "TOTALDISCS=%totalcds%" -T "TOTALTRACKS=%numtracks%" -T "COMMENT=%comment%" %source% -o %dest%


TOC of the extracted CD

Track | Start | Length | Start sector | End sector
––––––––––––––––––––––––––––-
1 | 0:00.00 | 3:56.63 | 0 | 17762
2 | 3:56.63 | 5:43.71 | 17763 | 43558
3 | 9:40.59 | 5:05.12 | 43559 | 66445
4 | 14:45.71 | 5:16.05 | 66446 | 90150
5 | 20:02.01 | 4:25.20 | 90151 | 110045
6 | 24:27.21 | 4:12.65 | 110046 | 129010
7 | 28:40.11 | 3:32.56 | 129011 | 144966
8 | 32:12.67 | 7:33.70 | 144967 | 179011
9 | 39:46.62 | 4:57.53 | 179012 | 201339
10 | 44:44.40 | 4:54.16 | 201340 | 223405
11 | 49:38.56 | 8:42.22 | 223406 | 262577
12 | 58:21.03 | 9:11.39 | 262578 | 303941


Range status and errors

Selected range

Filename G:\CD\Deep Purple - Live At Montreux 2006.wav

Peak level 99.4 %
Extraction speed 6.3 X
Range quality 100.0 %
Test CRC 697DE48C
Copy CRC 697DE48C
Copy OK

No errors occurred


AccurateRip summary

Track 1 accurately ripped (confidence 2) [B05119F8] (AR v2)
Track 2 accurately ripped (confidence 2) [E8A2142A] (AR v2)
Track 3 accurately ripped (confidence 2) [38F7B3F6] (AR v2)
Track 4 accurately ripped (confidence 2) [89B7B9ED] (AR v2)
Track 5 accurately ripped (confidence 2) [685D34BA] (AR v2)
Track 6 accurately ripped (confidence 2) [C828F351] (AR v2)
Track 7 accurately ripped (confidence 2) [985E8412] (AR v2)
Track 8 accurately ripped (confidence 2) [1C5E8012] (AR v2)
Track 9 accurately ripped (confidence 2) [019E8F28] (AR v2)
Track 10 accurately ripped (confidence 2) [E90F3FE2] (AR v2)
Track 11 accurately ripped (confidence 2) [4160BE65] (AR v2)
Track 12 accurately ripped (confidence 2) [03FBF44C] (AR v2)

All tracks accurately ripped

End of status report

==== Log checksum 3F9C620A18E0010FDAB6B96F3C8EB3F8F7E652F911B9B020C2B7DF9CD1CE934A ====


[CUETools log; Date: 01.09.2013 11:30:54; Version: 2.1.4]
[CTDB TOCID: 3jRo6ijqBWPcK6JL1DrSys6ybrI-] found.
Track | CTDB Status
1 | (1/7) Accurately ripped
2 | (1/7) Accurately ripped
3 | (1/7) Accurately ripped
4 | (1/7) Accurately ripped
5 | (1/7) Accurately ripped
6 | (1/7) Accurately ripped
7 | (1/7) Accurately ripped
8 | (1/7) Accurately ripped
9 | (1/7) Accurately ripped
10 | (1/7) Accurately ripped
11 | (1/7) Accurately ripped
12 | (1/7) Accurately ripped
[AccurateRip ID: 001b0abd-010031e4-b60fd40c] found.
Track [ CRC | V2 ] Status
01 [6f183fe8|b05119f8] (00+03/22) Accurately ripped
02 [70cd4068|e8a2142a] (00+03/21) Accurately ripped
03 [d0f0af95|38f7b3f6] (00+03/21) Accurately ripped
04 [eb2b24be|89b7b9ed] (00+03/21) Accurately ripped
05 [3bace447|685d34ba] (00+03/21) Accurately ripped
06 [6a483d8d|c828f351] (00+03/21) Accurately ripped
07 [b24896fd|985e8412] (00+03/21) Accurately ripped
08 [20fa40b3|1c5e8012] (00+03/21) Accurately ripped
09 [5b32f50f|019e8f28] (00+03/21) Accurately ripped
10 [9ee9213a|e90f3fe2] (00+03/21) Accurately ripped
11 [1018fea9|4160be65] (00+03/21) Accurately ripped
12 [43784e88|03fbf44c] (00+03/21) Accurately ripped

Track Peak [ CRC32 ] [W/O NULL] [ LOG ]
– 99,4 [697DE48C] [83E151F1] CRC32
01 99,4 [A28A54D0] [DA183514]
02 98,8 [34D46CE6] [E350FA78]
03 99,4 [78101531] [15F69C62]
04 99,4 [B2DB2263] [9A27C54F]
05 99,4 [1B78E417] [62EAAEC2]
06 99,4 [5A41B93A] [C589D1A4]
07 99,4 [DF5DF90E] [AFD936BA]
08 99,1 [31F4D03F] [D56D2675]
09 91,8 [5A4E42DB] [0FBE565D]
10 99,4 [219B101E] [D65E7861]
11 99,4 [33E41B8D] [DD34093F]
12 99,4 [753370A0] [8A1A6621]


Tracklist DVD1 - Live at Montreux:

1. Pictures Of Home
2. Things I Never Said
3. Strange Kind Of Woman
4. Rapture Of The Deep
5. Wrong Man
6. The Well-Dressed Guitar
7. Kiss Tomorrow Goodbye
8. When A Blind Man Cries
9. Lazy
10. Keyboard Solo
11. Space Truckin'
12. Highway Star
13. Smoke On The Water
14. Hush
15. Too Much Fun
16. Black Night

Title: DP 2007 - Live At Montreux 2006 - dvd1
Size: 7.68 Gb ( 8 048 730,00 KBytes ) - DVD-9
Enabled regions: 1, 2, 3, 4, 5, 6, 7, 8

VTS_01 :
Play Length: 01:43:06+00:00:00
Video: PAL 16:9 (720x576) VBR, Auto Letterboxed
Audio:
English (Dolby AC3, 2 ch)
English (Dolby AC3, 6 ch)
English (DTS, 6 ch)

VTS_02 :
Play Length: 00:00:24
Video: PAL 16:9 (720x576) VBR, Auto Letterboxed
Audio:
Not specified (Dolby AC3, 6 ch)

VTS_03 :
Play Length: 00:24:51
Video: PAL 16:9 (720x576) VBR, Auto Letterboxed
Audio:
English (LinearPCM, 2 ch)

Tracklist DVD2 - Live at the Hard Rock Cafe London:

01. Fireball
02. I Got Your Number
03. Strange Kind Of Woman
04. Kiss Tomorrow Goodbye
05. Lazy
06. Rapture Of The Deep
07. Wrong Man
08. Perfect Strangers
09. Highway Star
10. Smoke On The Water

Title: DP 2007 - Live At Montreux 2006 - dvd2
Size: 3.91 Gb ( 4 103 118,00 KBytes ) - DVD-5
Enabled regions: 1, 2, 3, 4, 5, 6, 7, 8

VTS_01 :
Play Length: 00:59:08+00:00:00
Video: PAL 16:9 (720x576) VBR, Auto Letterboxed
Audio:
English (Dolby AC3, 2 ch)
English (Dolby AC3, 6 ch)
English (DTS, 6 ch)

VTS_02 :
Play Length: 00:00:24
Video: PAL 16:9 (720x576) VBR, Auto Letterboxed
Audio:
Not specified (Dolby AC3, 6 ch)

Deep Purple: Live Albums part 3 (1972 - 2014)

Deep Purple: Live Albums part 3 (1972 - 2014)

Deep Purple: Live Albums part 3 (1972 - 2014)

Deep Purple: Live Albums part 3 (1972 - 2014)

* * * * *


Deep Purple - Phoenix Rising (2011):

Deep Purple: Live Albums part 3 (1972 - 2014)

Edel, 0206601ERE
Tracklist CD:

01. Burn (Longbeach) - 8:09
02. Gettin' Tighter (Japan) - 15:05
03. Love Child (Japan) - 4:24
04. Smoke On The Water (Japan) / Georgia On My Mind (Japan) - 9:30
05. Lazy (Longbeach) - 11:50
06. Homeward Strut (Longbeach) - 5:44
07. You Keep On Moving (Japan) - 5:45
08. Stormbringer (Longbeach) - 9:47

Exact Audio Copy V1.0 beta 3 from 29. August 2011

EAC extraction logfile from 9. July 2013, 20:29

Deep Purple / Phoenix Rising

Used drive : ATAPI iHAS124 B Adapter: 2 ID: 0

Read mode : Secure
Utilize accurate stream : Yes
Defeat audio cache : Yes
Make use of C2 pointers : No

Read offset correction : 6
Overread into Lead-In and Lead-Out : No
Fill up missing offset samples with silence : Yes
Delete leading and trailing silent blocks : No
Null samples used in CRC calculations : Yes
Used interface : Native Win32 interface for Win NT & 2000

Used output format : User Defined Encoder
Selected bitrate : 1024 kBit/s
Quality : High
Add ID3 tag : No
Command line compressor : C:\Program Files (x86)\Exact Audio Copy\FLAC\FLAC.EXE
Additional command line options : -8 -V -T "ARTIST=%artist%" -T "TITLE=%title%" -T "ALBUM=%albumtitle%" -T "DATE=%year%" -T "TRACKNUMBER=%tracknr%" -T "GENRE=%genre%" -T "PERFORMER=%albuminterpret%" -T "COMPOSER=%composer%" %haslyrics%–tag-from-file=LYRICS="%lyricsfile%"%haslyrics% -T "ALBUMARTIST=%albumartist%" -T "DISCNUMBER=%cdnumber%" -T "TOTALDISCS=%totalcds%" -T "TOTALTRACKS=%numtracks%" -T "COMMENT=%comment%" %source% -o %dest%


TOC of the extracted CD

Track | Start | Length | Start sector | End sector
––––––––––––––––––––––––––––-
1 | 0:00.00 | 8:09.06 | 0 | 36680
2 | 8:09.06 | 15:04.48 | 36681 | 104528
3 | 23:13.54 | 4:23.41 | 104529 | 124294
4 | 27:37.20 | 9:29.43 | 124295 | 167012
5 | 37:06.63 | 11:49.70 | 167013 | 220257
6 | 48:56.58 | 5:44.32 | 220258 | 246089
7 | 54:41.15 | 5:44.44 | 246090 | 271933
8 | 60:25.59 | 9:47.36 | 271934 | 315994


Range status and errors

Selected range

Filename G:\CD\Deep Purple - Phoenix Rising.wav

Peak level 100.0 %
Extraction speed 6.6 X
Range quality 100.0 %
Test CRC D73A475E
Copy CRC D73A475E
Copy OK

No errors occurred


AccurateRip summary

Track 1 accurately ripped (confidence 8) [22704595] (AR v2)
Track 2 accurately ripped (confidence 7) [AFED53EE] (AR v2)
Track 3 accurately ripped (confidence 7) [9FE1E3F2] (AR v2)
Track 4 accurately ripped (confidence 7) [3DC80D1B] (AR v2)
Track 5 accurately ripped (confidence 7) [165D1372] (AR v2)
Track 6 accurately ripped (confidence 7) [19702E69] (AR v2)
Track 7 accurately ripped (confidence 7) [919E27BF] (AR v2)
Track 8 accurately ripped (confidence 7) [931DD890] (AR v2)

All tracks accurately ripped

End of status report

==== Log checksum 4E156EC1631B4D4E5F6A66D47517E3CC59A82E81498417DF10EB3782B497949B ====


[CUETools log; Date: 01.09.2013 11:20:46; Version: 2.1.4]
[CTDB TOCID: 2rRlNfjIPxa8Qd0RRnS7kO5Vpgo-] found.
Track | CTDB Status
1 | (18/18) Accurately ripped
2 | (18/18) Accurately ripped
3 | (18/18) Accurately ripped
4 | (18/18) Accurately ripped
5 | (18/18) Accurately ripped
6 | (18/18) Accurately ripped
7 | (18/18) Accurately ripped
8 | (18/18) Accurately ripped
[AccurateRip ID: 0016afcb-00954610-7d107508] found.
Track [ CRC | V2 ] Status
01 [c7ddd4a3|22704595] (07+27/36) Accurately ripped
02 [73b0ae99|afed53ee] (07+25/34) Accurately ripped
03 [539df077|9fe1e3f2] (07+25/34) Accurately ripped
04 [bc33616a|3dc80d1b] (07+25/34) Accurately ripped
05 [a84a27f2|165d1372] (07+25/34) Accurately ripped
06 [56d8b12a|19702e69] (07+25/34) Accurately ripped
07 [6065772f|919e27bf] (07+25/34) Accurately ripped
08 [7ae36f78|931dd890] (07+25/34) Accurately ripped
Offsetted by -664:
01 [da87088a] (00/36) No match (V2 was not tested)
02 [01761a91] (00/34) No match (V2 was not tested)
03 [cb6d221d] (00/34) No match (V2 was not tested)
04 [b2bd9d4e] (00/34) No match (V2 was not tested)
05 [77d1b3ea] (00/34) No match (V2 was not tested)
06 [e6a4aaeb] (00/34) No match (V2 was not tested)
07 [3d107064] (00/34) No match (V2 was not tested)
08 [8b51fe33] (00/34) No match (V2 was not tested)

Track Peak [ CRC32 ] [W/O NULL] [ LOG ]
– 100,0 [D73A475E] [149427F8] CRC32
01 99,8 [A451E7BC] [1DB46329]
02 100,0 [4CCF7808] [29AFEB77]
03 100,0 [28BE243F] [15AC19C7]
04 100,0 [4E5401BC] [7B9B4DB8]
05 99,8 [5301EB80] [1EEE7219]
06 99,8 [B0082F6A] [5EF298FE]
07 100,0 [C3C142F9] [684FC9DD]
08 100,0 [F4B17F46] [A49ADF30]


Tracklist DVD:

Rises Over Japan Concert:
1. Burn
2. Love Child
3. Smoke On The Water
4. You Keep On Moving
5. Highway Star

Gettin' Tighter Documentary:
1. Introduction
2. The Demise Of Deep Purple MK II
3. The Birth Of MK III
4. The Making Of Burn
5. The California Jam 1974
6. Stormbringer
7. Sunbury Music Festival 1975
8. Glenn Hughes Troubled Times
9. Drugs Become An Issue
10. Ritchie Blackmore Leaves The Band
11. Tommy Bolin
12. Come Taste The Band
13. Drugs Become A Problem
14. Glenn Hughes In Rehabilitation
15. Mk IV On Tour
16. Indonesian Nightmare
17. Rising Over Japan
18. The Final MK IV shows
19. Credits

Title: Deep Purple - 2011 - Phoenix Rising - DVD
Size: 5.27 Gb ( 5 524 184,00 KBytes ) - DVD-9
Enabled regions: 1, 2, 3, 4, 5, 6, 7, 8

VTS_01 :
Play Length: 00:00:21
Video: PAL 16:9 (720x576) VBR, Auto Letterboxed
Audio:
Deutsch (Dolby AC3, 2 ch)

VTS_02 :
Play Length: 00:01:28+00:00:00+00:00:00+00:00:00+00:00:00+00:00:00
Video: PAL 16:9 (720x576) VBR, Auto Letterboxed
Audio:
Not specified (Dolby AC3, 2 ch)
Subtitles:
Not specified

VTS_03 :
Play Length: 01:21:37
Video: PAL 16:9 (720x576) VBR, Auto Letterboxed
Audio:
English (Dolby AC3, 2 ch)
Subtitles:
English
Francais
Deutsch
Espanol

VTS_04 :
Play Length: 00:06:46
Video: PAL 4:3 (720x576) VBR
Audio:
English (Dolby AC3, 2 ch)

VTS_05 :
Play Length: 00:18:36
Video: PAL 16:9 (720x576) VBR, Auto Letterboxed
Audio:
English (Dolby AC3, 2 ch)

VTS_06 :
Play Length: 00:29:50
Video: PAL 4:3 (720x576) VBR
Audio:
English (Dolby AC3, 6 ch)
English (Dolby AC3, 2 ch)

Deep Purple: Live Albums part 3 (1972 - 2014)

Deep Purple: Live Albums part 3 (1972 - 2014)

Deep Purple: Live Albums part 3 (1972 - 2014)

* * * * *

Deep Purple - Perfect Strangers Live (1984):

Deep Purple: Live Albums part 3 (1972 - 2014)

Eagle Vision, EAGDV026, 2013
Tracklist CD1:

01. Highway Star
02. Nobodys Home
03. Strange Kind Of Woman
04. A Gypsys Kiss
05. Perfect Strangers
06. Under The Gun
07. Knocking At Your Back Door
08. Lazy

Exact Audio Copy V1.0 beta 3 from 29. August 2011

EAC extraction logfile from 11. April 2014, 19:37

Deep Purple / Perfect Strangers Live CD1

Used drive : ATAPI iHAS124 B Adapter: 1 ID: 0

Read mode : Secure
Utilize accurate stream : Yes
Defeat audio cache : Yes
Make use of C2 pointers : No

Read offset correction : 6
Overread into Lead-In and Lead-Out : No
Fill up missing offset samples with silence : Yes
Delete leading and trailing silent blocks : No
Null samples used in CRC calculations : Yes
Used interface : Installed external ASPI interface

Used output format : User Defined Encoder
Selected bitrate : 128 kBit/s
Quality : High
Add ID3 tag : Yes
Command line compressor : C:\Program Files (x86)\Exact Audio Copy\Flac\flac.exe
Additional command line options : -V -8 %source%


TOC of the extracted CD

Track | Start | Length | Start sector | End sector
––––––––––––––––––––––––––––-
1 | 0:00.00 | 6:33.22 | 0 | 29496
2 | 6:33.22 | 4:23.53 | 29497 | 49274
3 | 10:57.00 | 8:17.11 | 49275 | 86560
4 | 19:14.11 | 5:57.32 | 86561 | 113367
5 | 25:11.43 | 6:09.35 | 113368 | 141077
6 | 31:21.03 | 5:57.63 | 141078 | 167915
7 | 37:18.66 | 8:12.54 | 167916 | 204869
8 | 45:31.45 | 7:45.09 | 204870 | 239753


Range status and errors

Selected range

Filename G:\CD\Deep Purple - Perfect Strangers Live CD1.wav

Peak level 99.5 %
Extraction speed 8.5 X
Range quality 100.0 %
Test CRC 0E582F3C
Copy CRC 0E582F3C
Copy OK

No errors occurred


AccurateRip summary

Track 1 accurately ripped (confidence 28) [8BA07BC1] (AR v2)
Track 2 accurately ripped (confidence 28) [8B44AF9C] (AR v2)
Track 3 accurately ripped (confidence 28) [EEE3C679] (AR v2)
Track 4 accurately ripped (confidence 28) [34F36DF4] (AR v2)
Track 5 accurately ripped (confidence 28) [0E0B1618] (AR v2)
Track 6 accurately ripped (confidence 28) [D22A2BBE] (AR v2)
Track 7 accurately ripped (confidence 28) [790AD806] (AR v2)
Track 8 accurately ripped (confidence 28) [1A5B22B0] (AR v2)

All tracks accurately ripped

End of status report

–– CUETools DB Plugin V2.1.3

[CTDB TOCID: .hl.iAdOa_HOKbwLsIos.hNtdnc-] found, Submit result: .hl.iAdOa_HOKbwLsIos.hNtdnc- has been confirmed
[91d17e40] (04/29) No match
[d18304ba] (23/29) Accurately ripped
[775d6a6f] (01/29) No match
[c4a4f445] (01/29) No match


==== Log checksum 8CED68AAFC5914468A7DBAD4A437E4A18CE2E5D83C8611128091977F79B9F8AE ====


[CUETools log; Date: 11.04.2014 19:43:37; Version: 2.1.4]
[CTDB TOCID: .hl.iAdOa_HOKbwLsIos.hNtdnc-] found.
Track | CTDB Status
1 | (24/30) Accurately ripped
2 | (24/30) Accurately ripped
3 | (24/30) Accurately ripped
4 | (24/30) Accurately ripped
5 | (24/30) Accurately ripped
6 | (24/30) Accurately ripped
7 | (24/30) Accurately ripped
8 | (24/30) Accurately ripped
[AccurateRip ID: 000fc07f-0069dfa2-690c7c08] found.
Track [ CRC | V2 ] Status
01 [dd9ce4a9|8ba07bc1] (04+28/35) Accurately ripped
02 [d0ae678f|8b44af9c] (04+28/35) Accurately ripped
03 [6df9b46f|eee3c679] (04+28/35) Accurately ripped
04 [97034809|34f36df4] (04+28/35) Accurately ripped
05 [86f409fc|0e0b1618] (04+28/35) Accurately ripped
06 [4f8576eb|d22a2bbe] (04+28/35) Accurately ripped
07 [ea04a2f5|790ad806] (04+28/35) Accurately ripped
08 [6f8b24d7|1a5b22b0] (04+28/35) Accurately ripped

Track Peak [ CRC32 ] [W/O NULL] [ LOG ]
– 99,5 [0E582F3C] [043B85D4] CRC32
01 98,9 [E9C39C40] [BE2019DC]
02 98,9 [6449849E] [CED94DF1]
03 98,7 [8A1542A2] [1C9C512D]
04 98,8 [F081B9A0] [7BE90F3E]
05 97,1 [0A3AB6F3] [1E33BEBB]
06 99,4 [7588A794] [3ECAF4C8]
07 97,8 [A0CEF45A] [A8FB5E3E]
08 99,5 [DA15DD9D] [B9A777A4]


Tracklist CD2:

01. Child In Time
02. Difficult To Cure
03. Keyboard Solo
04. Space Truckin
05. Black Night
06. Speed King
07. Smoke On The Water

Exact Audio Copy V1.0 beta 3 from 29. August 2011

EAC extraction logfile from 11. April 2014, 19:37

Deep Purple / Perfect Strangers Live CD2

Used drive : Optiarc BD RW BD-5300S Adapter: 0 ID: 0

Read mode : Secure
Utilize accurate stream : Yes
Defeat audio cache : Yes
Make use of C2 pointers : No

Read offset correction : 6
Overread into Lead-In and Lead-Out : No
Fill up missing offset samples with silence : Yes
Delete leading and trailing silent blocks : No
Null samples used in CRC calculations : Yes
Used interface : Installed external ASPI interface

Used output format : User Defined Encoder
Selected bitrate : 128 kBit/s
Quality : High
Add ID3 tag : Yes
Command line compressor : C:\Program Files (x86)\Exact Audio Copy\Flac\flac.exe
Additional command line options : -V -8 %source%


TOC of the extracted CD

Track | Start | Length | Start sector | End sector
––––––––––––––––––––––––––––-
1 | 0:00.00 | 12:56.24 | 0 | 58223
2 | 12:56.24 | 4:30.16 | 58224 | 78489
3 | 17:26.40 | 6:01.29 | 78490 | 105593
4 | 23:27.69 | 15:05.41 | 105594 | 173509
5 | 38:33.35 | 4:22.73 | 173510 | 193232
6 | 42:56.33 | 7:10.56 | 193233 | 225538
7 | 50:07.14 | 12:33.44 | 225539 | 282057


Range status and errors

Selected range

Filename G:\CD\Deep Purple - Perfect Strangers Live CD2.wav

Peak level 100.0 %
Extraction speed 9.0 X
Range quality 100.0 %
Test CRC C5C991FB
Copy CRC C5C991FB
Copy OK

No errors occurred


AccurateRip summary

Track 1 accurately ripped (confidence 28) [AB1B9A81] (AR v2)
Track 2 accurately ripped (confidence 28) [737A0F4B] (AR v2)
Track 3 accurately ripped (confidence 28) [1193C1DB] (AR v2)
Track 4 accurately ripped (confidence 28) [F813B60F] (AR v2)
Track 5 accurately ripped (confidence 28) [ECD0B9F4] (AR v2)
Track 6 accurately ripped (confidence 28) [9696300B] (AR v2)
Track 7 accurately ripped (confidence 28) [8310B339] (AR v2)

All tracks accurately ripped

End of status report

–– CUETools DB Plugin V2.1.3

[CTDB TOCID: 2hhemEIC6sw8iqqwwoHbMPJ1hHE-] found, Submit result: 2hhemEIC6sw8iqqwwoHbMPJ1hHE- has been confirmed
[1179b041] (27/28) Accurately ripped
[f2d8a549] (01/28) No match


==== Log checksum 61A1C5F9AAFAB722A728C62DE09C3705A2E40F309302DBE405FF1C6E4386BBCE ====


[CUETools log; Date: 11.04.2014 19:43:45; Version: 2.1.4]
[CTDB TOCID: 2hhemEIC6sw8iqqwwoHbMPJ1hHE-] found.
Track | CTDB Status
1 | (28/29) Accurately ripped
2 | (28/29) Accurately ripped
3 | (28/29) Accurately ripped
4 | (28/29) Accurately ripped
5 | (28/29) Accurately ripped
6 | (28/29) Accurately ripped
7 | (28/29) Accurately ripped
[AccurateRip ID: 001109e8-006543c0-600eb007] found.
Track [ CRC | V2 ] Status
01 [5159e71b|ab1b9a81] (03+28/31) Accurately ripped
02 [ee0ef798|737a0f4b] (03+28/31) Accurately ripped
03 [98f87977|1193c1db] (03+28/31) Accurately ripped
04 [2b7a60a5|f813b60f] (03+28/31) Accurately ripped
05 [edf39736|ecd0b9f4] (03+28/31) Accurately ripped
06 [c4e0f391|9696300b] (03+28/31) Accurately ripped
07 [5132f0fb|8310b339] (03+28/31) Accurately ripped

Track Peak [ CRC32 ] [W/O NULL] [ LOG ]
– 100,0 [C5C991FB] [BB2064A8] CRC32
01 100,0 [ADF21866] [39432A0F]
02 98,8 [5880A3C7] [A8AEF0CF]
03 95,9 [2D0E99B5] [90A73362]
04 100,0 [BA5E8908] [21DB228B]
05 98,9 [C87282DC] [D21C7062]
06 96,6 [9F6EE127] [E5BBA51F]
07 98,3 [58C80A95] [09A2177D]


Tracklist DVD:

01. Highway Star
02. Nobody’s Home
03. Strange Kind Of Woman
04. A Gypsy’s Kiss
05. Perfect Strangers
06. Under The Gun
07. Knocking At Your Back Door
08. Lazy (including Ian Paice drum solo)
09. Child In Time
10. Difficult To Cure
11. Jon Lord Keyboard Solo
12. Space Truckin' (with Ritchie Blackmore guitar solo)
13. Black Night
14. Speed King
15. Smoke On The Water

Bonus feature: Tour documentary.

Title: Perfect Strangers
Size: 7.30 Gb ( 7 659 278,00 KBytes ) - DVD-9
Enabled regions: 1, 2, 3, 4, 5, 6, 7, 8

VTS_01 :
Play Length: 01:58:24+00:00:00
Video: NTSC 4:3 (720x480) VBR
Audio:
English (Dolby AC3, 2 ch)
English (Dolby AC3, 6 ch)
English (DTS, 6 ch)

VTS_02 :
Play Length: 00:23:16
Video: NTSC 16:9 (720x480) VBR, Auto Letterboxed
Audio:
English (Dolby AC3, 2 ch)
Subtitles:
English
Deutsch
Espanol
Francais
Italiano
Nederlands
Portugues

VTS_03 :
Play Length: 00:00:18+00:00:10+00:00:09
Video: NTSC 16:9 (720x480) VBR, Auto Letterboxed
Audio:
English (Dolby AC3, 6 ch)

Deep Purple: Live Albums part 3 (1972 - 2014)

Deep Purple: Live Albums part 3 (1972 - 2014)

Deep Purple: Live Albums part 3 (1972 - 2014)

* * * * *


Deep Purple - Live In Stockholm 1970 (2014):

Deep Purple: Live Albums part 3 (1972 - 2014)

Edel, 0208677ERE
Tracklist CD1:

01. Speed King - 12:31
02. Into The Fire - 5:01
03. Child In Time - 19:00
04. Wring That Neck - 32:05
05. Paint It, Black - 10:44

Exact Audio Copy V1.0 beta 3 from 29. August 2011

EAC extraction logfile from 10. April 2014, 22:31

Deep Purple / Live In Stockholm 1970 CD1

Used drive : ATAPI iHAS124 B Adapter: 1 ID: 0

Read mode : Secure
Utilize accurate stream : Yes
Defeat audio cache : Yes
Make use of C2 pointers : No

Read offset correction : 6
Overread into Lead-In and Lead-Out : No
Fill up missing offset samples with silence : Yes
Delete leading and trailing silent blocks : No
Null samples used in CRC calculations : Yes
Used interface : Installed external ASPI interface

Used output format : User Defined Encoder
Selected bitrate : 128 kBit/s
Quality : High
Add ID3 tag : Yes
Command line compressor : C:\Program Files (x86)\Exact Audio Copy\Flac\flac.exe
Additional command line options : -V -8 %source%


TOC of the extracted CD

Track | Start | Length | Start sector | End sector
––––––––––––––––––––––––––––-
1 | 0:00.00 | 12:30.68 | 0 | 56317
2 | 12:30.68 | 5:00.64 | 56318 | 78881
3 | 17:31.57 | 19:00.08 | 78882 | 164389
4 | 36:31.65 | 32:04.62 | 164390 | 308751
5 | 68:36.52 | 10:44.32 | 308752 | 357083


Range status and errors

Selected range

Filename G:\CD\Deep Purple - Live In Stockholm 1970 CD1.wav

Peak level 99.8 %
Extraction speed 9.8 X
Range quality 100.0 %
Test CRC 6AD5B1EB
Copy CRC 6AD5B1EB
Copy OK

No errors occurred


AccurateRip summary

Track 1 accurately ripped (confidence 1) [7FC119B9] (AR v2)
Track 2 accurately ripped (confidence 1) [C610E090] (AR v2)
Track 3 accurately ripped (confidence 1) [D71371B0] (AR v2)
Track 4 accurately ripped (confidence 1) [A61EAE0C] (AR v2)
Track 5 accurately ripped (confidence 1) [4B9389FC] (AR v2)

All tracks accurately ripped

End of status report

–– CUETools DB Plugin V2.1.3

[CTDB TOCID: LwbfmzjzroBHcZBDsZg7OUXgmb0-] found, Submit result: already submitted
[854a118c] (1/2) Differs in 167 samples @00:31:22,00:51:44,01:17:11,01:21:23,03:27:34,04:06:67,04:27:16,04:29:18,04:32:42,04:51:45,05:36:13,08:38:25,11:28:37,11:31:48,16:04:20,17:31:40,17:58:03
[b4cd2dd2] (1/2) Accurately ripped
You can use CUETools to repair this rip.


==== Log checksum EFE437279A53832BB6172A2EF18437089F04DA19C9A1BC6D5C9EE9F76AE1E710 ====


[CUETools log; Date: 10.04.2014 22:35:00; Version: 2.1.4]
[CTDB TOCID: LwbfmzjzroBHcZBDsZg7OUXgmb0-] found.
Track | CTDB Status
1 | (1/2) Accurately ripped, or (1/2) differs in 139 samples @00:31:22,00:51:44,01:17:11,01:21:23,03:27:34,04:06:67,04:27:16,04:29:18,04:32:42,04:51:45,05:36:13,08:38:25,11:28:37,11:31:48
2 | (1/2) Accurately ripped, or (1/2) differs in 20 samples @03:33:27,05:00:47
3 | (1/2) Accurately ripped, or (1/2) differs in 8 samples @00:26:21
4 | (2/2) Accurately ripped
5 | (2/2) Accurately ripped
[AccurateRip ID: 000ebb32-00479c73-36129905] found.
Track [ CRC | V2 ] Status
01 [30c8fe59|7fc119b9] (0+1/1) Accurately ripped
02 [59e252c3|c610e090] (0+1/1) Accurately ripped
03 [ffb6fee7|d71371b0] (0+1/1) Accurately ripped
04 [a2451eb1|a61eae0c] (0+1/1) Accurately ripped
05 [19df5d09|4b9389fc] (0+1/1) Accurately ripped

Track Peak [ CRC32 ] [W/O NULL] [ LOG ]
– 99,8 [6AD5B1EB] [40E4431B] CRC32
01 99,8 [AF8A3281] [A6E37C9A]
02 99,8 [40CD8D2D] [872D00CB]
03 99,8 [A634A442] [6F45082F]
04 99,8 [9F7B10D1] [38832FA5]
05 99,8 [D7CDF01E] [27A43767]


Tracklist CD2:

01. Mandrake Root - 30:37
02. Black Night - 7:21
03. Wring That Neck (Live Paris 1970) - 11:03
04. Madrake Root (Live Paris 1970) - 14:46
05. 1971 Jon Lord Interview - 10:47

Exact Audio Copy V1.0 beta 3 from 29. August 2011

EAC extraction logfile from 10. April 2014, 22:30

Deep Purple / Live In Stockholm 1970 CD2

Used drive : Optiarc BD RW BD-5300S Adapter: 0 ID: 0

Read mode : Secure
Utilize accurate stream : Yes
Defeat audio cache : Yes
Make use of C2 pointers : No

Read offset correction : 6
Overread into Lead-In and Lead-Out : No
Fill up missing offset samples with silence : Yes
Delete leading and trailing silent blocks : No
Null samples used in CRC calculations : Yes
Used interface : Installed external ASPI interface

Used output format : User Defined Encoder
Selected bitrate : 128 kBit/s
Quality : High
Add ID3 tag : Yes
Command line compressor : C:\Program Files (x86)\Exact Audio Copy\Flac\flac.exe
Additional command line options : -V -8 %source%


TOC of the extracted CD

Track | Start | Length | Start sector | End sector
––––––––––––––––––––––––––––-
1 | 0:00.00 | 30:37.00 | 0 | 137774
2 | 30:37.00 | 7:20.57 | 137775 | 170831
3 | 37:57.57 | 11:02.60 | 170832 | 220541
4 | 49:00.42 | 14:46.09 | 220542 | 287000
5 | 63:46.51 | 10:46.62 | 287001 | 335512


Range status and errors

Selected range

Filename G:\CD\Deep Purple - Live In Stockholm 1970 CD2.wav

Peak level 100.0 %
Extraction speed 9.6 X
Range quality 100.0 %
Test CRC C84B6ED2
Copy CRC C84B6ED2
Copy OK

No errors occurred


AccurateRip summary

Track 1 accurately ripped (confidence 1) [0CD8F6F1] (AR v2)
Track 2 accurately ripped (confidence 1) [B085E8A7] (AR v2)
Track 3 accurately ripped (confidence 1) [6AEB58A5] (AR v2)
Track 4 accurately ripped (confidence 1) [20C01514] (AR v2)
Track 5 accurately ripped (confidence 1) [65891119] (AR v2)

All tracks accurately ripped

End of status report

–– CUETools DB Plugin V2.1.3

[CTDB TOCID: .uH_hno1vZKws2kd9Uf_669mTu8-] found, Submit result: .uH_hno1vZKws2kd9Uf_669mTu8- has been confirmed
[0055b288] (2/2) Accurately ripped


==== Log checksum 0942DAB859A226F90630ACBEFFDDF61EA32185A5C3664F7157F628C5106EF329 ====


[CUETools log; Date: 10.04.2014 22:35:17; Version: 2.1.4]
[CTDB TOCID: .uH_hno1vZKws2kd9Uf_669mTu8-] found.
Track | CTDB Status
1 | (3/3) Accurately ripped
2 | (3/3) Accurately ripped
3 | (3/3) Accurately ripped
4 | (3/3) Accurately ripped
5 | (3/3) Accurately ripped
[AccurateRip ID: 001192af-004e195a-51117905] found.
Track [ CRC | V2 ] Status
01 [3f853704|0cd8f6f1] (0+1/1) Accurately ripped
02 [61a435ab|b085e8a7] (0+1/1) Accurately ripped
03 [dc5c1fe3|6aeb58a5] (0+1/1) Accurately ripped
04 [62e0e5c6|20c01514] (0+1/1) Accurately ripped
05 [67201835|65891119] (0+1/1) Accurately ripped

Track Peak [ CRC32 ] [W/O NULL] [ LOG ]
– 100,0 [C84B6ED2] [503C85F6] CRC32
01 99,8 [CD5CFC18] [AF62559B]
02 99,8 [E2966E0B] [7B35BD1B]
03 99,8 [6C6FA31D] [2CBAC60E]
04 99,8 [54F4EE21] [9C6818F1]
05 100,0 [55BE5E04] [50C53A78]


Tracklist DVD:

1. Speed King
2. Child In Time
3. Wring That Neck
4. Mandrake Root

Title: Deep Purple - Live In Stockholm 1970 - DVD
Size: 1.47 Gb ( 1 541 790,00 KBytes ) - DVD-5
Enabled regions: 1, 2, 3, 4, 5, 6, 7, 8

VTS_01 :
Play Length: 00:00:20
Video: NTSC 4:3 (720x480) VBR
Audio:
Not specified (Dolby AC3, 2 ch)

VTS_02 :
Play Length: 00:23:16
Video: NTSC 4:3 (720x480) VBR
Audio:
English (Dolby AC3, 2 ch)

Deep Purple: Live Albums part 3 (1972 - 2014)

Deep Purple: Live Albums part 3 (1972 - 2014)

Deep Purple: Live Albums part 3 (1972 - 2014)

* * * * *


Deep Purple - Live in Verona (2014):

Deep Purple: Live Albums part 3 (1972 - 2014)

Ward, VQCD-10406-7
Tracklist CD1:

01. Deep Purple Overture - 1:29
02. Highway Star - 7:07
03. Hard Lovin `Man - 6:03
04. Maybe I`m A Leo - 4:35
05. Strange Kind Of Woman - 6:07
06. Rapture Of The Deep - 5:52
07. Woman From Tokyo - 6:11
08. Contact Lost - 2:31
09. Guitar Outro / Solo - 2:19
10. When A Blind Man Cries - 3:56
11. The Well Dressed Guitar - 2:54

Exact Audio Copy V1.0 beta 4 from 7. December 2014

EAC extraction logfile from 26. December 2014, 0:40

Deep Purple / Live in Verona CD1 (VQCD-10406/7)

Used drive : ATAPI iHAS124 B Adapter: 1 ID: 0

Read mode : Secure
Utilize accurate stream : Yes
Defeat audio cache : Yes
Make use of C2 pointers : No

Read offset correction : 6
Overread into Lead-In and Lead-Out : No
Fill up missing offset samples with silence : Yes
Delete leading and trailing silent blocks : No
Null samples used in CRC calculations : Yes
Used interface : Installed external ASPI interface

Used output format : User Defined Encoder
Selected bitrate : 128 kBit/s
Quality : High
Add ID3 tag : Yes
Command line compressor : C:\Program Files (x86)\Exact Audio Copy\Flac\flac.exe
Additional command line options : -V -8 -T "Date=%year%" -T "Genre=%genre%" %source%


TOC of the extracted CD

Track | Start | Length | Start sector | End sector
––––––––––––––––––––––––––––-
1 | 0:00.00 | 1:29.14 | 0 | 6688
2 | 1:29.14 | 7:06.54 | 6689 | 38692
3 | 8:35.68 | 6:03.13 | 38693 | 65930
4 | 14:39.06 | 4:35.02 | 65931 | 86557
5 | 19:14.08 | 6:07.24 | 86558 | 114106
6 | 25:21.32 | 5:52.05 | 114107 | 140511
7 | 31:13.37 | 6:10.52 | 140512 | 168313
8 | 37:24.14 | 2:30.57 | 168314 | 179620
9 | 39:54.71 | 2:18.60 | 179621 | 190030
10 | 42:13.56 | 3:56.35 | 190031 | 207765
11 | 46:10.16 | 2:54.22 | 207766 | 220837


Range status and errors

Selected range

Filename G:\CD\Deep Purple - Live in Verona CD1.wav

Peak level 100.0 %
Extraction speed 5.6 X
Range quality 99.9 %
Test CRC 99ED02AE
Copy CRC 99ED02AE
Copy OK

No errors occurred


AccurateRip summary

Track 1 not present in database
Track 2 not present in database
Track 3 not present in database
Track 4 not present in database
Track 5 not present in database
Track 6 not present in database
Track 7 not present in database
Track 8 not present in database
Track 9 not present in database
Track 10 not present in database
Track 11 not present in database

None of the tracks are present in the AccurateRip database

End of status report

–– CUETools DB Plugin V2.1.4

[CTDB TOCID: xyjn0G30AzhRG4zFX14EVJJcmhw-] disk not present in database
Submit result: xyjn0G30AzhRG4zFX14EVJJcmhw- has been uploaded


==== Log checksum 621F110482497EDF66D7D4435A9DEC1C245878E8F124D82251F77287882009A5 ====


[CUETools log; Date: 31.01.2015 21:09:56; Version: 2.1.4]
[CTDB TOCID: xyjn0G30AzhRG4zFX14EVJJcmhw-] found.
Track | CTDB Status
1 | (2/2) Accurately ripped
2 | (2/2) Accurately ripped
3 | (2/2) Accurately ripped
4 | (2/2) Accurately ripped
5 | (2/2) Accurately ripped
6 | (2/2) Accurately ripped
7 | (2/2) Accurately ripped
8 | (2/2) Accurately ripped
9 | (2/2) Accurately ripped
10 | (2/2) Accurately ripped
11 | (2/2) Accurately ripped
[AccurateRip ID: 0015a734-00bb93e3-9a0b800b] disk not present in database.

Track Peak [ CRC32 ] [W/O NULL] [ LOG ]
– 100,0 [99ED02AE] [7EEAC5B1] CRC32
01 99,6 [DFEE444F] [AC919726]
02 100,0 [FEA57BF3] [C499CD3D]
03 100,0 [46099033] [190E6A49]
04 100,0 [4589B14B] [755C3F30]
05 100,0 [81A5482E] [B0DEA6AD]
06 100,0 [DEF3B989] [E5F062F4]
07 100,0 [A493BC3E] [21663358]
08 100,0 [C68806AE] [93F254E7]
09 84,9 [9FB1DC3A] [AC6B0688]
10 100,0 [B57AA92B] [4D167D8A]
11 100,0 [EEB83A87] [C93674B8]


Tracklist CD2:

01. Knocking At Your Back Door - 8:03
02. Lazy - 7:03
03. No One Came - 5:24
04. Don Airey Keyboard Solo - 6:07
05. Perfect Strangers - 6:11
06. Space Truckin` - 5:33
07. Smoke On The Water - 7:11
08. Hush - 7:21
09. Bass Solo - 2:24
10. Black Night - 9:08

Exact Audio Copy V1.0 beta 4 from 7. December 2014

EAC extraction logfile from 26. December 2014, 9:52

Deep Purple / Live in Verona CD2 (VQCD-10406/7)

Used drive : ATAPI iHAS124 B Adapter: 1 ID: 0

Read mode : Secure
Utilize accurate stream : Yes
Defeat audio cache : Yes
Make use of C2 pointers : No

Read offset correction : 6
Overread into Lead-In and Lead-Out : No
Fill up missing offset samples with silence : Yes
Delete leading and trailing silent blocks : No
Null samples used in CRC calculations : Yes
Used interface : Installed external ASPI interface

Used output format : User Defined Encoder
Selected bitrate : 128 kBit/s
Quality : High
Add ID3 tag : Yes
Command line compressor : C:\Program Files (x86)\Exact Audio Copy\Flac\flac.exe
Additional command line options : -V -8 -T "Date=%year%" -T "Genre=%genre%" %source%


TOC of the extracted CD

Track | Start | Length | Start sector | End sector
––––––––––––––––––––––––––––-
1 | 0:00.00 | 8:02.41 | 0 | 36190
2 | 8:02.41 | 7:03.19 | 36191 | 67934
3 | 15:05.60 | 5:24.09 | 67935 | 92243
4 | 20:29.69 | 6:06.58 | 92244 | 119751
5 | 26:36.52 | 6:10.41 | 119752 | 147542
6 | 32:47.18 | 5:33.24 | 147543 | 172541
7 | 38:20.42 | 7:11.35 | 172542 | 204901
8 | 45:32.02 | 7:21.37 | 204902 | 238013
9 | 52:53.39 | 2:24.17 | 238014 | 248830
10 | 55:17.56 | 9:07.72 | 248831 | 289927


Range status and errors

Selected range

Filename G:\CD\Deep Purple - Live in Verona CD2.wav

Peak level 100.0 %
Extraction speed 6.1 X
Range quality 100.0 %
Test CRC 1E681998
Copy CRC 1E681998
Copy OK

No errors occurred


AccurateRip summary

Track 1 not present in database
Track 2 not present in database
Track 3 not present in database
Track 4 not present in database
Track 5 not present in database
Track 6 not present in database
Track 7 not present in database
Track 8 not present in database
Track 9 not present in database
Track 10 not present in database

None of the tracks are present in the AccurateRip database

End of status report

–– CUETools DB Plugin V2.1.4

[CTDB TOCID: nl5lIa6yFA4Aa6zTlCPNwM7j.B0-] disk not present in database
Submit result: nl5lIa6yFA4Aa6zTlCPNwM7j.B0- has been uploaded


==== Log checksum EA4A2DC6CB3E4B3710B9221021F6C98FA4E2B7EBF28C16122231420FA3195CB4 ====


[CUETools log; Date: 31.01.2015 21:10:15; Version: 2.1.4]
[CTDB TOCID: nl5lIa6yFA4Aa6zTlCPNwM7j.B0-] found.
Track | CTDB Status
1 | (2/2) Accurately ripped
2 | (2/2) Accurately ripped
3 | (2/2) Accurately ripped
4 | (2/2) Accurately ripped
5 | (2/2) Accurately ripped
6 | (2/2) Accurately ripped
7 | (2/2) Accurately ripped
8 | (2/2) Accurately ripped
9 | (2/2) Accurately ripped
10 | (2/2) Accurately ripped
[AccurateRip ID: 0018afda-00c33fbc-900f190a] disk not present in database.

Track Peak [ CRC32 ] [W/O NULL] [ LOG ]
– 100,0 [1E681998] [1C6FE284] CRC32
01 100,0 [AA46FE98] [F3D16F2A]
02 100,0 [AA00DD96] [0E97E2D1]
03 100,0 [1D9A59AE] [D5C65F92]
04 86,3 [A0E3C3A9] [BADF9818]
05 100,0 [2B808F8C] [8B32054F]
06 100,0 [03F31DCA] [930217AD]
07 100,0 [250C6F7D] [67761DD0]
08 100,0 [5AA07608] [D54020C1]
09 100,0 [FD3E3FD6] [B5B952B6]
10 100,0 [5EB9625B] [DA501174]


Tracklist DVD:

1. Deep Purple Overture
2. Highway Star
3. Hard Lovin Man
4. Maybe I m A Leo
5. Strange Kind Of Woman
6. Rapture Of The Deep
7. Woman From Tokyo
8. Contact Lost
9. When A Blind Man Cries
10. The Well Dressed Guitar
11. Knocking At Your Back Door
12. Lazy
13. No One Came
14. Don Airey Solo
15. Perfect Strangers
16. Space Truckin
17. Smoke On The Water

Bonus tracks:

1. Hush
2. Black Night

Title: Deep Purple with Orchestra - Live in Verona
Size: 7.23 Gb ( 7 585 050,00 KBytes ) - DVD-9
Enabled regions: 1, 2, 3, 4, 5, 6, 7, 8

VTS_01 :
Play Length: 00:00:17
Video: NTSC 16:9 (720x480) VBR, Auto Letterboxed
Audio:
English (Dolby AC3, 2 ch)

VTS_02 :
Play Length: 01:36:04+00:00:10+00:00:10
Video: NTSC 16:9 (720x480) VBR, Auto Letterboxed
Audio:
English (Dolby AC3, 2 ch)
English (Dolby AC3, 6 ch)
English (DTS, 6 ch)

VTS_03 :
Play Length: 00:19:00
Video: NTSC 16:9 (720x480) VBR, Auto Letterboxed
Audio:
English (Dolby AC3, 2 ch)
English (Dolby AC3, 6 ch)
English (DTS, 6 ch)

Deep Purple: Live Albums part 3 (1972 - 2014)

Deep Purple: Live Albums part 3 (1972 - 2014)

Deep Purple: Live Albums part 3 (1972 - 2014)

* * *

All thanks go to gerrV

Deep Purple or Deep Purple in my Blog

Download Deep Purple: Live Albums part 3 (1972 - 2014):