Subcategories

Djavan - Flor De Lis (1976) {Som Livre}

Posted By: tiburon
Djavan - Flor De Lis (1976) {Som Livre}

Djavan - Flor De Lis (1976) {Som Livre}
EAC 1.0b3 | FLAC tracks level 8 | Cue+Log+M3U | Full Scans 300dpi | 250MB + 5% Recovery
MP3 CBR 320 Kbps | 82MB + 5% Recovery
Genre: Latin Jazz, Bossa Nova, MPB

Voz, O Violao, A Musica de Djavan by Djavan was released Feb 02, 2009 on the Som Livre label. Djavan's first recorded LP, released in 1976, originated one year earlier, when he was awarded second place at TV Globo's Festival Abertura for his song "Fato Consumado." The following year came this album, which contained one of his biggest hits, "Flor de Lis," along with his previous award-winning song. The highlights are the wonderful melodies, the musical sonority of his lyrics (it even doesn't matter if you understand them, as his focus is on its musicality), the smart violao of Djavan, and the rich rhythmic interplay between voice and violao. All of the compositions are great, exploring from samba to baiao, and, more importantly, it's mostly an acoustic band album, with cool touches of a Rhodes.
Track List
01. Flor de lis - 03:46
02. Na boca de beco - 02:04
03. Maçã do rosto - 03:17
04. Para-raio - 02:30
05. E que deus ajude - 03:06
06. Quantas voltas o mundo dá - 03:35
07. Maria das Mercedes - 02:54
08. Muito obrigado - 03:07
09. Embola a bola ( Catereté ) - 02:32
10. Fato consumado - 02:36
11. Magia - 03:01
12. Ventos do norte - 03:16

musicians
Guitars: Djavan • Helinho
Keyboards: Edson
Bass: Luizão
Drums: Paulinho
Flute & piccolo: Altamiro Carrilho
Percussions: Marçal • Luna • Hermes


Exact Audio Copy V1.0 beta 3 from 29. August 2011

EAC extraction logfile from 13. December 2012, 19:32

Djavan / Flor De Lis

Used drive : PLEXTOR CD-R PREMIUM2 Adapter: 3 ID: 1

Read mode : Secure
Utilize accurate stream : Yes
Defeat audio cache : Yes
Make use of C2 pointers : No

Read offset correction : 30
Overread into Lead-In and Lead-Out : Yes
Fill up missing offset samples with silence : Yes
Delete leading and trailing silent blocks : No
Null samples used in CRC calculations : Yes
Used interface : Installed external ASPI interface
Gap handling : Appended to previous track

Used output format : User Defined Encoder
Selected bitrate : 1024 kBit/s
Quality : High
Add ID3 tag : No
Command line compressor : C:\Program Files\Exact Audio Copy\Flac\flac.exe
Additional command line options : -6 -V -T "ARTIST=%artist%" -T "TITLE=%title%" -T "ALBUM=%albumtitle%" -T "DATE=%year%" -T "PERFORMER=%albuminterpret%" -T "TRACKNUMBER=%tracknr%" -T "GENRE=%genre%" -T "COMMENT=EAC Secure, Test&Copy, AccurateRip, FLAC -6" -T "COMPOSER=%composer%" -T "DISCNUMBER=%cdnumber%" -T "TOTALDISCS=%totalcds%" -T "TOTALTRACKS=%numtracks%" %source% -o %dest%


TOC of the extracted CD

Track | Start | Length | Start sector | End sector
––––––––––––––––––––––––––––-
1 | 0:00.32 | 3:46.55 | 32 | 17036
2 | 3:47.12 | 2:04.48 | 17037 | 26384
3 | 5:51.60 | 3:17.10 | 26385 | 41169
4 | 9:08.70 | 2:30.50 | 41170 | 52469
5 | 11:39.45 | 3:06.62 | 52470 | 66481
6 | 14:46.32 | 3:35.10 | 66482 | 82616
7 | 18:21.42 | 2:54.60 | 82617 | 95726
8 | 21:16.27 | 3:07.58 | 95727 | 109809
9 | 24:24.10 | 2:32.12 | 109810 | 121221
10 | 26:56.22 | 2:36.30 | 121222 | 132951
11 | 29:32.52 | 3:01.60 | 132952 | 146586
12 | 32:34.37 | 3:16.65 | 146587 | 161351


Track 1

Filename D:\Latin\Djavan - Flor De Lis (1991) [FLAC] (RGE GLO 126 - Original release 1976)\01 - Flor de lis.wav

Pre-gap length 0:00:02.32

Peak level 93.0 %
Extraction speed 2.5 X
Track quality 99.9 %
Test CRC F5621373
Copy CRC F5621373
Cannot be verified as accurate (confidence 1) [4751AC2F], AccurateRip returned [8341C563] (AR v2)
Copy OK

Track 2

Filename D:\Latin\Djavan - Flor De Lis (1991) [FLAC] (RGE GLO 126 - Original release 1976)\02 - Na boca de beco.wav

Pre-gap length 0:00:01.22

Peak level 95.5 %
Extraction speed 2.2 X
Track quality 100.0 %
Test CRC 3AD65457
Copy CRC 3AD65457
Cannot be verified as accurate (confidence 1) [042D3923], AccurateRip returned [03AB726A] (AR v2)
Copy OK

Track 3

Filename D:\Latin\Djavan - Flor De Lis (1991) [FLAC] (RGE GLO 126 - Original release 1976)\03 - Maca do rosto.wav

Pre-gap length 0:00:00.73

Peak level 93.2 %
Extraction speed 2.2 X
Track quality 100.0 %
Test CRC 86C03D47
Copy CRC 86C03D47
Cannot be verified as accurate (confidence 1) [50083F35], AccurateRip returned [B4058FCB] (AR v2)
Copy OK

Track 4

Filename D:\Latin\Djavan - Flor De Lis (1991) [FLAC] (RGE GLO 126 - Original release 1976)\04 - Para-raio.wav

Pre-gap length 0:00:01.33

Peak level 92.1 %
Extraction speed 1.8 X
Track quality 100.0 %
Test CRC B7479FE3
Copy CRC B7479FE3
Cannot be verified as accurate (confidence 1) [AB063ADA], AccurateRip returned [6905467A] (AR v2)
Copy OK

Track 5

Filename D:\Latin\Djavan - Flor De Lis (1991) [FLAC] (RGE GLO 126 - Original release 1976)\05 - E que deus ajude.wav

Pre-gap length 0:00:01.35

Peak level 89.2 %
Extraction speed 2.1 X
Track quality 100.0 %
Test CRC 77906B90
Copy CRC 77906B90
Cannot be verified as accurate (confidence 1) [84A00AC9], AccurateRip returned [DFB7400A] (AR v2)
Copy OK

Track 6

Filename D:\Latin\Djavan - Flor De Lis (1991) [FLAC] (RGE GLO 126 - Original release 1976)\06 - Quantas voltas o mundo da.wav

Pre-gap length 0:00:01.57

Peak level 72.4 %
Extraction speed 1.8 X
Track quality 99.9 %
Test CRC BC8B2683
Copy CRC BC8B2683
Cannot be verified as accurate (confidence 1) [7CEE660E], AccurateRip returned [E84AF830] (AR v2)
Copy OK

Track 7

Filename D:\Latin\Djavan - Flor De Lis (1991) [FLAC] (RGE GLO 126 - Original release 1976)\07 - Maria das Mercedes.wav

Pre-gap length 0:00:01.35

Peak level 95.1 %
Extraction speed 2.0 X
Track quality 100.0 %
Test CRC E508BD9D
Copy CRC E508BD9D
Cannot be verified as accurate (confidence 1) [EA8AFD1C], AccurateRip returned [95FBA6E6] (AR v2)
Copy OK

Track 8

Filename D:\Latin\Djavan - Flor De Lis (1991) [FLAC] (RGE GLO 126 - Original release 1976)\08 - Muito obrigado.wav

Pre-gap length 0:00:01.10

Peak level 90.9 %
Extraction speed 2.1 X
Track quality 100.0 %
Test CRC CA3AD2B8
Copy CRC CA3AD2B8
Cannot be verified as accurate (confidence 1) [3025D263], AccurateRip returned [0F9CEC86] (AR v2)
Copy OK

Track 9

Filename D:\Latin\Djavan - Flor De Lis (1991) [FLAC] (RGE GLO 126 - Original release 1976)\09 - Embola a bola.wav

Pre-gap length 0:00:01.73

Peak level 95.9 %
Extraction speed 2.1 X
Track quality 100.0 %
Test CRC 8DA89E61
Copy CRC 8DA89E61
Cannot be verified as accurate (confidence 1) [EF351366], AccurateRip returned [0E0EEEA3] (AR v2)
Copy OK

Track 10

Filename D:\Latin\Djavan - Flor De Lis (1991) [FLAC] (RGE GLO 126 - Original release 1976)\10 - Fato consumado.wav

Pre-gap length 0:00:01.30

Peak level 87.2 %
Extraction speed 2.2 X
Track quality 100.0 %
Test CRC 896944AD
Copy CRC 896944AD
Cannot be verified as accurate (confidence 1) [A3C17854], AccurateRip returned [8BD588ED] (AR v2)
Copy OK

Track 11

Filename D:\Latin\Djavan - Flor De Lis (1991) [FLAC] (RGE GLO 126 - Original release 1976)\11 - Magia.wav

Pre-gap length 0:00:02.10

Peak level 92.0 %
Extraction speed 2.1 X
Track quality 100.0 %
Test CRC 8D341C98
Copy CRC 8D341C98
Cannot be verified as accurate (confidence 1) [8BE1B8BA], AccurateRip returned [EA93C770] (AR v2)
Copy OK

Track 12

Filename D:\Latin\Djavan - Flor De Lis (1991) [FLAC] (RGE GLO 126 - Original release 1976)\12 - Ventos do norte.wav

Pre-gap length 0:00:01.35

Peak level 75.8 %
Extraction speed 2.2 X
Track quality 99.9 %
Test CRC 17F92880
Copy CRC 17F92880
Cannot be verified as accurate (confidence 1) [C37864A2], AccurateRip returned [84D389BD] (AR v2)
Copy OK


No tracks could be verified as accurate
You may have a different pressing from the one(s) in the database

No errors occurred

End of status report

==== Log checksum D31AEAB0F81A50F35FA2AEEC40EB344CCF094B541990DB4C421DD2B3ECF6880F ====

Djavan - Flor De Lis (1976) {Som Livre}
Djavan - Flor De Lis (1976) {Som Livre}


Thanks to the original ripper