Subcategories

Djavan - Nao E Azul, Mas E Mar (1987) {Columbia}

Posted By: tiburon
Djavan - Nao E Azul, Mas E Mar (1987) {Columbia}

Djavan - Nao E Azul, Mas E Mar (1987) {Columbia}
EAC 1.0b1 | FLAC tracks level 8 | Cue+Log+M3U | Full Scans 300dpi | 244MB + 5% Recovery
MP3 CBR 320 Kbps | 107MB + 5% Recovery
Genre: Latin Jazz, Jazz-Funk, MPB

Não É Azul, Mas É Mar é o oitavo álbum de estúdio do músico, cantor e compositor brasileiro Djavan, lançado em 1987 pela Columbia. Gravado em Los Angeles nos Estados Unidos, foi lançado no Brasil, Estados Unidos, Japão e em alguns países da Europa, sendo que nos três últimos países o álbum foi lançado na versão em inglês, intitulada Bird of Paradise. Os principais hits do álbum são "Soweto", "Me Leve" e "Dou-Não-Dou" (um dos principais hits do álbum, selecionado para entrar na trilha sonora da telenovela brasileira Mandala, em 1987) e alguns outros de destaque entre público e crítica: "Florir", "Maçã", "Doidice" e "Carnaval do Rio".
Track List
01. Soweto [6:10]
02. Bouquet [4:00]
03. Me Leve [4:39]
04. Dou Nao Dou [4:25]
05. Florir [4:12]
06. Carnaval No Rio [4:16]
07. Navio [5:14]
08. Maca [4:08]
09. Real [3:55]
10. Doidice [4:50]

musicians
Djavan - vocals, guitar
George Duke - acoustic piano
Harvey Mason - drums
Nathan East - bass
Paulinho da Costa - percussions
Carlos Rios - guitar
Greg Phillinganies - keyboards
Larry Williams - keyboards
Bill Summers - percussions
Ronnie Foster - piano

Produced by Ronnie Foster


Exact Audio Copy V1.0 beta 1 from 15. November 2010

EAC extraction logfile from 5. December 2010, 16:40

Djavan / Nao e azul, mas e mar

Used drive : ATAPI iHAS124 B Adapter: 4 ID: 0

Read mode : Secure
Utilize accurate stream : Yes
Defeat audio cache : Yes
Make use of C2 pointers : No

Read offset correction : 6
Overread into Lead-In and Lead-Out : No
Fill up missing offset samples with silence : Yes
Delete leading and trailing silent blocks : No
Null samples used in CRC calculations : Yes
Used interface : Native Win32 interface for Win NT & 2000
Gap handling : Appended to previous track

Used output format : User Defined Encoder
Selected bitrate : 768 kBit/s
Quality : High
Add ID3 tag : No
Command line compressor : C:\Program Files (x86)\Exact Audio Copy\FLAC\FLAC.EXE
Additional command line options : -8 -V -T "ARTIST=%a" -T "TITLE=%t" -T "ALBUM=%g" -T "DATE=%y" -T "TRACKNUMBER=%n" -T "TOTALTRACKS=%x" -T "GENRE=%m" -T "ALBUMARTIST=%v" -T "ALBUM ARTIST=%v" -T "COMMENT=EAC Secure Mode, Test & Copy, AccurateRip, FLAC -8" %s


TOC of the extracted CD

Track | Start | Length | Start sector | End sector
––––––––––––––––––––––––––––-
1 | 0:00.32 | 6:10.08 | 32 | 27789
2 | 6:10.40 | 4:00.05 | 27790 | 45794
3 | 10:10.45 | 4:38.67 | 45795 | 66711
4 | 14:49.37 | 4:24.45 | 66712 | 86556
5 | 19:14.07 | 4:11.48 | 86557 | 105429
6 | 23:25.55 | 4:16.17 | 105430 | 124646
7 | 27:41.72 | 5:14.15 | 124647 | 148211
8 | 32:56.12 | 4:08.25 | 148212 | 166836
9 | 37:04.37 | 3:54.65 | 166837 | 184451
10 | 40:59.27 | 4:49.53 | 184452 | 206179


Track 1

Filename E:\FLAC_EAC\Djavan - Nao e azul, mas e mar (1987) [FLAC]\01 - Soweto.wav

Pre-gap length 0:00:02.32

Peak level 100.0 %
Extraction speed 3.6 X
Track quality 100.0 %
Test CRC A6D85D0B
Copy CRC A6D85D0B
Accurately ripped (confidence 1) [838343DA]
Copy OK

Track 2

Filename E:\FLAC_EAC\Djavan - Nao e azul, mas e mar (1987) [FLAC]\02 - Bouquet.wav

Pre-gap length 0:00:02.08

Peak level 66.2 %
Extraction speed 3.2 X
Track quality 99.9 %
Test CRC B5329E8F
Copy CRC B5329E8F
Accurately ripped (confidence 1) [4072E668]
Copy OK

Track 3

Filename E:\FLAC_EAC\Djavan - Nao e azul, mas e mar (1987) [FLAC]\03 - Me Leve.wav

Pre-gap length 0:00:01.70

Peak level 87.0 %
Extraction speed 4.4 X
Track quality 100.0 %
Test CRC A6A5C30D
Copy CRC A6A5C30D
Accurately ripped (confidence 1) [1B706370]
Copy OK

Track 4

Filename E:\FLAC_EAC\Djavan - Nao e azul, mas e mar (1987) [FLAC]\04 - Dou Nao Dou.wav

Pre-gap length 0:00:00.17

Peak level 100.0 %
Extraction speed 4.7 X
Track quality 100.0 %
Test CRC 8F59B268
Copy CRC 8F59B268
Accurately ripped (confidence 1) [0D3F979C]
Copy OK

Track 5

Filename E:\FLAC_EAC\Djavan - Nao e azul, mas e mar (1987) [FLAC]\05 - Florir.wav

Pre-gap length 0:00:00.02

Peak level 67.6 %
Extraction speed 4.9 X
Track quality 100.0 %
Test CRC E752CDC6
Copy CRC E752CDC6
Accurately ripped (confidence 1) [9DDA8A2B]
Copy OK

Track 6

Filename E:\FLAC_EAC\Djavan - Nao e azul, mas e mar (1987) [FLAC]\06 - Carnaval No Rio.wav

Pre-gap length 0:00:00.44

Peak level 94.9 %
Extraction speed 5.2 X
Track quality 100.0 %
Test CRC 3E10451B
Copy CRC 3E10451B
Accurately ripped (confidence 1) [710AF5F9]
Copy OK

Track 7

Filename E:\FLAC_EAC\Djavan - Nao e azul, mas e mar (1987) [FLAC]\07 - Navio.wav

Pre-gap length 0:00:00.37

Peak level 97.3 %
Extraction speed 5.6 X
Track quality 100.0 %
Test CRC F92D6421
Copy CRC F92D6421
Accurately ripped (confidence 1) [690C5C09]
Copy OK

Track 8

Filename E:\FLAC_EAC\Djavan - Nao e azul, mas e mar (1987) [FLAC]\08 - Maca.wav

Pre-gap length 0:00:01.40

Peak level 100.0 %
Extraction speed 5.7 X
Track quality 100.0 %
Test CRC 3963AD98
Copy CRC 3963AD98
Accurately ripped (confidence 1) [E36B2A7B]
Copy OK

Track 9

Filename E:\FLAC_EAC\Djavan - Nao e azul, mas e mar (1987) [FLAC]\09 - Real.wav

Pre-gap length 0:00:00.02

Peak level 93.6 %
Extraction speed 5.9 X
Track quality 100.0 %
Test CRC 894E21F5
Copy CRC 894E21F5
Accurately ripped (confidence 1) [319E0681]
Copy OK

Track 10

Filename E:\FLAC_EAC\Djavan - Nao e azul, mas e mar (1987) [FLAC]\10 - Doidice.wav

Pre-gap length 0:00:00.20

Peak level 94.3 %
Extraction speed 5.2 X
Track quality 99.9 %
Test CRC 319CF995
Copy CRC 319CF995
Accurately ripped (confidence 1) [76522DF2]
Copy OK


All tracks accurately ripped

No errors occurred

End of status report

==== Log checksum 5B8B1690C782F481401897C464246C6B27894B7A0CD8D36CD04F64DE9746EE35 ====

Djavan - Nao E Azul, Mas E Mar (1987) {Columbia}
Djavan - Nao E Azul, Mas E Mar (1987) {Columbia}


Thanks to the original ripper