Subcategories

Djavan - Rua dos Amores (2012) {Luanda Records}

Posted By: tiburon
Djavan - Rua dos Amores (2012) {Luanda Records}

Djavan - Rua dos Amores (2012) {Luanda Records}
EAC 1.0b3 | FLAC tracks level 8 | Cue+Log+M3U | Full Scans 600dpi | 434MB + 5% Recovery
MP3 CBR 320 Kbps | 130MB + 5% Recovery
Genre: Latin Jazz, Bossa Nova, MPB

From the first chord to the last word of Rua dos Amores, Djavan’s new album is an exciting collection of songs from the artist known for his unique style within the Brazilian music scene. Djavan has written the lyrics and melodies of all 13 new songs on the album and in addition, he is also responsible for all the final arrangements and production.
Track List
1 - Ja nao somos dois
2 - Anjo de vitro
3 - Triste e o cara
4 - Acerto de contas
5 - Bangalo
6 - Pecado
7 - Ares sutis
8 - Quinze anos
9 - Vive
10 - Pode esquecer
11 - Reverberou
12 - Quase perdida
13 - Rua dos amores

Produced by Djavan


Exact Audio Copy V1.0 beta 3 from 29. August 2011

EAC extraction logfile from 11. December 2012, 23:48

Djavan / Rua dos Amores

Used drive : TEAC DV-W28S-V Adapter: 0 ID: 1

Read mode : Secure
Utilize accurate stream : Yes
Defeat audio cache : Yes
Make use of C2 pointers : No

Read offset correction : 96
Overread into Lead-In and Lead-Out : No
Fill up missing offset samples with silence : Yes
Delete leading and trailing silent blocks : No
Null samples used in CRC calculations : Yes
Used interface : Native Win32 interface for Win NT & 2000
Gap handling : Appended to previous track

Used output format : User Defined Encoder
Selected bitrate : 1024 kBit/s
Quality : High
Add ID3 tag : No
Command line compressor : C:\Program Files (x86)\Exact Audio Copy\Flac\flac.exe
Additional command line options : -8 -V -T "ARTIST=%artist%" -T "TITLE=%title%" -T "ALBUM=%albumtitle%" -T "DATE=%year%" -T "TRACKNUMBER=%tracknr%" -T "TOTALTRACKS=%numtracks%" -T "GENRE=%genre%" -T "ALBUMARTIST=%albumartist%" -T "ALBUM ARTIST=%albumartist%" -T "COMMENT=EAC Secure Mode, Test & Copy, AccurateRip, FLAC -8" %source%


TOC of the extracted CD

Track | Start | Length | Start sector | End sector
––––––––––––––––––––––––––––-
1 | 0:00.00 | 4:14.16 | 0 | 19065
2 | 4:14.16 | 5:22.12 | 19066 | 43227
3 | 9:36.28 | 4:56.34 | 43228 | 65461
4 | 14:32.62 | 4:05.43 | 65462 | 83879
5 | 18:38.30 | 4:57.58 | 83880 | 106212
6 | 23:36.13 | 4:18.53 | 106213 | 125615
7 | 27:54.66 | 3:37.63 | 125616 | 141953
8 | 31:32.54 | 4:09.72 | 141954 | 160700
9 | 35:42.51 | 5:22.20 | 160701 | 184870
10 | 41:04.71 | 4:11.59 | 184871 | 203754
11 | 45:16.55 | 4:02.62 | 203755 | 221966
12 | 49:19.42 | 3:59.63 | 221967 | 239954
13 | 53:19.30 | 3:50.46 | 239955 | 257250


Track 1

Filename D:\Djavan - Rua dos Amores (2012) [FLAC] {60253714860}\01 - Ja nao somos dois.wav

Pre-gap length 0:00:02.00

Peak level 96.6 %
Extraction speed 2.0 X
Track quality 100.0 %
Test CRC D5ECC2D4
Copy CRC D5ECC2D4
Track not present in AccurateRip database
Copy OK

Track 2

Filename D:\Djavan - Rua dos Amores (2012) [FLAC] {60253714860}\02 - Anjo de vitro.wav

Peak level 95.5 %
Extraction speed 2.2 X
Track quality 100.0 %
Test CRC 103E369F
Copy CRC 103E369F
Track not present in AccurateRip database
Copy OK

Track 3

Filename D:\Djavan - Rua dos Amores (2012) [FLAC] {60253714860}\03 - Triste e o cara.wav

Peak level 96.6 %
Extraction speed 2.0 X
Track quality 99.9 %
Test CRC 3050F359
Copy CRC 3050F359
Track not present in AccurateRip database
Copy OK

Track 4

Filename D:\Djavan - Rua dos Amores (2012) [FLAC] {60253714860}\04 - Acerto de contas.wav

Peak level 96.6 %
Extraction speed 2.5 X
Track quality 100.0 %
Test CRC 2E248238
Copy CRC 2E248238
Track not present in AccurateRip database
Copy OK

Track 5

Filename D:\Djavan - Rua dos Amores (2012) [FLAC] {60253714860}\05 - Bangalo.wav

Peak level 96.6 %
Extraction speed 2.2 X
Track quality 99.9 %
Test CRC 2C5D8569
Copy CRC 2C5D8569
Track not present in AccurateRip database
Copy OK

Track 6

Filename D:\Djavan - Rua dos Amores (2012) [FLAC] {60253714860}\06 - Pecado.wav

Pre-gap length 0:00:01.05

Peak level 98.8 %
Extraction speed 2.9 X
Track quality 100.0 %
Test CRC A4973860
Copy CRC A4973860
Track not present in AccurateRip database
Copy OK

Track 7

Filename D:\Djavan - Rua dos Amores (2012) [FLAC] {60253714860}\07 - Ares sutis.wav

Peak level 97.7 %
Extraction speed 3.0 X
Track quality 100.0 %
Test CRC 20E507AF
Copy CRC 20E507AF
Track not present in AccurateRip database
Copy OK

Track 8

Filename D:\Djavan - Rua dos Amores (2012) [FLAC] {60253714860}\08 - Quinze Anos.wav

Peak level 96.0 %
Extraction speed 2.7 X
Track quality 99.9 %
Test CRC 4D520E19
Copy CRC 4D520E19
Track not present in AccurateRip database
Copy OK

Track 9

Filename D:\Djavan - Rua dos Amores (2012) [FLAC] {60253714860}\09 - Vive.wav

Pre-gap length 0:00:01.26

Peak level 96.6 %
Extraction speed 3.5 X
Track quality 100.0 %
Test CRC D4CDDE3F
Copy CRC D4CDDE3F
Track not present in AccurateRip database
Copy OK

Track 10

Filename D:\Djavan - Rua dos Amores (2012) [FLAC] {60253714860}\10 - Pode esquecer.wav

Peak level 95.4 %
Extraction speed 3.5 X
Track quality 100.0 %
Test CRC 3568FDE6
Copy CRC 3568FDE6
Track not present in AccurateRip database
Copy OK

Track 11

Filename D:\Djavan - Rua dos Amores (2012) [FLAC] {60253714860}\11 - Reverberou.wav

Pre-gap length 0:00:01.18

Peak level 96.6 %
Extraction speed 3.6 X
Track quality 100.0 %
Test CRC 7AC4060A
Copy CRC 7AC4060A
Track not present in AccurateRip database
Copy OK

Track 12

Filename D:\Djavan - Rua dos Amores (2012) [FLAC] {60253714860}\12 - Quase perdida.wav

Pre-gap length 0:00:01.05

Peak level 95.5 %
Extraction speed 3.7 X
Track quality 100.0 %
Test CRC D97D70C6
Copy CRC D97D70C6
Track not present in AccurateRip database
Copy OK

Track 13

Filename D:\Djavan - Rua dos Amores (2012) [FLAC] {60253714860}\13 - Rua dos amores.wav

Pre-gap length 0:00:01.10

Peak level 88.0 %
Extraction speed 3.8 X
Track quality 100.0 %
Test CRC 3D433AE5
Copy CRC 3D433AE5
Track not present in AccurateRip database
Copy OK


None of the tracks are present in the AccurateRip database

No errors occurred

End of status report

–– CUETools DB Plugin V2.1.3

[CTDB TOCID: 6tikqPCFWrtKKc76mt5o_ccsRI4-] disk not present in database, Submit result: 6tikqPCFWrtKKc76mt5o_ccsRI4- has been uploaded


==== Log checksum 658BD95E9B293C6BC0C3F142BE0DE6B863299D81155058DE095A1F3C8C378660 ====

Djavan - Rua dos Amores (2012) {Luanda Records}
Djavan - Rua dos Amores (2012) {Luanda Records}


Thanks to the original ripper