Subcategories

Duke Ellington - Original Album Series (2009) Repost

Posted By: v3122
Duke Ellington - Original Album Series (2009) Repost

Duke Ellington - Original Album Series (2009)
EAC | Flac(Image) + Cue + Log & MP3 CBR 320Kbps
5CD | Rhino Records, 8122 79834 5 | ~ 1179 or 469 Mb | Scans(jpg) -> 18 Mb
Jazz / Big Band

The five-disc, 2009 Duke Ellington collection Original Album Series brings together a handful of the legendary bandleader's 1960s albums. Included here are Will Big Bands Ever Come Back?, Jazz Violin Sessions, Mary Poppins, Ellington '65, and Ellington '66. Although these albums found Ellington attempting to compete in the post-swing rock & roll era with a more commercial sound, they are still great jazz albums that should appeal to most Ellington fanatics.

by Matt Collar, allmusic
Duke Ellington - Original Album Series (2009):

Duke Ellington - Original Album Series (2009) Repost

Tracklist CD1 - 1965 - Will Big Bands Ever Come Back :

1. Tuxedo Junction
2. Smoke Rings
3. Artistry In Rhythm
4. The Waltz You Saved For Me
5. Woodchopper's Ball
6. Sentimental Journey
7. When It's Sleepy Time Down South
8. One O'Clock Jump
9. Goodbye
10. Sleep Sleep Sleep
11. Rhapsody In Blue
12. Don't Get Around Much Anymore

Exact Audio Copy V0.99 prebeta 5 from 4. May 2009

EAC extraction logfile from 13. May 2010, 19:56

Duke Ellington / Will Big Bands Ever Come Back

Used drive : HL-DT-STDVDRAM GH22NS40 Adapter: 2 ID: 0

Read mode : Secure
Utilize accurate stream : Yes
Defeat audio cache : Yes
Make use of C2 pointers : No

Read offset correction : 667
Overread into Lead-In and Lead-Out : No
Fill up missing offset samples with silence : Yes
Delete leading and trailing silent blocks : No
Null samples used in CRC calculations : Yes
Used interface : Installed external ASPI interface
Gap handling : Appended to previous track

Used output format : User Defined Encoder
Selected bitrate : 768 kBit/s
Quality : High
Add ID3 tag : No
Command line compressor : C:\Program Files (x86)\Exact Audio Copy\FLAC\FLAC.EXE
Additional command line options : -8 -V -T "ARTIST=%a" -T "TITLE=%t" -T "ALBUM=%g" -T "DATE=%y" -T "TRACKNUMBER=%n" -T "GENRE=%m" -T "COMMENT=EAC FLAC -8" %s


TOC of the extracted CD

Track | Start | Length | Start sector | End sector
––––––––––––––––––––––––––––-
1 | 0:00.00 | 3:31.09 | 0 | 15833
2 | 3:31.09 | 2:56.05 | 15834 | 29038
3 | 6:27.14 | 3:20.38 | 29039 | 44076
4 | 9:47.52 | 2:31.43 | 44077 | 55444
5 | 12:19.20 | 3:17.52 | 55445 | 70271
6 | 15:36.72 | 2:32.31 | 70272 | 81702
7 | 18:09.28 | 3:20.29 | 81703 | 96731
8 | 21:29.57 | 7:21.30 | 96732 | 129836
9 | 28:51.12 | 3:07.38 | 129837 | 143899
10 | 31:58.50 | 2:48.73 | 143900 | 156572
11 | 34:47.48 | 4:51.46 | 156573 | 178443
12 | 39:39.19 | 2:35.34 | 178444 | 190102


Track 1

Filename I:\Jazz Music\RIP\01 - Tuxedo Junction.wav

Pre-gap length 0:00:02.00

Peak level 100.0 %
Track quality 100.0 %
Test CRC 3B521091
Copy CRC 3B521091
Accurately ripped (confidence 2) [858040E0]
Copy OK

Track 2

Filename I:\Jazz Music\RIP\02 - Smoke Rings.wav

Pre-gap length 0:00:02.00

Peak level 100.0 %
Track quality 100.0 %
Test CRC 459D73C7
Copy CRC 459D73C7
Accurately ripped (confidence 2) [CF7A880E]
Copy OK

Track 3

Filename I:\Jazz Music\RIP\03 - Artistry In Rhythm.wav

Pre-gap length 0:00:01.98

Peak level 100.0 %
Track quality 100.0 %
Test CRC 83016CF1
Copy CRC 83016CF1
Accurately ripped (confidence 2) [6925AE3A]
Copy OK

Track 4

Filename I:\Jazz Music\RIP\04 - The Waltz You Saved For Me.wav

Pre-gap length 0:00:02.00

Peak level 100.0 %
Track quality 100.0 %
Test CRC 7DFE067A
Copy CRC 7DFE067A
Accurately ripped (confidence 2) [3AE67995]
Copy OK

Track 5

Filename I:\Jazz Music\RIP\05 - Woodchopper's Ball.wav

Pre-gap length 0:00:02.00

Peak level 100.0 %
Track quality 100.0 %
Test CRC AF4337B4
Copy CRC AF4337B4
Accurately ripped (confidence 2) [830971B4]
Copy OK

Track 6

Filename I:\Jazz Music\RIP\06 - Sentimental Journey.wav

Pre-gap length 0:00:02.00

Peak level 100.0 %
Track quality 99.9 %
Test CRC 0BC61139
Copy CRC 0BC61139
Accurately ripped (confidence 2) [E04F478A]
Copy OK

Track 7

Filename I:\Jazz Music\RIP\07 - When It's Sleepy Time Down South.wav

Pre-gap length 0:00:02.00

Peak level 100.0 %
Track quality 100.0 %
Test CRC FA25A117
Copy CRC FA25A117
Accurately ripped (confidence 2) [153860A0]
Copy OK

Track 8

Filename I:\Jazz Music\RIP\08 - One O'clock Jump.wav

Pre-gap length 0:00:02.00

Peak level 100.0 %
Track quality 100.0 %
Test CRC 6B126A48
Copy CRC 6B126A48
Accurately ripped (confidence 2) [CC8EBB2A]
Copy OK

Track 9

Filename I:\Jazz Music\RIP\09 - Goodbye.wav

Pre-gap length 0:00:01.98

Peak level 100.0 %
Track quality 100.0 %
Test CRC FEF95B51
Copy CRC FEF95B51
Accurately ripped (confidence 2) [AB8ADAC1]
Copy OK

Track 10

Filename I:\Jazz Music\RIP\10 - Sleep, Sleep, Sleep.wav

Pre-gap length 0:00:02.00

Peak level 100.0 %
Track quality 100.0 %
Test CRC 453CDBD6
Copy CRC 453CDBD6
Accurately ripped (confidence 2) [67530396]
Copy OK

Track 11

Filename I:\Jazz Music\RIP\11 - Rhapsody In Blue.wav

Pre-gap length 0:00:02.00

Peak level 100.0 %
Track quality 100.0 %
Test CRC 51D93AEB
Copy CRC 51D93AEB
Accurately ripped (confidence 2) [0B7025FE]
Copy OK

Track 12

Filename I:\Jazz Music\RIP\12 - Don't Get Around Much Anymore.wav

Pre-gap length 0:00:02.00

Peak level 100.0 %
Track quality 100.0 %
Test CRC D88E1F88
Copy CRC D88E1F88
Accurately ripped (confidence 2) [391644AE]
Copy OK


All tracks accurately ripped

No errors occurred

End of status report


[CUETools log; Date: 08.02.2018 11:02:57; Version: 2.1.5]
[AccurateRip ID: 00123017-00ac2737-a509e60c] found.
Track [ CRC | V2 ] Status
01 [858040e0|94ac4951] (14+48/62) Accurately ripped
02 [cf7a880e|a39e1af9] (14+48/62) Accurately ripped
03 [6925ae3a|393c2fd1] (14+48/62) Accurately ripped
04 [3ae67995|39623940] (14+47/61) Accurately ripped
05 [830971b4|c89d43ee] (14+48/62) Accurately ripped
06 [e04f478a|e2f5bc19] (14+49/63) Accurately ripped
07 [153860a0|202ef0cf] (14+48/62) Accurately ripped
08 [cc8ebb2a|c3d18b47] (14+48/62) Accurately ripped
09 [ab8adac1|4336fcb3] (14+48/62) Accurately ripped
10 [67530396|3cf246a3] (14+48/62) Accurately ripped
11 [0b7025fe|de7a5094] (14+48/62) Accurately ripped
12 [391644ae|24cac288] (13+48/61) Accurately ripped

Track Peak [ CRC32 ] [W/O NULL] [ LOG ]
– 100,0 [A30772F5] [2ACD4CF8]
01 100,0 [3B521091] [A19E5430] CRC32
02 100,0 [459D73C7] [54C37F7E] CRC32
03 100,0 [83016CF1] [BDBEDC42] CRC32
04 100,0 [7DFE067A] [27577EFA] CRC32
05 100,0 [AF4337B4] [B328BC19] CRC32
06 100,0 [0BC61139] [5A9506CA] CRC32
07 100,0 [FA25A117] [8F1C17D6] CRC32
08 100,0 [6B126A48] [746419F7] CRC32
09 100,0 [FEF95B51] [E24352F6] CRC32
10 100,0 [453CDBD6] [34FEA3FD] CRC32
11 100,0 [51D93AEB] [903B861D] CRC32
12 100,0 [D88E1F88] [27F10C91] CRC32


Duke Ellington - Original Album Series (2009) Repost

Tracklist CD2 - 1976 - Jazz Violin Session:

1. Take The A Train
2. In A Sentimental Mood
3. Don't Get Around Much Anymore
4. Day Dream
5. Cotton Tail
6. Pretty Little One
7. Tricky's Licks
8. Blues In C
9. String Along With Strings
10. Limbo Jazz
11. The Feeling Of Jazz

Exact Audio Copy V0.99 prebeta 5 from 4. May 2009

EAC extraction logfile from 13. May 2010, 22:17

Duke Ellington / Jazz Violin Session

Used drive : HL-DT-STDVDRAM GH22NS40 Adapter: 2 ID: 0

Read mode : Secure
Utilize accurate stream : Yes
Defeat audio cache : Yes
Make use of C2 pointers : No

Read offset correction : 667
Overread into Lead-In and Lead-Out : No
Fill up missing offset samples with silence : Yes
Delete leading and trailing silent blocks : No
Null samples used in CRC calculations : Yes
Used interface : Installed external ASPI interface
Gap handling : Appended to previous track

Used output format : User Defined Encoder
Selected bitrate : 768 kBit/s
Quality : High
Add ID3 tag : No
Command line compressor : C:\Program Files (x86)\Exact Audio Copy\FLAC\FLAC.EXE
Additional command line options : -8 -V -T "ARTIST=%a" -T "TITLE=%t" -T "ALBUM=%g" -T "DATE=%y" -T "TRACKNUMBER=%n" -T "GENRE=%m" -T "COMMENT=EAC FLAC -8" %s


TOC of the extracted CD

Track | Start | Length | Start sector | End sector
––––––––––––––––––––––––––––-
1 | 0:00.00 | 4:22.56 | 0 | 19705
2 | 4:22.56 | 3:47.27 | 19706 | 36757
3 | 8:10.08 | 3:58.07 | 36758 | 54614
4 | 12:08.15 | 3:11.23 | 54615 | 68962
5 | 15:19.38 | 4:39.08 | 68963 | 89895
6 | 19:58.46 | 4:25.43 | 89896 | 109813
7 | 24:24.14 | 3:18.36 | 109814 | 124699
8 | 27:42.50 | 3:54.50 | 124700 | 142299
9 | 31:37.25 | 6:26.34 | 142300 | 171283
10 | 38:03.59 | 5:25.70 | 171284 | 195728
11 | 43:29.54 | 3:22.52 | 195729 | 210930


Track 1

Filename I:\Jazz Music\RIP\01 - Take the 'A' Train.wav

Pre-gap length 0:00:02.00

Peak level 73.3 %
Track quality 100.0 %
Test CRC F40ECFD6
Copy CRC F40ECFD6
Accurately ripped (confidence 2) [48D581CE]
Copy OK

Track 2

Filename I:\Jazz Music\RIP\02 - In a Sentimental Mood.wav

Peak level 68.0 %
Track quality 100.0 %
Test CRC E0F5E8AC
Copy CRC E0F5E8AC
Accurately ripped (confidence 2) [96C74265]
Copy OK

Track 3

Filename I:\Jazz Music\RIP\03 - Don't Get Around Much Anymore.wav

Peak level 75.0 %
Track quality 99.9 %
Test CRC 18933D10
Copy CRC 18933D10
Accurately ripped (confidence 2) [75C71A80]
Copy OK

Track 4

Filename I:\Jazz Music\RIP\04 - Day Dream.wav

Peak level 90.3 %
Track quality 100.0 %
Test CRC 13CD2B54
Copy CRC 13CD2B54
Accurately ripped (confidence 2) [3FA52929]
Copy OK

Track 5

Filename I:\Jazz Music\RIP\05 - Cotton Tail.wav

Peak level 79.1 %
Track quality 100.0 %
Test CRC 5A49DB88
Copy CRC 5A49DB88
Accurately ripped (confidence 2) [1258348E]
Copy OK

Track 6

Filename I:\Jazz Music\RIP\06 - Pretty Little One.wav

Peak level 53.3 %
Track quality 100.0 %
Test CRC 19B64D1E
Copy CRC 19B64D1E
Accurately ripped (confidence 2) [FE2C123C]
Copy OK

Track 7

Filename I:\Jazz Music\RIP\07 - Tricky's Licks.wav

Peak level 88.6 %
Track quality 100.0 %
Test CRC 56B7E0DF
Copy CRC 56B7E0DF
Accurately ripped (confidence 2) [742EBCD8]
Copy OK

Track 8

Filename I:\Jazz Music\RIP\08 - Blues in C.wav

Peak level 83.7 %
Track quality 100.0 %
Test CRC D8CDC84C
Copy CRC D8CDC84C
Accurately ripped (confidence 2) [36BBF848]
Copy OK

Track 9

Filename I:\Jazz Music\RIP\09 - String Along with Strings.wav

Peak level 92.0 %
Track quality 100.0 %
Test CRC 827FA6D2
Copy CRC 827FA6D2
Accurately ripped (confidence 2) [42644328]
Copy OK

Track 10

Filename I:\Jazz Music\RIP\10 - Limbo Jazz.wav

Peak level 86.6 %
Track quality 100.0 %
Test CRC 32A34572
Copy CRC 32A34572
Accurately ripped (confidence 2) [2D7FF992]
Copy OK

Track 11

Filename I:\Jazz Music\RIP\11 - The Feeling of Jazz.wav

Peak level 64.8 %
Track quality 100.0 %
Test CRC 89A4F7D0
Copy CRC 89A4F7D0
Accurately ripped (confidence 2) [97F8AEAC]
Copy OK


All tracks accurately ripped

No errors occurred

End of status report


[CUETools log; Date: 08.02.2018 10:54:31; Version: 2.1.5]
[AccurateRip ID: 0012aff8-00a336af-8e0afc0b] found.
Track [ CRC | V2 ] Status
01 [48d581ce|b239bf82] (14+45/59) Accurately ripped
02 [96c74265|bf87a398] (14+45/59) Accurately ripped
03 [75c71a80|e212efe7] (14+44/58) Accurately ripped
04 [3fa52929|d793d775] (14+45/59) Accurately ripped
05 [1258348e|f6740b40] (14+45/59) Accurately ripped
06 [fe2c123c|2613e3d8] (14+45/59) Accurately ripped
07 [742ebcd8|dd6a3a6c] (14+45/59) Accurately ripped
08 [36bbf848|c5d74a87] (14+45/59) Accurately ripped
09 [42644328|60c7ecf2] (14+45/59) Accurately ripped
10 [2d7ff992|1e7da0b1] (14+45/59) Accurately ripped
11 [97f8aeac|de7376c7] (14+45/59) Accurately ripped

Track Peak [ CRC32 ] [W/O NULL] [ LOG ]
– 92,0 [2980A728] [D6E39B4F]
01 73,3 [F40ECFD6] [E2C8A9FB] CRC32
02 68,0 [E0F5E8AC] [2E6A9C86] CRC32
03 75,0 [18933D10] [7F7B1D91] CRC32
04 90,3 [13CD2B54] [4F516C30] CRC32
05 79,1 [5A49DB88] [D968A7B8] CRC32
06 53,3 [19B64D1E] [5389142C] CRC32
07 88,6 [56B7E0DF] [DF222409] CRC32
08 83,7 [D8CDC84C] [CD90B15A] CRC32
09 92,0 [827FA6D2] [38C22D8E] CRC32
10 86,6 [32A34572] [496F44B4] CRC32
11 64,8 [89A4F7D0] [BD6C5957] CRC32


Duke Ellington - Original Album Series (2009) Repost

Tracklist CD3 - 1964 - Mary Poppins:

1. A Spoonful Of Sugar
2. Chim Chim Cheree
3. Feed The Birds
4. Let's Go Fly A Kite
5. Stay Awake
6. I Love To Laugh
7. Jolly Holiday
8. Sister Suffragette
9. The Perfect Nanny
10. Step In Time
11. The Life I Lead
12. Supercalifragilisticexpialidocious

Exact Audio Copy V0.99 prebeta 5 from 4. May 2009

EAC extraction logfile from 14. May 2010, 0:36

Duke Ellington / Mary Poppins

Used drive : HL-DT-STDVDRAM GH22NS40 Adapter: 2 ID: 0

Read mode : Secure
Utilize accurate stream : Yes
Defeat audio cache : Yes
Make use of C2 pointers : No

Read offset correction : 667
Overread into Lead-In and Lead-Out : No
Fill up missing offset samples with silence : Yes
Delete leading and trailing silent blocks : No
Null samples used in CRC calculations : Yes
Used interface : Installed external ASPI interface
Gap handling : Appended to previous track

Used output format : User Defined Encoder
Selected bitrate : 768 kBit/s
Quality : High
Add ID3 tag : No
Command line compressor : C:\Program Files (x86)\Exact Audio Copy\FLAC\FLAC.EXE
Additional command line options : -8 -V -T "ARTIST=%a" -T "TITLE=%t" -T "ALBUM=%g" -T "DATE=%y" -T "TRACKNUMBER=%n" -T "GENRE=%m" -T "COMMENT=EAC FLAC -8" %s


TOC of the extracted CD

Track | Start | Length | Start sector | End sector
––––––––––––––––––––––––––––-
1 | 0:00.00 | 3:13.11 | 0 | 14485
2 | 3:13.11 | 2:52.04 | 14486 | 27389
3 | 6:05.15 | 3:42.36 | 27390 | 44075
4 | 9:47.51 | 2:31.01 | 44076 | 55401
5 | 12:18.52 | 2:28.01 | 55402 | 66502
6 | 14:46.53 | 2:29.62 | 66503 | 77739
7 | 17:16.40 | 3:04.66 | 77740 | 91605
8 | 20:21.31 | 3:05.63 | 91606 | 105543
9 | 23:27.19 | 4:09.45 | 105544 | 124263
10 | 27:36.64 | 2:46.15 | 124264 | 136728
11 | 30:23.04 | 3:43.69 | 136729 | 153522
12 | 34:06.73 | 2:27.05 | 153523 | 164552


Track 1

Filename I:\Jazz Music\RIP\01 - A Spoonful of Sugar.wav

Pre-gap length 0:00:02.00

Peak level 100.0 %
Track quality 100.0 %
Test CRC CEAC48D4
Copy CRC CEAC48D4
Accurately ripped (confidence 2) [9D5B48DB]
Copy OK

Track 2

Filename I:\Jazz Music\RIP\02 - Chim Chim Cheree.wav

Pre-gap length 0:00:02.00

Peak level 100.0 %
Track quality 100.0 %
Test CRC B4878BB5
Copy CRC B4878BB5
Accurately ripped (confidence 2) [A5269051]
Copy OK

Track 3

Filename I:\Jazz Music\RIP\03 - Feed the Birds.wav

Pre-gap length 0:00:02.00

Peak level 100.0 %
Track quality 99.9 %
Test CRC 98E9A113
Copy CRC 98E9A113
Accurately ripped (confidence 2) [D24F64B7]
Copy OK

Track 4

Filename I:\Jazz Music\RIP\04 - Let's Go Fly a Kite.wav

Pre-gap length 0:00:02.00

Peak level 100.0 %
Track quality 100.0 %
Test CRC 0C9B8755
Copy CRC 0C9B8755
Accurately ripped (confidence 2) [29F557D5]
Copy OK

Track 5

Filename I:\Jazz Music\RIP\05 - Stay Awake.wav

Pre-gap length 0:00:02.00

Peak level 100.0 %
Track quality 100.0 %
Test CRC 04378A7F
Copy CRC 04378A7F
Accurately ripped (confidence 2) [CFF1EDB2]
Copy OK

Track 6

Filename I:\Jazz Music\RIP\06 - I Love to Laugh.wav

Pre-gap length 0:00:02.00

Peak level 100.0 %
Track quality 100.0 %
Test CRC 0EA058EF
Copy CRC 0EA058EF
Accurately ripped (confidence 2) [5401CC35]
Copy OK

Track 7

Filename I:\Jazz Music\RIP\07 - Jolly Holiday.wav

Pre-gap length 0:00:02.00

Peak level 100.0 %
Track quality 100.0 %
Test CRC C162039F
Copy CRC C162039F
Accurately ripped (confidence 2) [1C72F1FA]
Copy OK

Track 8

Filename I:\Jazz Music\RIP\08 - Sister Suffragette.wav

Pre-gap length 0:00:02.00

Peak level 100.0 %
Track quality 100.0 %
Test CRC 34321BCD
Copy CRC 34321BCD
Accurately ripped (confidence 2) [68C2282A]
Copy OK

Track 9

Filename I:\Jazz Music\RIP\09 - The Perfect Nanny.wav

Pre-gap length 0:00:02.00

Peak level 100.0 %
Track quality 100.0 %
Test CRC 2C4B6966
Copy CRC 2C4B6966
Accurately ripped (confidence 2) [C2DAF527]
Copy OK

Track 10

Filename I:\Jazz Music\RIP\10 - Step in Time.wav

Pre-gap length 0:00:02.00

Peak level 100.0 %
Track quality 100.0 %
Test CRC 6725B55F
Copy CRC 6725B55F
Accurately ripped (confidence 2) [3D8E3E6B]
Copy OK

Track 11

Filename I:\Jazz Music\RIP\11 - The Life I Lead.wav

Pre-gap length 0:00:02.00

Peak level 100.0 %
Track quality 100.0 %
Test CRC D30F0866
Copy CRC D30F0866
Accurately ripped (confidence 2) [B5459A07]
Copy OK

Track 12

Filename I:\Jazz Music\RIP\12 - Supercalifragilisticexpialidocious.wav

Pre-gap length 0:00:02.00

Peak level 100.0 %
Track quality 100.0 %
Test CRC 9D69147A
Copy CRC 9D69147A
Accurately ripped (confidence 2) [CAD231D7]
Copy OK


All tracks accurately ripped

No errors occurred

End of status report


[CUETools log; Date: 08.02.2018 11:00:21; Version: 2.1.5]
[AccurateRip ID: 001033b8-0097583b-ae08920c] found.
Track [ CRC | V2 ] Status
01 [9d5b48db|e261540b] (14+44/64) Accurately ripped
02 [a5269051|4838cc6d] (14+44/64) Accurately ripped
03 [d24f64b7|9b0852e6] (14+44/64) Accurately ripped
04 [29f557d5|dbb3562c] (14+44/64) Accurately ripped
05 [cff1edb2|11de371c] (14+44/64) Accurately ripped
06 [5401cc35|0408f607] (14+44/64) Accurately ripped
07 [1c72f1fa|983b38a2] (14+44/64) Accurately ripped
08 [68c2282a|459078fc] (14+44/64) Accurately ripped
09 [c2daf527|72914cb5] (14+44/64) Accurately ripped
10 [3d8e3e6b|cdf93a35] (14+44/64) Accurately ripped
11 [b5459a07|25d4e198] (14+44/64) Accurately ripped
12 [cad231d7|de520bdd] (13+43/61) Accurately ripped
Offsetted by 18:
01 [4e0bc039] (02/64) Accurately ripped
02 [0dd65071] (02/64) Accurately ripped
03 [0964f0ff] (02/64) Accurately ripped
04 [ea9d072b] (02/64) Accurately ripped
05 [878d55be] (02/64) Accurately ripped
06 [04fc656b] (02/64) Accurately ripped
07 [a36ad5ac] (02/64) Accurately ripped
08 [ed900f46] (02/64) Accurately ripped
09 [0715aa3b] (02/64) Accurately ripped
10 [9200c493] (02/64) Accurately ripped
11 [6f04675b] (02/64) Accurately ripped
12 [677d9c66] (02/61) Accurately ripped

Track Peak [ CRC32 ] [W/O NULL] [ LOG ]
– 100,0 [A72EF06C] [E708834D]
01 100,0 [CEAC48D4] [1025A6E0] CRC32
02 100,0 [B4878BB5] [195DF303] CRC32
03 100,0 [98E9A113] [05E31E14] CRC32
04 100,0 [0C9B8755] [796BA447] CRC32
05 100,0 [04378A7F] [3E6392F2] CRC32
06 100,0 [0EA058EF] [5AD3A199] CRC32
07 100,0 [C162039F] [09182BFD] CRC32
08 100,0 [34321BCD] [B056EF4E] CRC32
09 100,0 [2C4B6966] [74E459D3] CRC32
10 100,0 [6725B55F] [DC49494D] CRC32
11 100,0 [D30F0866] [B8C312B2] CRC32
12 100,0 [9D69147A] [18ED80D9] CRC32


Duke Ellington - Original Album Series (2009) Repost

Tracklist CD4 - Ellington '65 - Hits Of The 60's:

1. Hello Dolly
2. Call Me Irresponsible
3. Fly Me To The Moon (In Other Words)
4. The Peking Theme (So Little Time)
5. Danke Schoen
6. More
7. The Second Time Around
8. Never On Sunday
9. I Left My Heart In San Francisco
10. Blowin' In The Wind
11. Stranger On The Shore

Exact Audio Copy V0.99 prebeta 5 from 4. May 2009

EAC extraction logfile from 14. May 2010, 1:49

Duke Ellington / Ellington '65 - Hits Of The 60's

Used drive : HL-DT-STDVDRAM GH22NS40 Adapter: 2 ID: 0

Read mode : Secure
Utilize accurate stream : Yes
Defeat audio cache : Yes
Make use of C2 pointers : No

Read offset correction : 667
Overread into Lead-In and Lead-Out : No
Fill up missing offset samples with silence : Yes
Delete leading and trailing silent blocks : No
Null samples used in CRC calculations : Yes
Used interface : Installed external ASPI interface
Gap handling : Appended to previous track

Used output format : User Defined Encoder
Selected bitrate : 768 kBit/s
Quality : High
Add ID3 tag : No
Command line compressor : C:\Program Files (x86)\Exact Audio Copy\FLAC\FLAC.EXE
Additional command line options : -8 -V -T "ARTIST=%a" -T "TITLE=%t" -T "ALBUM=%g" -T "DATE=%y" -T "TRACKNUMBER=%n" -T "GENRE=%m" -T "COMMENT=EAC FLAC -8" %s


TOC of the extracted CD

Track | Start | Length | Start sector | End sector
––––––––––––––––––––––––––––-
1 | 0:00.00 | 2:06.37 | 0 | 9486
2 | 2:06.37 | 3:18.23 | 9487 | 24359
3 | 5:24.60 | 2:30.70 | 24360 | 35679
4 | 7:55.55 | 3:03.17 | 35680 | 49421
5 | 10:58.72 | 2:35.64 | 49422 | 61110
6 | 13:34.61 | 2:55.14 | 61111 | 74249
7 | 16:30.00 | 3:43.20 | 74250 | 90994
8 | 20:13.20 | 3:55.00 | 90995 | 108619
9 | 24:08.20 | 3:02.15 | 108620 | 122284
10 | 27:10.35 | 2:25.44 | 122285 | 133203
11 | 29:36.04 | 2:50.08 | 133204 | 145961


Track 1

Filename I:\Jazz Music\RIP\01 - Hello, Dolly.wav

Pre-gap length 0:00:02.00

Peak level 100.0 %
Track quality 99.9 %
Test CRC 3FBD37BE
Copy CRC 3FBD37BE
Accurately ripped (confidence 2) [48A40C30]
Copy OK

Track 2

Filename I:\Jazz Music\RIP\02 - Call Me Irresistable.wav

Pre-gap length 0:00:02.00

Peak level 100.0 %
Track quality 100.0 %
Test CRC 7FD681B0
Copy CRC 7FD681B0
Accurately ripped (confidence 2) [DD79AD61]
Copy OK

Track 3

Filename I:\Jazz Music\RIP\03 - Fly Me To The Moon.wav

Pre-gap length 0:00:02.00

Peak level 100.0 %
Track quality 100.0 %
Test CRC 80D96E66
Copy CRC 80D96E66
Accurately ripped (confidence 2) [6C0F98F2]
Copy OK

Track 4

Filename I:\Jazz Music\RIP\04 - So Little Time.wav

Pre-gap length 0:00:02.00

Peak level 100.0 %
Track quality 100.0 %
Test CRC FA9D237D
Copy CRC FA9D237D
Accurately ripped (confidence 2) [DF960C06]
Copy OK

Track 5

Filename I:\Jazz Music\RIP\05 - Danke schoen.wav

Pre-gap length 0:00:02.00

Peak level 100.0 %
Track quality 100.0 %
Test CRC 94349D3D
Copy CRC 94349D3D
Accurately ripped (confidence 2) [7C62C820]
Copy OK

Track 6

Filename I:\Jazz Music\RIP\06 - More.wav

Pre-gap length 0:00:02.00

Peak level 100.0 %
Track quality 100.0 %
Test CRC 164A6FB5
Copy CRC 164A6FB5
Accurately ripped (confidence 2) [4BF3478F]
Copy OK

Track 7

Filename I:\Jazz Music\RIP\07 - The Second Time Around.wav

Pre-gap length 0:00:01.98

Peak level 100.0 %
Track quality 100.0 %
Test CRC C0FC555D
Copy CRC C0FC555D
Accurately ripped (confidence 2) [CD49DF1D]
Copy OK

Track 8

Filename I:\Jazz Music\RIP\08 - Never On Sunday.wav

Pre-gap length 0:00:02.00

Peak level 100.0 %
Track quality 100.0 %
Test CRC 5C1A00F4
Copy CRC 5C1A00F4
Accurately ripped (confidence 2) [027BC44E]
Copy OK

Track 9

Filename I:\Jazz Music\RIP\09 - I Left My Heart In San Francisco.wav

Pre-gap length 0:00:02.00

Peak level 100.0 %
Track quality 100.0 %
Test CRC A94F680F
Copy CRC A94F680F
Accurately ripped (confidence 2) [5E1C3BEC]
Copy OK

Track 10

Filename I:\Jazz Music\RIP\10 - Blowin' In The Wind.wav

Pre-gap length 0:00:02.00

Peak level 100.0 %
Track quality 100.0 %
Test CRC 10D2A59F
Copy CRC 10D2A59F
Accurately ripped (confidence 2) [9A4630E9]
Copy OK

Track 11

Filename I:\Jazz Music\RIP\11 - Stranger On The Shore.wav

Pre-gap length 0:00:02.00

Peak level 100.0 %
Track quality 100.0 %
Test CRC C1488801
Copy CRC C1488801
Accurately ripped (confidence 2) [FB8F3760]
Copy OK


All tracks accurately ripped

No errors occurred

End of status report


[CUETools log; Date: 08.02.2018 10:48:58; Version: 2.1.5]
[AccurateRip ID: 000d0d50-0072a587-8f079a0b] found.
Track [ CRC | V2 ] Status
01 [48a40c30|327f2026] (14+44/58) Accurately ripped
02 [dd79ad61|6b019bd2] (14+44/58) Accurately ripped
03 [6c0f98f2|252fd403] (14+43/57) Accurately ripped
04 [df960c06|e7ca7bb7] (14+44/58) Accurately ripped
05 [7c62c820|7a7c6438] (14+44/58) Accurately ripped
06 [4bf3478f|afe8ae76] (14+44/58) Accurately ripped
07 [cd49df1d|b49b9ca2] (14+44/58) Accurately ripped
08 [027bc44e|bf16ea09] (14+44/58) Accurately ripped
09 [5e1c3bec|ba82797c] (14+44/58) Accurately ripped
10 [9a4630e9|e1ebad15] (14+44/58) Accurately ripped
11 [fb8f3760|223f96a1] (13+44/57) Accurately ripped

Track Peak [ CRC32 ] [W/O NULL] [ LOG ]
– 100,0 [1DF2D9F7] [9F6C55B5]
01 100,0 [3FBD37BE] [6EE8EF81] CRC32
02 100,0 [7FD681B0] [90E6AA77] CRC32
03 100,0 [80D96E66] [B87D897A] CRC32
04 100,0 [FA9D237D] [2069FB43] CRC32
05 100,0 [94349D3D] [EE5ACBA0] CRC32
06 99,9 [164A6FB5] [2823DD6B] CRC32
07 100,0 [C0FC555D] [9F9899CB] CRC32
08 100,0 [5C1A00F4] [025DBD2D] CRC32
09 100,0 [A94F680F] [A223A725] CRC32
10 99,9 [10D2A59F] [5AE92857] CRC32
11 100,0 [C1488801] [106B4984] CRC32


Duke Ellington - Original Album Series (2009) Repost

Tracklist CD5 - 1965 - Ellington '66:

1. Red Roses For a Blue Lady
2. Charade
3. People
4. All My Loving
5. A Beautiful Friendship
6. I want to Hold Your Hand
7. Days Of Wine And Roses
8. I can't Stop Loving You
9. The Good Life
10. Satin Doll
11. Moon River
12. Ellington '66

Exact Audio Copy V0.99 prebeta 5 from 4. May 2009

EAC extraction logfile from 14. May 2010, 6:48

Duke Ellington / Ellington'66

Used drive : HL-DT-STDVDRAM GH22NS40 Adapter: 2 ID: 0

Read mode : Secure
Utilize accurate stream : Yes
Defeat audio cache : Yes
Make use of C2 pointers : No

Read offset correction : 667
Overread into Lead-In and Lead-Out : No
Fill up missing offset samples with silence : Yes
Delete leading and trailing silent blocks : No
Null samples used in CRC calculations : Yes
Used interface : Installed external ASPI interface
Gap handling : Appended to previous track

Used output format : User Defined Encoder
Selected bitrate : 768 kBit/s
Quality : High
Add ID3 tag : No
Command line compressor : C:\Program Files (x86)\Exact Audio Copy\FLAC\FLAC.EXE
Additional command line options : -8 -V -T "ARTIST=%a" -T "TITLE=%t" -T "ALBUM=%g" -T "DATE=%y" -T "TRACKNUMBER=%n" -T "GENRE=%m" -T "COMMENT=EAC FLAC -8" %s


TOC of the extracted CD

Track | Start | Length | Start sector | End sector
––––––––––––––––––––––––––––-
1 | 0:00.00 | 3:40.15 | 0 | 16514
2 | 3:40.15 | 2:40.49 | 16515 | 28563
3 | 6:20.64 | 3:22.57 | 28564 | 43770
4 | 9:43.46 | 3:26.18 | 43771 | 59238
5 | 13:09.64 | 2:47.53 | 59239 | 71816
6 | 15:57.42 | 2:04.69 | 71817 | 81185
7 | 18:02.36 | 3:23.36 | 81186 | 96446
8 | 21:25.72 | 3:57.19 | 96447 | 114240
9 | 25:23.16 | 3:16.09 | 114241 | 128949
10 | 28:39.25 | 2:31.56 | 128950 | 140330
11 | 31:11.06 | 2:42.25 | 140331 | 152505
12 | 33:53.31 | 2:34.29 | 152506 | 164084


Track 1

Filename I:\Jazz Music\RIP\01 - Red Roses For A Blue Lady.wav

Pre-gap length 0:00:02.00

Peak level 100.0 %
Track quality 100.0 %
Test CRC B6B0F33F
Copy CRC B6B0F33F
Accurately ripped (confidence 2) [9D52E59A]
Copy OK

Track 2

Filename I:\Jazz Music\RIP\02 - Charade.wav

Pre-gap length 0:00:01.98

Peak level 100.0 %
Track quality 100.0 %
Test CRC 8BC42449
Copy CRC 8BC42449
Accurately ripped (confidence 2) [951FEC6C]
Copy OK

Track 3

Filename I:\Jazz Music\RIP\03 - People.wav

Pre-gap length 0:00:02.00

Peak level 100.0 %
Track quality 100.0 %
Test CRC B2DF626F
Copy CRC B2DF626F
Accurately ripped (confidence 2) [1D9D2C53]
Copy OK

Track 4

Filename I:\Jazz Music\RIP\04 - All My Loving.wav

Pre-gap length 0:00:02.00

Peak level 100.0 %
Track quality 100.0 %
Test CRC E3C1D62F
Copy CRC E3C1D62F
Accurately ripped (confidence 2) [E6BB1F2F]
Copy OK

Track 5

Filename I:\Jazz Music\RIP\05 - A Beautiful Friendship.wav

Pre-gap length 0:00:02.00

Peak level 100.0 %
Track quality 99.9 %
Test CRC 9BD05AED
Copy CRC 9BD05AED
Accurately ripped (confidence 2) [0DBD8F40]
Copy OK

Track 6

Filename I:\Jazz Music\RIP\06 - I Want To Hold Your Hand.wav

Pre-gap length 0:00:02.00

Peak level 100.0 %
Track quality 100.0 %
Test CRC A41741F6
Copy CRC A41741F6
Accurately ripped (confidence 2) [A012570B]
Copy OK

Track 7

Filename I:\Jazz Music\RIP\07 - Days Of Wine And Roses.wav

Pre-gap length 0:00:02.00

Peak level 100.0 %
Track quality 100.0 %
Test CRC A4D5AD68
Copy CRC A4D5AD68
Accurately ripped (confidence 2) [B0A1D018]
Copy OK

Track 8

Filename I:\Jazz Music\RIP\08 - I Can't Stop Loving You.wav

Pre-gap length 0:00:02.00

Peak level 100.0 %
Track quality 100.0 %
Test CRC B7B5BD0C
Copy CRC B7B5BD0C
Accurately ripped (confidence 2) [CFE14B7F]
Copy OK

Track 9

Filename I:\Jazz Music\RIP\09 - The Good Life.wav

Pre-gap length 0:00:02.00

Peak level 100.0 %
Track quality 100.0 %
Test CRC 8C66BA31
Copy CRC 8C66BA31
Accurately ripped (confidence 2) [6304146A]
Copy OK

Track 10

Filename I:\Jazz Music\RIP\10 - Satin Doll.wav

Pre-gap length 0:00:02.00

Peak level 100.0 %
Track quality 99.9 %
Test CRC 58916E72
Copy CRC 58916E72
Accurately ripped (confidence 2) [254394EB]
Copy OK

Track 11

Filename I:\Jazz Music\RIP\11 - Moon River.wav

Pre-gap length 0:00:02.00

Peak level 100.0 %
Track quality 100.0 %
Test CRC 50A709CC
Copy CRC 50A709CC
Accurately ripped (confidence 2) [72B3E1EF]
Copy OK

Track 12

Filename I:\Jazz Music\RIP\12 - Ellington '66.wav

Pre-gap length 0:00:02.00

Peak level 100.0 %
Track quality 100.0 %
Test CRC ACC2CB54
Copy CRC ACC2CB54
Accurately ripped (confidence 2) [2A482DD1]
Copy OK


All tracks accurately ripped

No errors occurred

End of status report


[CUETools log; Date: 08.02.2018 10:51:09; Version: 2.1.5]
[AccurateRip ID: 0010bfb4-009b6a35-a3088b0c] found.
Track [ CRC | V2 ] Status
01 [9d52e59a|fb4a2510] (14+45/59) Accurately ripped
02 [951fec6c|510bbee0] (14+45/59) Accurately ripped
03 [1d9d2c53|4886ee1b] (14+45/59) Accurately ripped
04 [e6bb1f2f|494722e6] (14+45/59) Accurately ripped
05 [0dbd8f40|dc19f2e6] (14+45/59) Accurately ripped
06 [a012570b|c3bfbd59] (14+45/59) Accurately ripped
07 [b0a1d018|b36c7ca8] (14+45/59) Accurately ripped
08 [cfe14b7f|c6263cb4] (14+45/59) Accurately ripped
09 [6304146a|8f093d6e] (14+45/59) Accurately ripped
10 [254394eb|c8c66f9a] (13+45/58) Accurately ripped
11 [72b3e1ef|f761657b] (14+45/59) Accurately ripped
12 [2a482dd1|1e7cb806] (13+45/58) Accurately ripped

Track Peak [ CRC32 ] [W/O NULL] [ LOG ]
– 100,0 [DF53A000] [6DD751EE]
01 100,0 [B6B0F33F] [FC8BB964] CRC32
02 100,0 [8BC42449] [81D489FB] CRC32
03 100,0 [B2DF626F] [CD643842] CRC32
04 100,0 [E3C1D62F] [0671DFEE] CRC32
05 100,0 [9BD05AED] [0B82F195] CRC32
06 100,0 [A41741F6] [CF8C1B42] CRC32
07 100,0 [A4D5AD68] [3E8CD1BA] CRC32
08 100,0 [B7B5BD0C] [14C136B2] CRC32
09 100,0 [8C66BA31] [0382148A] CRC32
10 100,0 [58916E72] [18E949BA] CRC32
11 100,0 [50A709CC] [4D08B593] CRC32
12 100,0 [ACC2CB54] [0E879014] CRC32


Duke Ellington - Original Album Series (2009) Repost

All thanks go to the original releaser

Duke Ellington or Duke Ellington in my Blog

Download Duke Ellington - Original Album Series (2009):