Subcategories

Elfenbein - Made In Rock (1977) [Reissue 1995]

Posted By: gribovar
Elfenbein - Made In Rock (1977) [Reissue 1995]

Elfenbein - Made In Rock (1977) [Reissue 1995]
EAC Rip | FLAC (image+.cue+log) - 231 MB | MP3 CBR 320 kbps (LAME 3.93) - 96 MB | Covers (4 MB) included
Genre: Hard Rock, Progressive Rock | RAR 3% Rec. | Label: Ohrwaschl Records (OW 034)

Elfenbein "Made in Rock" CD reissue. These were an obscure 70's Anglo-American styled hard/progressive rock band. Their song-based kind of boogie rockin' style draws comparison to many an ex-Man band, like The Neutrons or Judas Jump (The Crack in the Cosmic Egg).
Tracklist:
01. Tired Anyway
02. Witch Is Burning
03. Stranger To Myself
04. Spider - Blues
05. Lazy Daisy
06. You've Done Me Wrong
07. Can't Find My Way Home
08. Lost Son
09. One More… Little Song

Total time: 39:16

Exact Audio Copy V0.99 prebeta 4 from 23. January 2008

Отчёт EAC об извлечении, выполненном 16. февраля 2011, 14:40

Elfenbein / Made In Rock

Дисковод: ASUS DRW-24B1ST Adapter: 3 ID: 0

Режим чтения : Достоверность
Использование точного потока : Да
Отключение кэша аудио : Да
Использование указателей C2 : Нет

Коррекция смещения при чтении : 6
Способность читать области Lead-in и Lead-out : Нет
Заполнение пропущенных сэмплов тишиной : Да
Удаление блоков с тишиной в начале и конце : Нет
При вычислениях CRC использовались нулевые сэмплы : Да
Интерфейс : Встроенный Win32-интерфейс для Win NT/2000

Выходной формат : Пользовательский кодировщик
Выбранный битрейт : 768 kBit/s
Качество : Высокий
Добавление ID3-тэга : Нет
Утилита сжатия : C:\Program Files\Exact Audio Copy\FLAC\FLAC.EXE
Дополнительные параметры : -6 -V -T "ARTIST=%a" -T "TITLE=%t" -T "ALBUM=%g" -T "DATE=%y" -T "TRACKNUMBER=%n" -T "GENRE=%m" -T "COMMENT=%e" %s -o %d


TOC извлечённого CD

Трек | Старт | Длительность | Начальный сектор | Конечный сектор
––––––––––––––––––––––––––––––––––-
1 | 0:00.00 | 3:07.22 | 0 | 14046
2 | 3:07.22 | 5:28.27 | 14047 | 38673
3 | 8:35.49 | 5:28.01 | 38674 | 63274
4 | 14:03.50 | 5:21.18 | 63275 | 87367
5 | 19:24.68 | 1:58.73 | 87368 | 96290
6 | 21:23.66 | 4:44.48 | 96291 | 117638
7 | 26:08.39 | 5:42.21 | 117639 | 143309
8 | 31:50.60 | 4:00.48 | 143310 | 161357
9 | 35:51.33 | 3:24.21 | 161358 | 176678


Характеристики диапазона извлечения и сообщения об ошибках

Выбранный диапазон

Имя файла C:\Torrent\purple\Elfenbein - Made In Rock.wav

Пиковый уровень 90.3 %
Качество диапазона 100.0 %
CRC теста 53E4DB17
CRC копии 53E4DB17
Копирование… OK

Ошибок не произошло


AccurateRip: сводка

Трек 1 нет в базе данных
Трек 2 нет в базе данных
Трек 3 нет в базе данных
Трек 4 нет в базе данных
Трек 5 нет в базе данных
Трек 6 нет в базе данных
Трек 7 нет в базе данных
Трек 8 нет в базе данных
Трек 9 нет в базе данных

Ни одного трека нет в базе AccurateRip

Конец отчёта

[CUETools log; Date: 14.06.2018 12:13:52; Version: 2.1.4]
[CTDB TOCID: eduJ4615YH4g4EMg9yvDCGr7fyg-] found.
Track | CTDB Status
1 | (1/1) Accurately ripped
2 | (1/1) Accurately ripped
3 | (1/1) Accurately ripped
4 | (1/1) Accurately ripped
5 | (1/1) Accurately ripped
6 | (1/1) Accurately ripped
7 | (1/1) Accurately ripped
8 | (1/1) Accurately ripped
9 | (1/1) Accurately ripped
[AccurateRip ID: 000db651-0064b840-75093309] found.
Track [ CRC | V2 ] Status
01 [c78eb78c|ac39d8a3] (1+1/2) Accurately ripped
02 [e2d1d945|9b827067] (1+1/2) Accurately ripped
03 [94f3be9f|96747f1a] (1+1/2) Accurately ripped
04 [0cc73adc|9bfb21f7] (1+1/2) Accurately ripped
05 [09356940|1ad34247] (1+1/2) Accurately ripped
06 [4356fca6|c0446048] (1+1/2) Accurately ripped
07 [25401e46|ed062c21] (1+1/2) Accurately ripped
08 [1fc4fcb5|18358c25] (1+1/2) Accurately ripped
09 [857c3214|b18f28c2] (1+1/2) Accurately ripped

Track Peak [ CRC32 ] [W/O NULL] [ LOG ]
– 90,3 [53E4DB17] [6F62CE2C] CRC32
01 76,6 [19260981] [EE266710]
02 81,4 [21BCAEE5] [5B7D1824]
03 81,4 [964A147F] [1500F9F9]
04 90,3 [E45459E5] [D8236795]
05 79,8 [22BD140D] [AD17370B]
06 74,7 [9FE498B3] [93AA5339]
07 74,2 [FFB59AE3] [78F9C91F]
08 81,8 [3216B266] [B763C90D]
09 80,9 [D631C7C0] [3F03EDA3]

Thanks to pppurple