Subcategories

Freddie Hubbard - Backlash (1967) {1985 Atlantic Jazz}

Posted By: TestTickles
Freddie Hubbard - Backlash (1967) {1985 Atlantic Jazz}

Freddie Hubbard - Backlash (1967) {1985 Atlantic Jazz}
EAC Rip | FLAC with CUE and log | scans | 240 mb
MP3 CBR 320kbps | RAR | 102 mb
Genre: jazz

Backlash is the 1967 album by American jazz musician Freddie Hubbard. This was the first digital version reissued by Atlantic's jazz division, Atlantic Jazz and true to a number of CD's they reissued, it had different cover artwork than the original but it is the exact same music. All future reissues of Backlash would have the original cover.
'Backlash,' from 1966, finds the former member of Art Blakey's Jazz Messengers in a jazz-R&B hybrid mood with pianist Albert Dailey, drummer Otis Ray Appleton, saxophonist/flutist James Spaulding, and percussionist Ray Barretto. Technically, Hubbard's robust Clifford Brown-influenced chops are in full effect. "On the Que Tee," "Up Jumped Spring," and the title track all reflect the soulful spell of Lee Morgan's hit "Sidewinder." But this date is best remembered for giving the world the first version of Hubbard's lovely jazz standard "Little Sunflower." With the lilting Latin tinges provided by Barretto, Hubbard floats above those rhythms with lyrical ease, reminding us of the majesty of his music.

1. Backlash (4:11)
2. The Return of the Prodigal Son (5:39)
3. Little Sunflower (7:52)
4. On the Que-Tee (5:44)
5. Up Jumped Spring (6:38)
6. Echoes of Blue (9:45)

Freddie Hubbard-trumpet
James Spaulding-alto sax, flute
Albert Dailey- piano
Bob Cunningham-bass
Otis Ray Appleton-drums
Ray Barretto-congas, bongos

Produced bY Arif Mardin
Engineered by Adrian Barber, Phil Iehle & Tom Dowd
Recorded on 19 & 24 October, 1966

EAC extraction logfile from 20. June 2006, 21:11 for CD
Freddie Hubbard / Backlash

Used drive : PIONEER DVD-RW DVR-111D Adapter: 1 ID: 1
Read mode : Secure with NO C2, accurate stream, disable cache
Read offset correction : 48
Overread into Lead-In and Lead-Out : No

Used output format : C:\Program Files\FLAC\flac.exe (User Defined Encoder)
160 kBit/s
Additional command line options : -5 -V -T "ARTIST=%a" -T "TITLE=%t" -T "ALBUM=%g" -T "DATE=%y" -T "TRACKNUMBER=%n" -T "GENRE=%m" -T "COMMENT=EAC Flac 1.1.2 -5" %s

Other options :
Fill up missing offset samples with silence : Yes
Delete leading and trailing silent blocks : No
Native Win32 interface for Win NT & 2000


Track 1
Filename C:\FLAC\Freddie Hubbard - Backlash (1967) [FLAC] {1985 Atlantic Jazz}\01 - Backlash.wav

Pre-gap length 0:00:02.42

Peak level 94.3 %
Track quality 99.9 %
Test CRC C5B0F62A
Copy CRC C5B0F62A
Copy OK

Track 2
Filename C:\FLAC\Freddie Hubbard - Backlash (1967) [FLAC] {1985 Atlantic Jazz}\02 - The Return Of The Prodigal Son.wav

Pre-gap length 0:00:03.80

Peak level 100.0 %
Track quality 99.9 %
Test CRC F0537D29
Copy CRC F0537D29
Copy OK

Track 3
Filename C:\FLAC\Freddie Hubbard - Backlash (1967) [FLAC] {1985 Atlantic Jazz}\03 - Little Sunflower.wav

Pre-gap length 0:00:03.93

Peak level 90.2 %
Track quality 100.0 %
Test CRC 64F44430
Copy CRC 64F44430
Copy OK

Track 4
Filename C:\FLAC\Freddie Hubbard - Backlash (1967) [FLAC] {1985 Atlantic Jazz}\04 - On The Que-Tee.wav

Pre-gap length 0:00:04.06

Peak level 100.0 %
Track quality 99.9 %
Test CRC DDD282AF
Copy CRC DDD282AF
Copy OK

Track 5
Filename C:\FLAC\Freddie Hubbard - Backlash (1967) [FLAC] {1985 Atlantic Jazz}\05 - Up Jumped Spring.wav

Pre-gap length 0:00:04.02

Peak level 94.9 %
Track quality 100.0 %
Test CRC FB7F27FB
Copy CRC FB7F27FB
Copy OK

Track 6
Filename C:\FLAC\Freddie Hubbard - Backlash (1967) [FLAC] {1985 Atlantic Jazz}\06 - Echoes Of Blue.wav

Pre-gap length 0:00:04.26

Peak level 98.6 %
Track quality 100.0 %
Test CRC BC911674
Copy CRC BC911674
Copy OK

No errors occured


End of status report


Freddie Hubbard - Backlash (1967) {1985 Atlantic Jazz}


Thank you to the original uploader