Subcategories

Freddie Hubbard - High Blues Pressure (1968) {1999 Koch Jazz}

Posted By: TestTickles
Freddie Hubbard - High Blues Pressure (1968) {1999 Koch Jazz}

Freddie Hubbard - High Blues Pressure (1968) {1999 Koch Jazz}
EAC Rip | FLAC with CUE and log | scans | 259 mb
MP3 CBR 320kbps | RAR | 105 mb
Genre: jazz

High Blues Pressure is a 1968 album by American jazz musician Freddie Hubbard. Originally released by Atlantic, this was remastered by Gene Paul and reissued in 1999 by Koch Jazz, released as an HDCD.
Freddie Hubbard may be the quintessential hard bop/modern jazz trumpet player. 'High Blues Pressure' was recorded in 1967-68 for Atlantic Records, but style-wise it might well be a Blue Note session–and a very fine one at that. Hubbard's tone is big, brash, fiery and blues-inflected. The wailing solos by Bennie Maupin and the under-rated James Spaulding match the intensity of the fire that Hubbard generates. The program consists of very melodic, earthy hard-bop originals, with touches of "Sidewinder"-like funk (Weldon Irvine's "Can't Let Her Go") and just-south-of-the-border pop-Latin music ("Latina"). The title song is so catchy with its easy, loping groove one wonders why it wasn't a hit single. Unlike some jazz albums from this period, 'Pressure' features great ensemble playing to go with the excellent solos–no tiresome "theme/solos/theme" or "me soloist, you back-up" stuff. This disc comes highly recommended to Acid jazz fans, die-hard Blue Note bop buffs, acoustic jazz newcomers and Hubbard fans alike.

1. Can't Let Her Go (6:13)
2. Latina (4:47)
3. High Blues Pressure (7:31)
4. A Bientot (7:37)
5. True Colors (5:29)
6. For B.P. (9:44)

Freddie Hubbard-trumpet
Bennie Maupin-tenor sax (track 1), flute (track 2)
James Spaulding-alto sax, flute
Kiane Zawadi- trombone, euphonium (tracks 2-3, 5-6)
Howard Johnson-tuba (tracks 2, 3, 5, & 6)
Weldon Irvine-piano (track 1)
Kenny Barron-piano (tracks 2-6)
Herbie Lewis-bass
Freddie Watts-drums
Louis Hayes-drums (tracks 4-6)
Roman "Dog" Broadus-congas (tracks 1-2)

Produced by Joel Dorn
Engineered by Dave Saunders
Tracks 1-3 recorded on 13 November, 1967
Tracks 4-6 recorded on 10 January, 1968
Remastered by Gene Paul

EAC extraction logfile from 21. June 2006, 16:55 for CD
Freddie Hubbard / High Blues Pressure

Used drive : PIONEER DVD-RW DVR-111D Adapter: 1 ID: 1
Read mode : Secure with NO C2, accurate stream, disable cache
Read offset correction : 48
Overread into Lead-In and Lead-Out : No

Used output format : C:\Program Files\FLAC\flac.exe (User Defined Encoder)
160 kBit/s
Additional command line options : -5 -V -T "ARTIST=%a" -T "TITLE=%t" -T "ALBUM=%g" -T "DATE=%y" -T "TRACKNUMBER=%n" -T "GENRE=%m" -T "COMMENT=EAC Flac 1.1.2 -5" %s

Other options :
Fill up missing offset samples with silence : Yes
Delete leading and trailing silent blocks : No
Native Win32 interface for Win NT & 2000


Track 1
Filename C:\FLAC\Freddie Hubbard - High Blues Pressure (1968) [FLAC] {1999 Koch Jazz}\01 - Can't Let Her Go.wav

Pre-gap length 0:00:02.42

Peak level 100.0 %
Track quality 100.0 %
Test CRC 29390256
Copy CRC 29390256
Copy OK

Track 2
Filename C:\FLAC\Freddie Hubbard - High Blues Pressure (1968) [FLAC] {1999 Koch Jazz}\02 - Latina.wav

Pre-gap length 0:00:02.66

Peak level 100.0 %
Track quality 100.0 %
Test CRC 0E4A9179
Copy CRC 0E4A9179
Copy OK

Track 3
Filename C:\FLAC\Freddie Hubbard - High Blues Pressure (1968) [FLAC] {1999 Koch Jazz}\03 - High Blues Pressure.wav

Pre-gap length 0:00:02.66

Peak level 98.2 %
Track quality 100.0 %
Test CRC 4DFC9CC7
Copy CRC 4DFC9CC7
Copy OK

Track 4
Filename C:\FLAC\Freddie Hubbard - High Blues Pressure (1968) [FLAC] {1999 Koch Jazz}\04 - A Bientot.wav

Pre-gap length 0:00:02.66

Peak level 99.9 %
Track quality 100.0 %
Test CRC 589563F9
Copy CRC 589563F9
Copy OK

Track 5
Filename C:\FLAC\Freddie Hubbard - High Blues Pressure (1968) [FLAC] {1999 Koch Jazz}\05 - True Colors.wav

Pre-gap length 0:00:02.66

Peak level 90.3 %
Track quality 99.9 %
Test CRC CA756F7E
Copy CRC CA756F7E
Copy OK

Track 6
Filename C:\FLAC\Freddie Hubbard - High Blues Pressure (1968) [FLAC] {1999 Koch Jazz}\06 - For B.P..wav

Pre-gap length 0:00:02.66

Peak level 97.6 %
Track quality 100.0 %
Test CRC 127055D6
Copy CRC 127055D6
Copy OK

No errors occured


End of status report


Freddie Hubbard - High Blues Pressure (1968) {1999 Koch Jazz}


Thank you to the original uploader