Subcategories

Freddie King - Getting Ready... (1971) {1996 The Right Stuff}

Posted By: TestTickles
Freddie King - Getting Ready... (1971) {1996 The Right Stuff}

Freddie King - Getting Ready… (1971) {1996 The Right Stuff}
EAC Rip | FLAC with CUE and log | scans | 237 mb
MP3 CBR 320kbps | RAR | 81 mb
Genre: blues, electric blues

Getting Ready… is the 1971 album by American blues guitarist and singer Freddie King. Originally released on Leon Russell's Shelter Records, this was remastered and reissued in 1996 on The Right Stuff.
The most striking thing about this wonderful album to me is the convergence of so many regional styles of music. Freddie's hybrid sound of Texas and Chicago blues is further amplified by being recorded at Chicago's Chess studios. Leon Russell adds his Oklahoma/gospel hybrid sound in his masterful production of the album. Throw in the Memphis sound of Don Nix evident in "Going Down" and you have a perfect blend of contrasting styles.

1. Same Old Blues
2. Dust My Broom
3. Worried Life Blues
4. Five Long Years
5. Key To The Highway
6. Going Down
7. Living On The Highway
8. Walking By Myself
9. I'm Tore Down
10. Palace Of The King
u
Freddie King-vocals, electric guitar
Leon Russell-guitar, piano
Don Preston-guitar
Jon Gallie-organ
Donald "Duck" Dunn-bass
Charles Blackwell-drums
Charles Myers-drums
Claudia Lennear-background vocals
Kathi McDonald-background vocals
Don Preston-background vocals
Joey Cooper-background vocals

Produced by Leon Russell & Don Nix
Mixed by John Fry
Mastered by Tim Edmundson
Recorded at Chess Studios, Chicago, Illinois in October 1970

EAC extraction logfile from 28. April 2006, 2:43 for CD
Freddie King / Getting Ready…

Used drive : LITEON DVD-ROM LTD163 Adapter: 0 ID: 2
Read mode : Secure with NO C2, accurate stream, disable cache
Read offset correction : 594
Overread into Lead-In and Lead-Out : No

Used output format : Internal WAV Routines
44.100 Hz; 16 Bit; Stereo

Other options :
Fill up missing offset samples with silence : Yes
Delete leading and trailing silent blocks : No
Native Win32 interface for Win NT & 2000


Track 1
Filename C:\Freddie King - Getting Ready… (1971) [FLAC] {1996 The Right Stuff}\01 - Same Old Blues.wav

Pre-gap length 0:00:02.00

Peak level 92.6 %
Track quality 100.0 %
Test CRC 6E7FEBBB
Copy CRC 6E7FEBBB
Copy OK

Track 2
Filename C:\Freddie King - Getting Ready… (1971) [FLAC] {1996 The Right Stuff}\02 - Dust My Broom.wav

Pre-gap length 0:00:02.81

Peak level 96.1 %
Track quality 100.0 %
Test CRC 9B823A69
Copy CRC 9B823A69
Copy OK

Track 3
Filename C:\Freddie King - Getting Ready… (1971) [FLAC] {1996 The Right Stuff}\03 - Worried Life Blues.wav

Pre-gap length 0:00:01.90

Peak level 93.4 %
Track quality 100.0 %
Test CRC 62EAAED1
Copy CRC 62EAAED1
Copy OK

Track 4
Filename C:\Freddie King - Getting Ready… (1971) [FLAC] {1996 The Right Stuff}\04 - Five Long Years.wav

Pre-gap length 0:00:01.81

Peak level 92.2 %
Track quality 100.0 %
Test CRC 139AECCB
Copy CRC 139AECCB
Copy OK

Track 5
Filename C:\Freddie King - Getting Ready… (1971) [FLAC] {1996 The Right Stuff}\05 - Key to the Highway.wav

Pre-gap length 0:00:02.64

Peak level 97.2 %
Track quality 100.0 %
Test CRC 878EFB7F
Copy CRC 878EFB7F
Copy OK

Track 6
Filename C:\Freddie King - Getting Ready… (1971) [FLAC] {1996 The Right Stuff}\06 - Going Down.wav

Pre-gap length 0:00:02.24

Peak level 89.4 %
Track quality 100.0 %
Test CRC C5989770
Copy CRC C5989770
Copy OK

Track 7
Filename C:\Freddie King - Getting Ready… (1971) [FLAC] {1996 The Right Stuff}\07 - Living on the Highway.wav

Pre-gap length 0:00:02.04

Peak level 88.5 %
Track quality 100.0 %
Test CRC AC9CAF1B
Copy CRC AC9CAF1B
Copy OK

Track 8
Filename C:\Freddie King - Getting Ready… (1971) [FLAC] {1996 The Right Stuff}\08 - Walking by Myself.wav

Pre-gap length 0:00:01.40

Peak level 97.2 %
Track quality 100.0 %
Test CRC D04817A2
Copy CRC D04817A2
Copy OK

Track 9
Filename C:\Freddie King - Getting Ready… (1971) [FLAC] {1996 The Right Stuff}\09 - I'm Tore Down.wav

Pre-gap length 0:00:01.94

Peak level 97.2 %
Track quality 99.9 %
Test CRC 69CC4FC6
Copy CRC 69CC4FC6
Copy OK

Track 10
Filename C:\Freddie King - Getting Ready… (1971) [FLAC] {1996 The Right Stuff}\10 - Palace of the King.wav

Pre-gap length 0:00:01.97

Peak level 90.5 %
Track quality 100.0 %
Test CRC C91EEB60
Copy CRC C91EEB60
Copy OK

No errors occured


End of status report


Freddie King - Getting Ready... (1971) {1996 The Right Stuff}


Thank you to the original uploader