Subcategories

Freddie King - Texas Cannonball (1972) {1996 The Right Stuff}

Posted By: TestTickles
Freddie King - Texas Cannonball (1972) {1996 The Right Stuff}

Freddie King - Texas Cannonball (1972) {1996 The Right Stuff}
EAC Rip | FLAC with CUE and log | scans | 230 mb
MP3 CBR 320kbps | RAR | 83 mb
Genre: blues, electric blues

Texas Cannonball is the 1972 album by American blues guitarist and singer Freddie King. Originally released on Leon Russell's Shelter Records, this was remastered and reissued in 1996 on The Right Stuff.
I was introduced to Freddie King's music going on forty years agoand was fortunate to have actually seen him in concert several times when he visited San Antonio. This is by far my favorite work from Freddie. I'm not a great admirer of Leon Russell, but he does provide Freddie with some exceptional material that has had staying power with me for decades. I still own this on vinyl, a most cherished possession. Every cut is great. Having said that, an alternative would be to buy "The Best of the Shelter Years" because you get most of the cuts on Cannonball and other greats like "Woman Across the River". A real classic and one that the Allman Bros. have recently covered.

There is also a 2002 DVD covering this 1972 album.

1. Lowdown In Lodi (3:06)
2. Reconsider Baby (3:57)
3. Big Legged Woman(3:52)
4. Me and My Guitar (4:02)
5. I'd Rather Be Blind (3:45)
6. Can't Trust Your Neighbor (4:00)
7. You Was Wrong (3:45)
8. How Many More Years (3:25)
9. Ain't No Sunshine (3:15)
10. The Sky Is Crying (3:24)

Freddie King-guitar & vocals
Chuck Blackwell-drums
Jim Gordon-drums
Don Preston-guitar
Carl Radle-bass
Leon Russell-piano
John Gallie-organ
Donald "Duck" Dunn-bass
Al Jackson-drums

Produced by Leon Russell & Denny Cordell
Recorded by Peter Nicholls on 2-4 February, 1972 at Skyhill Studios, Los Angeles, CA
Mixed by John Fry at Ardent Studios, Memphis, Tenessee
Remastered by Tim Edmundson

EAC extraction logfile from 22. April 2006, 14:46 for CD
Freddie King / Texas Cannonball

Used drive : LITEON DVD-ROM LTD163 Adapter: 0 ID: 2
Read mode : Secure with NO C2, accurate stream, disable cache
Read offset correction : 594
Overread into Lead-In and Lead-Out : No

Used output format : Internal WAV Routines
44.100 Hz; 16 Bit; Stereo

Other options :
Fill up missing offset samples with silence : Yes
Delete leading and trailing silent blocks : No
Native Win32 interface for Win NT & 2000


Track 1
Filename C:\FLAC\Freddie King - Texas Cannonball (1972) [FLAC] {1996 The Right Stuff}\01 - Lowdown In Lodi.wav

Pre-gap length 0:00:02.00

Peak level 96.4 %
Track quality 99.9 %
Test CRC 90D16D4B
Copy CRC 90D16D4B
Copy OK

Track 2
Filename C:\FLAC\Freddie King - Texas Cannonball (1972) [FLAC] {1996 The Right Stuff}\02 - Reconsider Baby.wav

Pre-gap length 0:00:02.53

Peak level 96.9 %
Track quality 100.0 %
Test CRC CFB44004
Copy CRC CFB44004
Copy OK

Track 3
Filename C:\FLAC\Freddie King - Texas Cannonball (1972) [FLAC] {1996 The Right Stuff}\03 - Big Legged Woman.wav

Pre-gap length 0:00:00.45

Peak level 91.5 %
Track quality 100.0 %
Test CRC F6A529E4
Copy CRC F6A529E4
Copy OK

Track 4
Filename C:\FLAC\Freddie King - Texas Cannonball (1972) [FLAC] {1996 The Right Stuff}\04 - Me and My Guitar.wav

Pre-gap length 0:00:02.14

Peak level 97.2 %
Track quality 100.0 %
Test CRC 96A744AB
Copy CRC 96A744AB
Copy OK

Track 5
Filename C:\FLAC\Freddie King - Texas Cannonball (1972) [FLAC] {1996 The Right Stuff}\05 - I'd Rather Be Blind.wav

Pre-gap length 0:00:01.93

Peak level 97.2 %
Track quality 99.9 %
Test CRC C12857CE
Copy CRC C12857CE
Copy OK

Track 6
Filename C:\FLAC\Freddie King - Texas Cannonball (1972) [FLAC] {1996 The Right Stuff}\06 - Can't Trust Your Neighbor.wav

Pre-gap length 0:00:00.44

Peak level 93.9 %
Track quality 100.0 %
Test CRC EFF2B0D1
Copy CRC EFF2B0D1
Copy OK

Track 7
Filename C:\FLAC\Freddie King - Texas Cannonball (1972) [FLAC] {1996 The Right Stuff}\07 - You Were Wrong.wav

Pre-gap length 0:00:01.96

Peak level 97.2 %
Track quality 100.0 %
Test CRC 7EE52A85
Copy CRC 7EE52A85
Copy OK

Track 8
Filename C:\FLAC\Freddie King - Texas Cannonball (1972) [FLAC] {1996 The Right Stuff}\08 - How Many More Years.wav

Pre-gap length 0:00:01.52

Peak level 97.1 %
Track quality 100.0 %
Test CRC B7491959
Copy CRC B7491959
Copy OK

Track 9
Filename C:\FLAC\Freddie King - Texas Cannonball (1972) [FLAC] {1996 The Right Stuff}\09 - Ain't No Sunshine.wav

Pre-gap length 0:00:02.13

Peak level 94.1 %
Track quality 99.9 %
Test CRC 34B9209A
Copy CRC 34B9209A
Copy OK

Track 10
Filename C:\FLAC\Freddie King - Texas Cannonball (1972) [FLAC] {1996 The Right Stuff}\10 - The Sky Is Crying.wav

Pre-gap length 0:00:03.52

Peak level 97.2 %
Track quality 100.0 %
Test CRC E5D3C0C2
Copy CRC E5D3C0C2
Copy OK

No errors occured


End of status report


Freddie King - Texas Cannonball (1972) {1996 The Right Stuff}


Thank you to the original uploader