Subcategories

Frijid Pink - Defrosted (1971) {1991 Repertoire}

Posted By: TestTickles
Frijid Pink - Defrosted (1971) {1991 Repertoire}

Frijid Pink - Defrosted (1971) {1991 Repertoire}
EAC Rip | FLAC with CUE and log | scans | 295 mb
MP3 CBR 320kbps | RAR | 112 mb
Genre: blues rock, psychedelic rock

Defrosted is the 1971 album by Frijid Pink. This was remastered and reissued in 1991 by Repertoire Records.
"Defrosted" picks up where Frijid Pink's eponymous debut album left off. That is, it rocks from start to finish. The band, led by lead guitarist Gary Ray Thompson cranks out blues-based rock and roll Motor City style for 50 solid minutes. The folks at Repertoire have added 4 bonus tracks to the 8 included on the original release, adding more than 10 minutes of bonus listening pleasure. The album contains the single "Sing A Song For Freedom" which reached #55 on the charts, a disappointing followup (chart wise) to "House of the Rising Sun" from their debut album which reached #7 in the summer of 1970, just months prior to the original release of "Defrosted." Driven by Gary Ray Thompson's heavy riffing and mind bending solos and Kelly Green's vocals (reminiscent of Blue Cheer's Dickie Peterson) the band sizzles on "Bye Bye Blues" and "Pain In My Heart" among others. Unfortunately, "Defrosted" reached only #149 on the album charts, paling in comparison to the debut album's #11 placing, and following "Defrosted" all the members of Frijid Pink left the band save drummer Rich Stevers, who then formed a new FJ and released two further, quite inferior albums, "Earth Omen" and "All Pink Inside." Thompson's guitar work alone makes this album a worthy addition to a cd collection. For those who enjoyed the debut album this is a must, and for fans of heavy rock, Detroit style, likewise. Its a cryan' shame that the record buying public abandoned the Pink after their first album. No doubt Gary Ray Thompson had plenty of tasty solos left in him. Don't know what ever happened to him, but I do know that 30 years ago, and again today his guitar work brings joy to my heart.

Frijid Pink - Defrosted (1971) {1991 Repertoire}

01. Black Lace (6:10)
02. Sing A Song For Freedom (2:59)
03. I'll Never Be Lonely (5:01)
04. Bye Bye Blues (4:56)
05. Pain in My Heart (8:19)
06. Sloony (3:37)
07. I'm Movin' (4:52)
08. I Haven't Got The Time (4:23)
09. We're Gonna Be There (Bonus Track) (2:28)
10. Shorty Kline (Bonus Track) (2:21)
11. I Love Her (Bonus Track) (2:20)
12. Lost Son (Bonus Track) (2:45)

Tom Beaudry-bass
Rich Stevens-drums, tympani
Kelly Green-vocals & cowbell
Gary Thompson-lead & rhythm guitar
Larry Zelanka-keyboards (uncredited)

Tracks 1-8 produced by Pink & Limeted
Tracks 9-12 Produced by Pink Unlimeted & Vinny Testa

EAC extraction logfile from 3. December 2005, 23:34 for CD
Frijid Pink / Defrosted

Used drive : _NEC DVD_RW ND-3520AW Adapter: 1 ID: 1
Read mode : Secure with NO C2, accurate stream, disable cache
Read offset correction : 48
Overread into Lead-In and Lead-Out : No

Used output format : C:\Program Files\FLAC\flac.exe (User Defined Encoder)
320 kBit/s
Additional command line options : -T "artist=%a" -T "title=%t" -T "album=%g" -T "date=%y" -T "tracknumber=%n" -T "genre=%m" -5 %s

Other options :
Fill up missing offset samples with silence : Yes
Delete leading and trailing silent blocks : No
Installed external ASPI interface


Track 1
Filename C:\Frijid Pink - Defrosted (1971) [FLAC] {1991 Repertoire}\01 - Black Lace.wav

Pre-gap length 0:00:02.00

Peak level 88.0 %
Track quality 100.0 %
Test CRC 67B0DFA3
Copy CRC 67B0DFA3
Copy OK

Track 2
Filename C:\Frijid Pink - Defrosted (1971) [FLAC] {1991 Repertoire}\02 - Sing A Song For Freedom.wav

Pre-gap length 0:00:01.05

Peak level 97.4 %
Track quality 100.0 %
Test CRC 9E523A8F
Copy CRC 9E523A8F
Copy OK

Track 3
Filename C:\Frijid Pink - Defrosted (1971) [FLAC] {1991 Repertoire}\03 - I'll Never Be Lonely.wav

Peak level 92.5 %
Track quality 100.0 %
Test CRC 2AC947F2
Copy CRC 2AC947F2
Copy OK

Track 4
Filename C:\Frijid Pink - Defrosted (1971) [FLAC] {1991 Repertoire}\04 - Bye Bye Blues.wav

Pre-gap length 0:00:01.08

Peak level 83.2 %
Track quality 100.0 %
Test CRC B57C8013
Copy CRC B57C8013
Copy OK

Track 5
Filename C:\Frijid Pink - Defrosted (1971) [FLAC] {1991 Repertoire}\05 - Pain in My Heart.wav

Pre-gap length 0:00:01.28

Peak level 86.0 %
Track quality 100.0 %
Test CRC 7DD29C20
Copy CRC 7DD29C20
Copy OK

Track 6
Filename C:\Frijid Pink - Defrosted (1971) [FLAC] {1991 Repertoire}\06 - Sloony.wav

Peak level 91.7 %
Track quality 99.9 %
Test CRC A072F240
Copy CRC A072F240
Copy OK

Track 7
Filename C:\Frijid Pink - Defrosted (1971) [FLAC] {1991 Repertoire}\07 - I'm Movin'.wav

Pre-gap length 0:00:01.23

Peak level 95.1 %
Track quality 100.0 %
Test CRC BDE6C973
Copy CRC BDE6C973
Copy OK

Track 8
Filename C:\Frijid Pink - Defrosted (1971) [FLAC] {1991 Repertoire}\08 - I Haven't Got The Time.wav

Pre-gap length 0:00:01.18

Peak level 86.5 %
Track quality 99.9 %
Test CRC D4543600
Copy CRC D4543600
Copy OK

Track 9
Filename C:\Frijid Pink - Defrosted (1971) [FLAC] {1991 Repertoire}\09 - We're Gonna Be There.wav

Pre-gap length 0:00:01.35

Peak level 96.3 %
Track quality 100.0 %
Test CRC 7699AAB2
Copy CRC 7699AAB2
Copy OK

Track 10
Filename C:\Frijid Pink - Defrosted (1971) [FLAC] {1991 Repertoire}\10 - Shorty Kline.wav

Pre-gap length 0:00:01.05

Peak level 87.7 %
Track quality 100.0 %
Test CRC 8C6CCC32
Copy CRC 8C6CCC32
Copy OK

Track 11
Filename C:\Frijid Pink - Defrosted (1971) [FLAC] {1991 Repertoire}\11 - I Love Her.wav

Pre-gap length 0:00:01.53

Peak level 75.9 %
Track quality 100.0 %
Test CRC F17B9157
Copy CRC F17B9157
Copy OK

Track 12
Filename C:\Frijid Pink - Defrosted (1971) [FLAC] {1991 Repertoire}\12 - Lost Son.wav

Pre-gap length 0:00:01.50

Peak level 79.4 %
Track quality 100.0 %
Test CRC 4424BCAA
Copy CRC 4424BCAA
Copy OK

No errors occured


End of status report


Frijid Pink - Defrosted (1971) {1991 Repertoire}


Thank you to the original uploader