Subcategories

Fuzzy Haskins - A Whole Nother Radio Active Thang (1994) {Westbound/Ace} **[RE-UP]**

Posted By: TestTickles
Fuzzy Haskins - A Whole Nother Radio Active Thang (1994) {Westbound/Ace} **[RE-UP]**

Fuzzy Haskins - A Whole Nother Radio Active Thang (1994) {Westbound/Ace}
EAC Rip | FLAC with CUE and log | scans | 526 mb
MP3 CBR 320kbps | RAR | 205 mb
Genre: R&B, soul, funk

A Whole Nother Radio Active Thang is a 1994 CD by singer Fuzzy Haskins. It is a combination of two of his albums, 1976's A Whole Nother Thang and 1978's Radio Active, and includes a track sandwiched in the middle, previously unreleased. This was put together by Westbound via Ace UK.


A WHOLE NOTHER THANG (1976)
01. Tangerine Green (4:17)
02. Cookie Jar (4:44)
03. Mr. Junk Man (3:48)
04. I Can See Myself In You (3:23)
05. The Fuz And Da Boog (3:27)
06. Which Way Do I Disco (4:09)
07. Love's Now Is Forever (4:17)
08. Sometimes I Rock And Roll (4:14)
09. I'll Be Loving You (5:45)

PREVIOUSLY UNRELEASED
10. Right Back Where I Started From (3:11)

RADIO ACTIVE (1978)
11. Not Yet (3:55)
12. I Think I Got My Thang Together (3:46)
13. This Situation Called Love (4:48)
14. Gimme Back (Some Of The Love You Got From Me) (5:21)
15. Things We Used To Do (4:19)
16. Woman (4:45)
17. Sinderilla (3:23)
18. Silent Day (5:40)

EAC extraction logfile from 23. April 2006, 13:20 for CD
Fuzzy Haskins / A Whole Nother Radio Active Thang

Used drive : TSSTcorpCD/DVDW TS-H542A Adapter: 1 ID: 0
Read mode : Secure with NO C2, accurate stream, disable cache
Read offset correction : 116
Overread into Lead-In and Lead-Out : No

Used output format : Internal WAV Routines
44.100 Hz; 16 Bit; Stereo

Other options :
Fill up missing offset samples with silence : Yes
Delete leading and trailing silent blocks : No
Installed external ASPI interface


Track 1
Filename C:\FLAC\Fuzzy Haskins - A Whole Nother Radio Active Thang [FLAC] {1994 Westbound, Ace}\01 - Tangerine Green.wav

Pre-gap length 0:00:02.00

Peak level 100.0 %
Track quality 100.0 %
Test CRC D51BF380
Copy CRC D51BF380
Copy OK

Track 2
Filename C:\FLAC\Fuzzy Haskins - A Whole Nother Radio Active Thang [FLAC] {1994 Westbound, Ace}\02 - Cookie Jar.wav

Pre-gap length 0:00:02.04

Peak level 99.9 %
Track quality 99.9 %
Test CRC 3BAA148C
Copy CRC 3BAA148C
Copy OK

Track 3
Filename C:\FLAC\Fuzzy Haskins - A Whole Nother Radio Active Thang [FLAC] {1994 Westbound, Ace}\03 - Mr. Junk Man.wav

Pre-gap length 0:00:01.69

Peak level 100.0 %
Track quality 100.0 %
Test CRC D94DF5D4
Copy CRC D94DF5D4
Copy OK

Track 4
Filename C:\FLAC\Fuzzy Haskins - A Whole Nother Radio Active Thang [FLAC] {1994 Westbound, Ace}\04 - I Can See Myself In You.wav

Pre-gap length 0:00:01.57

Peak level 100.0 %
Track quality 100.0 %
Test CRC 263976B5
Copy CRC 263976B5
Copy OK

Track 5
Filename C:\FLAC\Fuzzy Haskins - A Whole Nother Radio Active Thang [FLAC] {1994 Westbound, Ace}\05 - The Fuz And Da Boog.wav

Pre-gap length 0:00:02.22

Peak level 100.0 %
Track quality 100.0 %
Test CRC 33871A8E
Copy CRC 33871A8E
Copy OK

Track 6
Filename C:\FLAC\Fuzzy Haskins - A Whole Nother Radio Active Thang [FLAC] {1994 Westbound, Ace}\06 - Which Way Do I Disco.wav

Pre-gap length 0:00:01.90

Peak level 100.0 %
Track quality 100.0 %
Test CRC 6C2ECDD1
Copy CRC 6C2ECDD1
Copy OK

Track 7
Filename C:\FLAC\Fuzzy Haskins - A Whole Nother Radio Active Thang [FLAC] {1994 Westbound, Ace}\07 - Love's Now Is Forever.wav

Pre-gap length 0:00:02.82

Peak level 100.0 %
Track quality 100.0 %
Test CRC F058FF04
Copy CRC F058FF04
Copy OK

Track 8
Filename C:\FLAC\Fuzzy Haskins - A Whole Nother Radio Active Thang [FLAC] {1994 Westbound, Ace}\08 - Sometimes I Rock And Roll.wav

Pre-gap length 0:00:02.57

Peak level 89.1 %
Track quality 99.9 %
Test CRC 9B95343C
Copy CRC 9B95343C
Copy OK

Track 9
Filename C:\FLAC\Fuzzy Haskins - A Whole Nother Radio Active Thang [FLAC] {1994 Westbound, Ace}\09 - I'll Be Loving You.wav

Pre-gap length 0:00:01.96

Peak level 100.0 %
Track quality 100.0 %
Test CRC 27C10D12
Copy CRC 27C10D12
Copy OK

Track 10
Filename C:\FLAC\Fuzzy Haskins - A Whole Nother Radio Active Thang [FLAC] {1994 Westbound, Ace}\10 - Right Back Where I Started From.wav

Pre-gap length 0:00:02.29

Peak level 100.0 %
Track quality 99.9 %
Test CRC DCD7F601
Copy CRC DCD7F601
Copy OK

Track 11
Filename C:\FLAC\Fuzzy Haskins - A Whole Nother Radio Active Thang [FLAC] {1994 Westbound, Ace}\11 - Not Yet.wav

Pre-gap length 0:00:02.76

Peak level 100.0 %
Track quality 100.0 %
Test CRC A35B64F2
Copy CRC A35B64F2
Copy OK

Track 12
Filename C:\FLAC\Fuzzy Haskins - A Whole Nother Radio Active Thang [FLAC] {1994 Westbound, Ace}\12 - I Think I Got My Thang Together.wav

Pre-gap length 0:00:01.77

Peak level 100.0 %
Track quality 99.9 %
Test CRC A84AC8E0
Copy CRC A84AC8E0
Copy OK

Track 13
Filename C:\FLAC\Fuzzy Haskins - A Whole Nother Radio Active Thang [FLAC] {1994 Westbound, Ace}\13 - This Situation Called Love.wav

Pre-gap length 0:00:02.80

Peak level 100.0 %
Track quality 100.0 %
Test CRC 761C0669
Copy CRC 761C0669
Copy OK

Track 14
Filename C:\FLAC\Fuzzy Haskins - A Whole Nother Radio Active Thang [FLAC] {1994 Westbound, Ace}\14 - gimme Back (Some Of The Love You Got From Me).wav

Pre-gap length 0:00:00.80

Peak level 100.0 %
Track quality 99.9 %
Test CRC 589D40BD
Copy CRC 589D40BD
Copy OK

Track 15
Filename C:\FLAC\Fuzzy Haskins - A Whole Nother Radio Active Thang [FLAC] {1994 Westbound, Ace}\15 - Things We Used To Do.wav

Pre-gap length 0:00:02.80

Peak level 100.0 %
Track quality 100.0 %
Test CRC 94F76124
Copy CRC 94F76124
Copy OK

Track 16
Filename C:\FLAC\Fuzzy Haskins - A Whole Nother Radio Active Thang [FLAC] {1994 Westbound, Ace}\16 - Woman.wav

Pre-gap length 0:00:01.24

Peak level 100.0 %
Track quality 100.0 %
Test CRC D1AAA8B7
Copy CRC D1AAA8B7
Copy OK

Track 17
Filename C:\FLAC\Fuzzy Haskins - A Whole Nother Radio Active Thang [FLAC] {1994 Westbound, Ace}\17 - Sinderilla.wav

Pre-gap length 0:00:01.80

Peak level 89.1 %
Track quality 100.0 %
Test CRC 7C405998
Copy CRC 7C405998
Copy OK

Track 18
Filename C:\FLAC\Fuzzy Haskins - A Whole Nother Radio Active Thang [FLAC] {1994 Westbound, Ace}\18 - Silent Day.wav

Pre-gap length 0:00:02.86

Peak level 100.0 %
Track quality 100.0 %
Test CRC 8DB5D085
Copy CRC 8DB5D085
Copy OK

No errors occured


End of status report


Fuzzy Haskins - A Whole Nother Radio Active Thang (1994) {Westbound/Ace} **[RE-UP]**


Thank you to the original uploader