Subcategories

Frank Zappa: Collection (1969 - 1981) [Vinyl Rip 16/44 & mp3-320]

Posted By: v3122
Frank Zappa: Collection (1969 - 1981) [Vinyl Rip 16/44 & mp3-320]

Frank Zappa: Collection (1969 - 1981)
6 x Vinyl Rip 16/44 | Flac(Image + Cue) > 1744 Mb
MP3 CBR 320Kbps > 642 Mb | Artwork > 764 Mb
Jazz-Rock, Prog Rock

Frank Vincent Zappa (December 21, 1940 – December 4, 1993) was an American musician, composer, activist and filmmaker. His work was characterized by nonconformity, free-form improvisation, sound experiments, musical virtuosity, and satire of American culture. In a career spanning more than 30 years, Zappa composed rock, pop, jazz, jazz fusion, orchestral and musique concrète works, and produced almost all of the 60-plus albums that he released with his band the Mothers of Invention and as a solo artist. Zappa also directed feature-length films and music videos, and designed album covers. He is considered one of the most innovative and stylistically diverse rock musicians of his era.

As a self-taught composer and performer, Zappa's diverse musical influences led him to create music that was sometimes difficult to categorize. While in his teens, he acquired a taste for 20th-century classical composers such as Edgard Varèse, Igor Stravinsky, and Anton Webern, along with 1950s rhythm and blues and doo-wop music. He began writing classical music in high school, while at the same time playing drums in rhythm and blues bands; later switching to electric guitar. His 1966 debut album with the Mothers of Invention, Freak Out!, combined songs in conventional rock and roll format with collective improvisations and studio-generated sound collages. He continued this eclectic and experimental approach, irrespective of whether the fundamental format was rock, jazz or classical.

Zappa's output is unified by a conceptual continuity he termed "Project/Object", with numerous musical phrases, ideas, and characters reappearing across his albums. His lyrics reflected his iconoclastic views of established social and political processes, structures and movements, often humorously so. He was a strident critic of mainstream education and organized religion, and a forthright and passionate advocate for freedom of speech, self-education, political participation and the abolition of censorship. Unlike many other rock musicians of his generation, he personally disapproved of and seldom used drugs, but supported their decriminalization and regulation.

During Zappa's lifetime, he was a highly productive and prolific artist, earning widespread acclaim from critics and fellow musicians. He had some commercial success, particularly in Europe, and worked as an independent artist for most of his career. He remains a major influence on musicians and composers. His honors include an induction into the 1995 Rock and Roll Hall of Fame and the 1997 Grammy Lifetime Achievement Award. In 2000, he was ranked number 36 on VH1's 100 Greatest Artists of Hard Rock. In 2004, Rolling Stone magazine ranked him at number 71 on its list of the "100 Greatest Artists of All Time", and in 2011 at number 22 on its list of the "100 Greatest Guitarists of All Time"…

~ wiki
Frank Zappa: Collection (1969 - 1981) [Vinyl Rip 16/44 & mp3-320]


Frank Zappa: Collection (1969 - 1981):

Frank Zappa: Collection (1969 - 1981) [Vinyl Rip 16/44 & mp3-320]

Tracklist VNL01 - 1969 - Hot Rats:
Reprise Records, REP 59021, Germany, 1976

A1 Peaches En Regalia
A2 Willie The Pimp
A3 Son Of Mr. Green Genes
B1 Little Umbrellas
B2 The Gumbo Variations
B3 It Must Be A Camel

foobar2000 1.2.9 / Dynamic Range Meter 1.1.1
log date: 2017-11-18 00:55:38

––––––––––––––––––––––––––––––––––––––––
Analyzed: Frank Zappa / Hot Rats
––––––––––––––––––––––––––––––––––––––––

DR Peak RMS Duration Track
––––––––––––––––––––––––––––––––––––––––
DR12 0.00 dB -14.25 dB 3:36 01-Peaches En Regalia
DR12 -0.51 dB -14.64 dB 9:21 02-Willie The Pimp
DR12 -1.11 dB -14.54 dB 8:56 03-Son Of Mr. Green Genes
DR11 -0.75 dB -14.55 dB 3:08 04-Little Umbrellas
DR12 -0.60 dB -13.94 dB 12:48 05-The Gumbo Variations
DR12 -0.99 dB -15.16 dB 5:18 06-It Must Be A Camel
––––––––––––––––––––––––––––––––––––––––

Number of tracks: 6
Official DR value: DR12

Samplerate: 44100 Hz
Channels: 2
Bits per sample: 16
Bitrate: 903 kbps
Codec: FLAC
================================================================================



Frank Zappa: Collection (1969 - 1981) [Vinyl Rip 16/44 & mp3-320]

Tracklist VNL02 - 1972 - Waka/Jawaka - Hot Rats:
Reprise Rec, K 44203, UK

A Big Swifty
B1 Your Mouth
B2 It Just Might Be A One-Shot Deal
B3 Waka/Jawaka

foobar2000 1.2.9 / Dynamic Range Meter 1.1.1
log date: 2017-11-18 00:55:53

––––––––––––––––––––––––––––––––––––––––
Analyzed: Frank Zappa / Waka/Jawaka • Hot Rats
––––––––––––––––––––––––––––––––––––––––

DR Peak RMS Duration Track
––––––––––––––––––––––––––––––––––––––––
DR12 -0.75 dB -14.71 dB 17:22 01-Big Swifty
DR12 -0.07 dB -14.29 dB 3:13 02-Your Mouth
DR13 -0.67 dB -15.43 dB 4:16 03-It Just Might Be A One-Shot Deal
DR11 -1.01 dB -14.03 dB 11:14 04-Waka/Jawaka
––––––––––––––––––––––––––––––––––––––––

Number of tracks: 4
Official DR value: DR12

Samplerate: 44100 Hz
Channels: 2
Bits per sample: 16
Bitrate: 833 kbps
Codec: FLAC
================================================================================



Frank Zappa: Collection (1969 - 1981) [Vinyl Rip 16/44 & mp3-320]

Tracklist VNL03 - 1972 - The Grand Wazoo:
Reprise Rec, K 44209, UK

A1 For Calvin (And His Next Two Hitch-Hikers)
A2 The Grand Wazoo
B1 Cletus Awreetus - Awrightus
B2 Eat That Question
B3 Blessed Relief

foobar2000 1.2.9 / Dynamic Range Meter 1.1.1
log date: 2017-11-18 00:56:06

––––––––––––––––––––––––––––––––––––––––
Analyzed: Frank Zappa / Grand Wazoo
––––––––––––––––––––––––––––––––––––––––

DR Peak RMS Duration Track
––––––––––––––––––––––––––––––––––––––––
DR12 -0.78 dB -16.14 dB 6:08 01-For Calvin (And His Next Two Hitch-Hikers)
DR13 -0.02 dB -14.93 dB 13:21 02-The Grand Wazoo
DR13 -0.34 dB -14.75 dB 2:57 03-Cletus Awreetus - Awrightus
DR12 -0.83 dB -15.03 dB 6:40 04-Eat That Question
DR12 -0.56 dB -15.70 dB 7:57 05-Blessed Relief
––––––––––––––––––––––––––––––––––––––––

Number of tracks: 5
Official DR value: DR12

Samplerate: 44100 Hz
Channels: 2
Bits per sample: 16
Bitrate: 833 kbps
Codec: FLAC
================================================================================



Frank Zappa: Collection (1969 - 1981) [Vinyl Rip 16/44 & mp3-320]

Tracklist VNL04 - 1976 - Zoot Allures:
Warner Bros., BS 2970, USA

A1 Wind Up Workin' In A Gas Station
A2 Black Napkins
A3 The Torture Never Stops
A4 Ms. Pinky
B1 Find Her Finer
B2 Friendly Little Finger
B3 Wonderful Wino
B4 Zoot Allures
B5 Disco Boy

foobar2000 1.2.9 / Dynamic Range Meter 1.1.1
log date: 2017-11-18 00:56:20

––––––––––––––––––––––––––––––––––––––––
Analyzed: Frank Zappa / Zoot Allures
––––––––––––––––––––––––––––––––––––––––

DR Peak RMS Duration Track
––––––––––––––––––––––––––––––––––––––––
DR12 -1.36 dB -15.34 dB 2:32 01-Wind Up Workin' In A Gas Station
DR12 -0.56 dB -15.74 dB 4:19 02-Black Napkins
DR13 -0.88 dB -16.25 dB 9:56 03-The Torture Never Stops
DR12 -1.17 dB -15.24 dB 3:46 04-Ms. Pinky
DR13 -1.34 dB -17.14 dB 4:24 05-Find Her Finer
DR13 -1.37 dB -15.35 dB 4:20 06-Friendly Little Finger
DR12 -0.46 dB -15.64 dB 3:42 07-Wonderful Wino
DR12 -0.83 dB -15.28 dB 4:17 08-Zoot Allures
DR13 -0.67 dB -15.21 dB 5:30 09-Disco Boy
––––––––––––––––––––––––––––––––––––––––

Number of tracks: 9
Official DR value: DR13

Samplerate: 44100 Hz
Channels: 2
Bits per sample: 16
Bitrate: 885 kbps
Codec: FLAC
================================================================================



Frank Zappa: Collection (1969 - 1981) [Vinyl Rip 16/44 & mp3-320]

Tracklist VNL05 - 1979 - Sleep Dirt:
Warner Bros., DSK 2292, USA

A1 Filthy Habits
A2 Flambay
A3 Spider Of Destiny
A4 Regyptian Strut
B1 Time Is Money
B2 Sleep Dirt
B3 The Ocean Is The Ultimate Solution

foobar2000 1.2.9 / Dynamic Range Meter 1.1.1
log date: 2017-11-18 00:56:34

––––––––––––––––––––––––––––––––––––––––
Analyzed: Frank Zappa / Sleep Dirt
––––––––––––––––––––––––––––––––––––––––

DR Peak RMS Duration Track
––––––––––––––––––––––––––––––––––––––––
DR11 -0.06 dB -13.06 dB 7:36 01-Filthy Habits
DR14 -0.09 dB -16.14 dB 5:04 02-Flambay
DR13 -0.05 dB -14.58 dB 2:54 03-Spider Of Destiny
DR12 -0.30 dB -14.81 dB 4:15 04-Regyptian Strut
DR12 -0.06 dB -14.81 dB 2:54 05-Time Is Money
DR13 -1.58 dB -18.11 dB 3:23 06-Sleep Dirt
DR12 -0.06 dB -14.38 dB 13:21 07-The Ocean Is The Ultimate Solution
––––––––––––––––––––––––––––––––––––––––

Number of tracks: 7
Official DR value: DR13

Samplerate: 44100 Hz
Channels: 2
Bits per sample: 16
Bitrate: 829 kbps
Codec: FLAC
================================================================================



Frank Zappa: Collection (1969 - 1981) [Vinyl Rip 16/44 & mp3-320]

Tracklist VNL06 - 1981 - Tinsel Town Rebellion:
Barking Pumpkin Records, PW2 37336, USA

A1 Fine Girl
Drums – David Logemann*
A2 Easy Meat
Drums [First Half] – David Logemann*
A3 For The Young Sophisticate
B1 Love Of My Life
B2 I Ain't Got No Heart
B3 Panty Rap
B4 Tell Me You Love Me
B5 Now You See It - Now You Don't
C1 Dance Contest
Bass – Patrick O'Hearn
C2 The Blue Light
C3 Tinsel Town Rebellion
C4 Pick Me, I'm Clean
D1 Bamboozled By Love
D2 Brown Shoes Don't Make It
D3 Peaches Ⅲ

foobar2000 1.2.9 / Dynamic Range Meter 1.1.1
log date: 2017-11-18 00:56:57

––––––––––––––––––––––––––––––––––––––––
Analyzed: Frank Zappa / Tinsel Town Rebellion
––––––––––––––––––––––––––––––––––––––––

DR Peak RMS Duration Track
––––––––––––––––––––––––––––––––––––––––
DR13 -0.82 dB -15.74 dB 3:33 01-Fine Girl
DR12 -0.45 dB -14.95 dB 9:18 02-Easy Meat
DR14 -0.37 dB -17.09 dB 3:09 03-For The Young Sophisticate
DR13 0.00 dB -15.10 dB 2:17 04-Love Of My Life
DR12 -0.81 dB -15.07 dB 1:59 05-I Ain't Got No Heart
DR14 -1.72 dB -18.59 dB 4:36 06-Panty Rap
DR11 -0.71 dB -14.24 dB 2:07 07-Tell Me You Love Me
DR12 -1.02 dB -15.73 dB 5:03 08-Now You See It - Now You Don't
DR15 -1.91 dB -19.89 dB 3:01 09-Dance Contest
DR12 -1.25 dB -16.07 dB 5:26 10-The Blue Light
DR12 -0.77 dB -15.76 dB 4:34 11-Tinsel Town Rebellion
DR12 -0.99 dB -16.24 dB 5:24 12-Pick Me, I'm Clean
DR13 -1.25 dB -16.52 dB 5:48 13-Bamboozled By Love
DR13 -0.07 dB -16.95 dB 7:15 14-Brown Shoes Don't Make It
DR12 -2.48 dB -18.00 dB 4:55 15-Peaches III
––––––––––––––––––––––––––––––––––––––––

Number of tracks: 15
Official DR value: DR13

Samplerate: 44100 Hz
Channels: 2
Bits per sample: 16
Bitrate: 897 kbps
Codec: FLAC
================================================================================




Original ripper: miklespr
Original format: 24/192
Vinyl Condition: Ex
Cleaning:
Direct Drive Turntable: Yamaha
Cartridge: Empire
Amplifier: BHM-V, Thorens
ADC: RME UC
Postprocessing:

Downsampled to 16/44

The Doors: Collection (1967 - 1971) [Vinyl Rip 16/44 & mp3-320]
The Beatles: Discography (1963 - 1988) [Vinyl Rip 16/44 & mp3-320]
Joe Cocker: Collection (1969 - 1991) [Vinyl Rip 16/44 & mp3-320]


Ten Years After: Collection (1967 - 1974) [Vinyl Rip 16/44 & mp3-320]
Dire Straits: Discography (1978 - 1991) [Vinyl Rip 16/44 & mp3-320]
Bonnie Tyler: Collection (1977 - 1986) [Vinyl Rip 16/44 & mp3-320]
The Beatles: Stereo Vinyl Box Set (2012) [Vinyl Rip 16/44 & mp3-320]
Wolfgang Amadeus Mozart - Die Violin Konzerte (1968) [Vinyl Rip 16/44 & mp3-320]
Eagles - The Studio Albums 1972-1979 (2013) [Vinyl Rip 16/44 & mp3-320]
Pink Floyd: Discography (1967 - 2014) [Vinyl Rip 16/44 & mp3-320]
Led Zeppelin: Discography (1969 - 1982) [Vinyl Rip 16/44 & mp3-320]
Manowar: Collection (1982 - 2012) [Vinyl Rip 16/44 & mp3-320]
A-HA: Collection (1985-2015) [Vinyl Rip 16/44 & mp3-320]
Decca, Wiener Philharmoniker - 6 Classic Analogue LPs (2014) [Vinyl Rip 16/44]
Beethoven - Chicago Symphony Orchestra / Sir Georg Solti ‎– The Nine Symphonies (1975) [Vinyl Rip 16/44 & mp3-320]
Scorpions: Collection (1974 - 2015) [Vinyl Rip 16/44 & mp3-320]
Pink Floyd - Echoes: The Best Of Pink Floyd (2001) [Vinyl Rip 16/44]
Alice Cooper - Paranormal (2017) [Vinyl Rip 16/44 & mp3-320]
Manfred Mann's Earth Band: Collection (1967 - 2014) [Vinyl Rip 16/44 & mp3-320]
Rainbow: Discography (1975 - 1986) [Vinyl Rip 16/44 & mp3-320]
Amanda Lear: Collection (1978 - 1986) [Vinyl Rip 16/44 & mp3-320]
Space & Didier Marouani: Collection (1977 - 1987) [Vinyl Rip 16/44 & mp3-320]
Rod Stewart: Collection (1969 - 1988) [Vinyl Rip 16/44 & mp3-320]
Kraftwerk: Collection (1974 - 1991) [Vinyl Rip 16/44 & mp3-320]
Roger Waters: Vinyl Collection (1970 - 1992) [Vinyl Rip 16/44 & mp3-320] [Vinyl Rip 16/44 & MP3-320]
David Gilmour - Rattle That Lock (2015) [Vinyl Rip 16/44 & mp3-320]
Depeche Mode: Collection (1981 - 2013) [Vinyl Rip 16/44 & mp3-320]
Sade: Discography (1984 - 2010) [Vinyl Rip 16/44 & MP3-320]
Queen: Collection (1973 - 1995) [Vinyl Rip 16/44 & MP3-320]
Metallica: Discography (1983 - 2016) [Vinyl Rip 16/44 & mp3-320]



Frank Zappa or Frank Zappa in my Blog

Download Frank Zappa: Collection (1969 - 1981):