Subcategories

Free - Fire And Water (1970) [1990, Island 258308]

Posted By: Oksana_m
Free - Fire And Water (1970) [1990, Island 258308]

Free - Fire And Water (1970)
EAC | Flac(Image) + Cue + Log > 196 Mb | Mp3 CBR 320Kpbs > 103 Mb
Blues Rock, Classic Rock | TT - 36:02 | Label: Island | Cat. # 2583082 | Germany
Scans (Jpg) Included | NitroFlare, FileFactory

If Fleetwood Mac, Humble Pie, and Foghat were never formed, Free would be considered one of the greatest post-Beatles blues-rock bands to date, and Fire and Water shows why. Conceptually fresh, with a great, roots-oriented, Band-like feel, Free distinguished itself with the public like Black Sabbath and Deep Purple did (in terms of impact, only) in 1970. Free presented itself to the world as a complete band, in every sense of the word. From Paul Kossoff's exquisite and tasteful guitar work, to Paul Rodgers' soulful vocals, this was a group that was easily worthy of the mantle worn by Cream, Blind Faith, or Derek & the Dominos .

by Matthew Greenwald, allmusic.com
Free - Fire And Water (1970) [1990, Island 258308]


*********


Free - Fire And Water (1970) [1990, Island 258308]

Tracklist:

01. Fire And Water 4:04
02. Oh I Wept 4:29
03. Remember 4:29
04. Heavyload 5:23
05. Mr. Big 5:58
06. Don't Say Yoy Love Me 6:06
07. All Right Now 5:32

Exact Audio Copy V1.1 from 23. June 2015

EAC extraction logfile from 3. June 2016, 14:04

Free / Fire And Water (WG Sonopress)

Used drive : HL-DT-STDVD+-RW GH50N Adapter: 1 ID: 0

Read mode : Secure
Utilize accurate stream : Yes
Defeat audio cache : Yes
Make use of C2 pointers : No

Read offset correction : 667
Overread into Lead-In and Lead-Out : No
Fill up missing offset samples with silence : Yes
Delete leading and trailing silent blocks : No
Null samples used in CRC calculations : Yes
Used interface : Native Win32 interface for Win NT & 2000

Used output format : User Defined Encoder
Selected bitrate : 768 kBit/s
Quality : High
Add ID3 tag : No
Command line compressor : C:\Program Files (x86)\Exact Audio Copy\FLAC\FLAC.EXE
Additional command line options : -V -8 -T "Date=%year%" -T "Genre=%genre%" %source%


TOC of the extracted CD

Track | Start | Length | Start sector | End sector
––––––––––––––––––––––––––––-
1 | 0:00.00 | 4:04.02 | 0 | 18301
2 | 4:04.02 | 4:29.23 | 18302 | 38499
3 | 8:33.25 | 4:28.55 | 38500 | 58654
4 | 13:02.05 | 5:22.45 | 58655 | 82849
5 | 18:24.50 | 5:58.27 | 82850 | 109726
6 | 24:23.02 | 6:06.33 | 109727 | 137209
7 | 30:29.35 | 5:32.17 | 137210 | 162126


Range status and errors

Selected range

Filename C:\222\MIX\1970 - Free - Fire And Water (Sonopress)\Free - Fire And Water (WG Sonopress).wav

Peak level 100.0 %
Extraction speed 2.8 X
Range quality 99.9 %
Test CRC EE5B6E12
Copy CRC EE5B6E12
Copy OK

No errors occurred


AccurateRip summary

Track 1 accurately ripped (confidence 17) [AFEE82F9] (AR v2)
Track 2 accurately ripped (confidence 17) [8C960899] (AR v2)
Track 3 accurately ripped (confidence 17) [F2324825] (AR v2)
Track 4 accurately ripped (confidence 17) [37DFC6CB] (AR v2)
Track 5 accurately ripped (confidence 17) [8793D21E] (AR v2)
Track 6 accurately ripped (confidence 16) [C04ECAA7] (AR v2)
Track 7 accurately ripped (confidence 17) [B1597C91] (AR v2)

All tracks accurately ripped

End of status report

–– CUETools DB Plugin V2.1.6

[CTDB TOCID: oYqM2vnjrKmWEl5zl6CfJ78Vkb4-] found
Submit result: oYqM2vnjrKmWEl5zl6CfJ78Vkb4- has been confirmed
Track | CTDB Status
1 | (33/33) Accurately ripped
2 | (32/33) Accurately ripped
3 | (32/33) Accurately ripped
4 | (32/33) Accurately ripped
5 | (32/33) Accurately ripped
6 | (32/33) Accurately ripped
7 | (33/33) Accurately ripped


==== Log checksum A0D37A21D4C9EE1B680DD6533365CA660C61FCE10E08DE99EF7F02A5DCEFE08F ====

foobar2000 1.2.9 / Dynamic Range Meter 1.1.1
log date: 2016-11-21 22:02:31

––––––––––––––––––––––––––––––––––––––––
Analyzed: Free / Fire And Water (WG Sonopress)
––––––––––––––––––––––––––––––––––––––––

DR Peak RMS Duration Track
––––––––––––––––––––––––––––––––––––––––
DR12 -0.24 dB -15.84 dB 4:04 01-Fire And Water
DR15 -0.72 dB -19.47 dB 4:29 02-Oh I Wept
DR15 -0.44 dB -17.38 dB 4:29 03-Remember
DR13 -0.43 dB -17.99 dB 5:23 04-Heavyload
DR14 0.00 dB -17.37 dB 5:58 05-Mr. Big
DR13 0.00 dB -19.13 dB 6:06 06-Don't Say Yoy Love Me
DR13 -0.39 dB -16.42 dB 5:32 07-All Right Now
––––––––––––––––––––––––––––––––––––––––

Number of tracks: 7
Official DR value: DR14

Samplerate: 44100 Hz
Channels: 2
Bits per sample: 16
Bitrate: 690 kbps
Codec: FLAC

[CUETools log; Date: 21.11.2016 15:16:50; Version: 2.1.5]
[CTDB TOCID: oYqM2vnjrKmWEl5zl6CfJ78Vkb4-] found.
Track | CTDB Status
1 | (38/38) Accurately ripped
2 | (37/38) Accurately ripped
3 | (37/38) Accurately ripped
4 | (37/38) Accurately ripped
5 | (37/38) Accurately ripped
6 | (37/38) Accurately ripped
7 | (38/38) Accurately ripped
[AccurateRip ID: 0009448b-0038b6d7-51087107] found.
Track [ CRC | V2 ] Status
01 [5e5339a6|afee82f9] (13+17/30) Accurately ripped
02 [e9c2d796|8c960899] (13+17/30) Accurately ripped
03 [471ba811|f2324825] (13+17/30) Accurately ripped
04 [32c4f84c|37dfc6cb] (13+17/30) Accurately ripped
05 [828e7620|8793d21e] (13+17/30) Accurately ripped
06 [cf3266cb|c04ecaa7] (13+16/29) Accurately ripped
07 [b8930a36|b1597c91] (12+17/29) Accurately ripped

Track Peak [ CRC32 ] [W/O NULL] [ LOG ]
– 100,0 [EE5B6E12] [493AA46A] CRC32
01 97,2 [B1530007] [59643B4E]
02 92,0 [36A24494] [8AA1A7F5]
03 95,0 [825FB000] [E47C1E58]
04 95,1 [34C5818B] [7AEA45FF]
05 100,0 [C823A33A] [A8E43335]
06 100,0 [52188350] [3101E317]
07 95,5 [D8C5341D] [65E0E808]

Free - Fire And Water (1970) [1990, Island 258308]

All thanks go to original releaser Ironbelly