Subcategories

The Gabor Szabo Sextet - The Szabo Equation: Jazz/Mysticism/Exotica (1990) {DCC Jazz}

Posted By: TestTickles
The Gabor Szabo Sextet - The Szabo Equation: Jazz/Mysticism/Exotica (1990) {DCC Jazz}

The Gabor Szabo Sextet - The Szabo Equation: Jazz/Mysticism/Exotica (1990) {DCC Jazz}
EAC Rip | FLAC with CUE and log | scans | 231 mb
MP3 CBR 320kbps | RAR | 103 mb
Genre: jazz

The Szabo Equation: Jazz/Mysticism/Exotic is a 1990 album released by The Gabor Szabo Sextet. It is a compilation of various songs from two albums he released on the Skye label in 1968, Bacchanal and Dreams. This was remastered by Steve Hoffman and Kevin Gray and reissued on DCC Jazz.

The Gabor Szabo Sextet - The Szabo Equation: Jazz/Mysticism/Exotica (1990) {DCC Jazz}

1. Galatea's Guitar (5:33)
2. Sunshine Superman (3:45)
3. Divided City (3:22)
4. The Look Of Love (3:15)
5. Bacchanal (4:55)
6. Some Velvet Morning (5:10)
7. Ferris Wheel (5:27)
8. Song Of Injured Love (4:05)
9. Fire Dance (5:39)
10. Theme From "Valley Of The Dolls" (3:45)

Gabor Szabo-lead guitar
Jim Stewart-second guitar
Mike Melvoin-organ
Louie Kabok-bass
Jim Keltner-drums
Hal Gordon-percussion

Produced by Norman Schwartz & Gary McFarland
Remastered by Steve Hoffman & Kevin Gray
Conversion from analog to digital by Roy Clark

EAC extraction logfile from 13. May 2006, 14:12 for CD
Gabor Szabo Sextet / The Szabo Equation: Jazz / Mysticism / Exotica

Used drive : HL-DT-STDVD-RAM GSA-H20L Adapter: 0 ID: 1
Read mode : Secure with NO C2, accurate stream, disable cache
Read offset correction : 102
Overread into Lead-In and Lead-Out : No

Used output format : Internal WAV Routines
44.100 Hz; 16 Bit; Stereo

Other options :
Fill up missing offset samples with silence : Yes
Delete leading and trailing silent blocks : No
Native Win32 interface for Win NT & 2000


Track 1
Filename C:\FLAC\Gabor Szabo Sextet - The Szabo Equation, Jazz Mysticism Exotica (1990) [FLAC] {DCC Jazz}\01 - Galatea's Guitar.wav

Pre-gap length 0:00:02.00

Peak level 100.0 %
Track quality 100.0 %
Test CRC 53C22AD0
Copy CRC 53C22AD0
Copy OK

Track 2
Filename C:\FLAC\Gabor Szabo Sextet - The Szabo Equation, Jazz Mysticism Exotica (1990) [FLAC] {DCC Jazz}\02 - Sunshine Superman.wav

Pre-gap length 0:00:01.17

Peak level 89.0 %
Track quality 100.0 %
Test CRC 75ADC168
Copy CRC 75ADC168
Copy OK

Track 3
Filename C:\FLAC\Gabor Szabo Sextet - The Szabo Equation, Jazz Mysticism Exotica (1990) [FLAC] {DCC Jazz}\03 - Divided City.wav

Pre-gap length 0:00:03.30

Peak level 86.5 %
Track quality 100.0 %
Test CRC 2F867B05
Copy CRC 2F867B05
Copy OK

Track 4
Filename C:\FLAC\Gabor Szabo Sextet - The Szabo Equation, Jazz Mysticism Exotica (1990) [FLAC] {DCC Jazz}\04 - The Look of Love.wav

Pre-gap length 0:00:02.22

Peak level 89.2 %
Track quality 100.0 %
Test CRC D46B5BB1
Copy CRC D46B5BB1
Copy OK

Track 5
Filename C:\FLAC\Gabor Szabo Sextet - The Szabo Equation, Jazz Mysticism Exotica (1990) [FLAC] {DCC Jazz}\05 - Bacchanal.wav

Pre-gap length 0:00:03.63

Peak level 68.0 %
Track quality 100.0 %
Test CRC A5364CFC
Copy CRC A5364CFC
Copy OK

Track 6
Filename C:\FLAC\Gabor Szabo Sextet - The Szabo Equation, Jazz Mysticism Exotica (1990) [FLAC] {DCC Jazz}\06 - Some Velvet Morning.wav

Pre-gap length 0:00:02.15

Peak level 49.5 %
Track quality 100.0 %
Test CRC 3EF9E1A1
Copy CRC 3EF9E1A1
Copy OK

Track 7
Filename C:\FLAC\Gabor Szabo Sextet - The Szabo Equation, Jazz Mysticism Exotica (1990) [FLAC] {DCC Jazz}\07 - Ferris Wheel.wav

Pre-gap length 0:00:06.30

Peak level 42.1 %
Track quality 99.9 %
Test CRC DF53A9F1
Copy CRC DF53A9F1
Copy OK

Track 8
Filename C:\FLAC\Gabor Szabo Sextet - The Szabo Equation, Jazz Mysticism Exotica (1990) [FLAC] {DCC Jazz}\08 - Song of Injured Love.wav

Pre-gap length 0:00:08.22

Peak level 44.5 %
Track quality 100.0 %
Test CRC 1A23C102
Copy CRC 1A23C102
Copy OK

Track 9
Filename C:\FLAC\Gabor Szabo Sextet - The Szabo Equation, Jazz Mysticism Exotica (1990) [FLAC] {DCC Jazz}\09 - Fire Dance.wav

Pre-gap length 0:00:06.12

Peak level 47.6 %
Track quality 100.0 %
Test CRC DD072966
Copy CRC DD072966
Copy OK

Track 10
Filename C:\FLAC\Gabor Szabo Sextet - The Szabo Equation, Jazz Mysticism Exotica (1990) [FLAC] {DCC Jazz}\10 - Theme from 'Valley of the Dolls'.wav

Pre-gap length 0:00:05.45

Peak level 44.7 %
Track quality 100.0 %
Test CRC FEA7AD1C
Copy CRC FEA7AD1C
Copy OK

No errors occured


End of status report


The Gabor Szabo Sextet - The Szabo Equation: Jazz/Mysticism/Exotica (1990) {DCC Jazz}


Thank you to the original uploader