Subcategories

Gram Parsons - A Song For You (2017) [7CD Limited Edition Box Set]

Posted By: v3122
Gram Parsons - A Song For You (2017) [7CD Limited Edition Box Set]

Gram Parsons - A Song For You (2017))
EAC | Flac(Image) + Cue + Log & MP3 CBR 320Kbps
Sandoz Records, SNZCD2007 | ~ 1853 or 875 Mb | Scans(png) -> 648 Mb
Country Rock / Blues Rock / Pop Rock

Limited Edition 7CD box set featuring rare live performances of GP with the Byrds and Flying Burrito Brothers. Also features Gram's songs performed by Roger McGuinn, Gene Clark, Chris Hillman, Emmylou Harris, Linda Ronstadt, Jerry Garcia. Plus a disc of influences/original versions. Includes booklet. Disc 1. (71.46) - Influences and Original Versions Disc 2 (36.34) - The Byrds -Piper Club, Roma 2nd May 1968, VPRO Broadcast Disc 3. Flying Burrito Brothers -Palomino Club, North Hollywood, Los Angeles, 8th June 1969, KMET-FM Set One (48.08) Disc 4. (45.57) Flying Burrito Brothers - Palomino Club, North Hollywood, Los Angeles, 8th June 1969, KMET-FM Set Two Disc 5. (53.28) Flying Burrito Brothers - Seattle Pop Festival, 27th July 1969, Gold Creek Park, Woodinville, Washington KOL-FM Disc 6. (54.46) A Live Tribute Part One Disc 7 (52.35) A Live Tribute Part Two All tracks sourced from U.S FM broadcasts.

~ amazon


Ingram Cecil Connor III (November 5, 1946 – September 19, 1973), known professionally as Gram Parsons, was an American singer, songwriter, guitarist, and pianist. Parsons is best known for his work within the country music genre; he also popularized what he called "Cosmic American Music", a hybrid of country, rhythm and blues, soul, folk, and rock. Besides recording as a solo artist, he played with the International Submarine Band, The Byrds, and The Flying Burrito Brothers. His relatively short career is described by AllMusic as "enormously influential" for country and rock, "blending the two genres to the point that they became indistinguishable from each other."

Parsons was born in Winter Haven, Florida, and developed an interest in country music while attending Harvard University. He founded the International Submarine Band in 1966 and, after several months of delay, their debut album Safe at Home was released in 1968 (by which time the group had disbanded). Parsons joined The Byrds in early 1968, and played a pivotal role in the making of the seminal Sweetheart of the Rodeo album. After leaving the group in late 1968, Parsons and fellow Byrd Chris Hillman formed The Flying Burrito Brothers in 1969, releasing their debut, The Gilded Palace of Sin, the same year. The album was well received but failed commercially; after a sloppy cross-country tour, they hastily recorded Burrito Deluxe. Parsons was fired from the band before its release in early 1970. He soon signed with A&M Records, but after several unproductive sessions he canceled his intended solo debut in early 1971. Parsons moved to France, where he lived for a short period at Villa Nellcôte with his friend Keith Richards of The Rolling Stones. Returning to America, Parsons met Emmylou Harris through his friend and former bandmate Chris Hillman. She assisted him on vocals for his first solo record, GP, released in 1973. Although it received enthusiastic reviews, the release failed to chart. His next album, Grievous Angel, met with a similar reception, and peaked at number 195 on the Billboard chart. His health deteriorated under several years of alcohol and drug abuse, and he died in 1973 at the age of 26.

Since his death, Parsons has been recognized as an artist credited with helping to found both country rock and alt-country. He never agreed with the term "country rock", as he felt his work should not be categorized into a single genre because it was rather a unique blend of many genres and styles of music with his own personal twang.

His posthumous honors include the Americana Music Association "President's Award" for 2003, and a ranking at No. 87 on Rolling Stone's list of the "100 Greatest Artists of All Time."

~ wiki
Gram Parsons - A Song For You (2017):

Gram Parsons - A Song For You (2017) [7CD Limited Edition Box Set]

Tracklist CD1 - Influences And Original Versions:

01 Dim Lights, Thick Smoke / Flatt & Scruggs
02 A Satisfied Mind / Porter Wagoner
03 Life To Go / Stonewall Jackson
04 Mama / Lefty Frizell
05 The Christian Life / The Louvin Brothers
06 Cold Cold Heart / Hank Williams
07 I’m A Pilgrim / Merle Travis
08 Lucille / Little Richard
09 Bony Moronie / Larry Williams
10 Pretty Polly / Dock Boggs
11 Cash On The Barrel Head / The Louvin Brothers
12 Crazy Arms / Ray Price
13 Ho! Ho! Love ‘Em / Joe Ken Clark & His Merry Mountain Boys
14 Conscience I’m Guilty / Benny Barnes
15 Please Don’t Take Her From Me / Buck Owens
16 I Can’t Control My Heart / Hank Snow
17 What Are They Doing In Heaven Today / Harry & Jeanie West
18 An Old Fashioned Love / Lonnie Irving
19 I’ve Quit Catting Around / Harry Coates
20 I Am A Pilgrim / Merle Travis
21 Candyman / Rev Gary Davis
22 Farther Along / Rose Maddox
23 Millers Cave / Hank Snow
24 You Win Again / Hank Williams
25 Troubles Back In Town / The Wilburn Brothers
26 The Angels Rejoiced Last Night / Louvin Brothers
27 Hearts In A Dream / George Jones
28 A Satisfied Mind / Red Hayes

Exact Audio Copy V1.3 from 2. September 2016

EAC extraction logfile from 3. February 2018, 10:16

Gram Parsons / A Song For You CD1

Used drive : PLEXTOR BD-R PX-B950SA Adapter: 1 ID: 1

Read mode : Secure
Utilize accurate stream : Yes
Defeat audio cache : Yes
Make use of C2 pointers : No

Read offset correction : 6
Overread into Lead-In and Lead-Out : No
Fill up missing offset samples with silence : Yes
Delete leading and trailing silent blocks : No
Null samples used in CRC calculations : Yes
Used interface : Native Win32 interface for Win NT & 2000

Used output format : Internal WAV Routines
Sample format : 44.100 Hz; 16 Bit; Stereo


TOC of the extracted CD

Track | Start | Length | Start sector | End sector
––––––––––––––––––––––––––––-
1 | 0:00.00 | 2:52.71 | 0 | 12970
2 | 2:52.71 | 2:42.06 | 12971 | 25126
3 | 5:35.02 | 2:24.19 | 25127 | 35945
4 | 7:59.21 | 2:19.63 | 35946 | 46433
5 | 10:19.09 | 2:15.39 | 46434 | 56597
6 | 12:34.48 | 2:44.62 | 56598 | 68959
7 | 15:19.35 | 2:03.47 | 68960 | 78231
8 | 17:23.07 | 2:12.55 | 78232 | 88186
9 | 19:35.62 | 3:05.51 | 88187 | 102112
10 | 22:41.38 | 3:02.56 | 102113 | 115818
11 | 25:44.19 | 2:41.29 | 115819 | 127922
12 | 28:25.48 | 2:33.16 | 127923 | 139413
13 | 30:58.64 | 2:15.67 | 139414 | 149605
14 | 33:14.56 | 2:13.36 | 149606 | 159616
15 | 35:28.17 | 2:31.09 | 159617 | 170950
16 | 37:59.26 | 2:28.18 | 170951 | 182068
17 | 40:27.44 | 2:17.39 | 182069 | 192382
18 | 42:45.08 | 2:35.02 | 192383 | 204009
19 | 45:20.10 | 2:48.37 | 204010 | 216646
20 | 48:08.47 | 2:03.47 | 216647 | 225918
21 | 50:12.19 | 3:06.31 | 225919 | 239899
22 | 53:18.50 | 3:20.26 | 239900 | 254925
23 | 56:39.01 | 2:37.47 | 254926 | 266747
24 | 59:16.48 | 2:36.21 | 266748 | 278468
25 | 61:52.69 | 2:19.28 | 278469 | 288921
26 | 64:12.22 | 2:19.70 | 288922 | 299416
27 | 66:32.17 | 2:30.18 | 299417 | 310684
28 | 69:02.35 | 2:42.06 | 310685 | 322840


Range status and errors

Selected range

Filename C:\Users\Alex\Desktop\ALLexxess\Gram Parsons\2017 A Song For You (7CD Box Set Sandoz Records)\CD1 Influences And Original Versions\Gram Parsons - A Song For You CD1.wav

Peak level 100.0 %
Extraction speed 7.9 X
Range quality 100.0 %
Test CRC 02EEAC28
Copy CRC 02EEAC28
Copy OK

No errors occurred


AccurateRip summary

Track 1 not present in database
Track 2 not present in database
Track 3 not present in database
Track 4 not present in database
Track 5 not present in database
Track 6 not present in database
Track 7 not present in database
Track 8 not present in database
Track 9 not present in database
Track 10 not present in database
Track 11 not present in database
Track 12 not present in database
Track 13 not present in database
Track 14 not present in database
Track 15 not present in database
Track 16 not present in database
Track 17 not present in database
Track 18 not present in database
Track 19 not present in database
Track 20 not present in database
Track 21 not present in database
Track 22 not present in database
Track 23 not present in database
Track 24 not present in database
Track 25 not present in database
Track 26 not present in database
Track 27 not present in database
Track 28 not present in database

None of the tracks are present in the AccurateRip database

End of status report

–– CUETools DB Plugin V2.1.6

[CTDB TOCID: 1qLfHFfMtvRvsupbdIDjdqmwD8g-] disk not present in database
Submit result: 1qLfHFfMtvRvsupbdIDjdqmwD8g- has been uploaded


==== Log checksum EE72FFFCC35CB9B4150AB7CA70E13B6F555010D832E1A7CE682E2E88E1BFC886 ====


Gram Parsons - A Song For You (2017) [7CD Limited Edition Box Set]

Tracklist CD2 - The Byrds
Piper Club, Roma 2nd May 1968, VPRO Broadcast:


01 You Don't Miss Your Water
02 Hickory Wind
03 Roger Mcguinn Interview
04 Mr. Spaceman
05 I'll Feel A Whole Lot Better
06 Chimes Of Freedom
07 You Ain't Going Nowhere
08 Old John Robertson
09 Intro
10 The Christian Life
11 Turn! Turn! Turn! (To Everything There Is A Season)
12 My Back Pages / B.J. Blues / Baby What You Want Me To Do

Exact Audio Copy V1.3 from 2. September 2016

EAC extraction logfile from 3. February 2018, 9:21

Gram Parsons / A Song For You CD2

Used drive : PLEXTOR BD-R PX-B950SA Adapter: 1 ID: 1

Read mode : Secure
Utilize accurate stream : Yes
Defeat audio cache : Yes
Make use of C2 pointers : No

Read offset correction : 6
Overread into Lead-In and Lead-Out : No
Fill up missing offset samples with silence : Yes
Delete leading and trailing silent blocks : No
Null samples used in CRC calculations : Yes
Used interface : Native Win32 interface for Win NT & 2000

Used output format : Internal WAV Routines
Sample format : 44.100 Hz; 16 Bit; Stereo


TOC of the extracted CD

Track | Start | Length | Start sector | End sector
––––––––––––––––––––––––––––-
1 | 0:00.00 | 5:19.18 | 0 | 23942
2 | 5:19.18 | 4:15.18 | 23943 | 43085
3 | 9:34.36 | 2:07.37 | 43086 | 52647
4 | 11:41.73 | 2:19.57 | 52648 | 63129
5 | 14:01.55 | 2:11.37 | 63130 | 72991
6 | 16:13.17 | 3:26.00 | 72992 | 88441
7 | 19:39.17 | 2:38.46 | 88442 | 100337
8 | 22:17.63 | 2:21.28 | 100338 | 110940
9 | 24:39.16 | 0:24.28 | 110941 | 112768
10 | 25:03.44 | 3:11.00 | 112769 | 127093
11 | 28:14.44 | 2:36.18 | 127094 | 138811
12 | 30:50.62 | 5:37.00 | 138812 | 164086


Range status and errors

Selected range

Filename C:\Users\Alex\Desktop\ALLexxess\Gram Parsons\2017 A Song For You (7CD Box Set Sandoz Records)\CD2 The Byrds\Gram Parsons - A Song For You CD2.wav

Peak level 100.0 %
Extraction speed 6.5 X
Range quality 100.0 %
Test CRC 96B79050
Copy CRC 96B79050
Copy OK

No errors occurred


AccurateRip summary

Track 1 not present in database
Track 2 not present in database
Track 3 not present in database
Track 4 not present in database
Track 5 not present in database
Track 6 not present in database
Track 7 not present in database
Track 8 not present in database
Track 9 not present in database
Track 10 not present in database
Track 11 not present in database
Track 12 not present in database

None of the tracks are present in the AccurateRip database

End of status report

–– CUETools DB Plugin V2.1.6

[CTDB TOCID: OB6dNWCkuJcSM_nO3BkzzxUwj98-] disk not present in database
Submit result: OB6dNWCkuJcSM_nO3BkzzxUwj98- has been uploaded


==== Log checksum E096CDFA17E06C39112B1815775D08DDB5E3B9ED4A1C5971A51AAB380545A094 ====


Gram Parsons - A Song For You (2017) [7CD Limited Edition Box Set]

Tracklist CD3 - Flying Burrito Brothers
Palomino Club, North Hollywood, Los Angeles,
8th June 1969, KMET-FM / Set One:


01 Sing Me Back Home
02 Train Song
03 Dream Baby / Dream Baby Reprise
04 She Once Lived Here
05 We’ve Got To Got Ourselves Together
06 Long Black Limousine
07 Dark End Of The Street
08 She Thinks I Still Care
09 Undo The Right / Somebody’s Back In Town
10 Lucille
11 I Threw Away The Rose
12 You Win Again

Exact Audio Copy V1.3 from 2. September 2016

EAC extraction logfile from 3. February 2018, 8:14

Gram Parsons / A Song For You CD3

Used drive : PLEXTOR BD-R PX-B950SA Adapter: 1 ID: 1

Read mode : Secure
Utilize accurate stream : Yes
Defeat audio cache : Yes
Make use of C2 pointers : No

Read offset correction : 6
Overread into Lead-In and Lead-Out : No
Fill up missing offset samples with silence : Yes
Delete leading and trailing silent blocks : No
Null samples used in CRC calculations : Yes
Used interface : Native Win32 interface for Win NT & 2000

Used output format : Internal WAV Routines
Sample format : 44.100 Hz; 16 Bit; Stereo


TOC of the extracted CD

Track | Start | Length | Start sector | End sector
––––––––––––––––––––––––––––-
1 | 0:00.00 | 4:12.66 | 0 | 18965
2 | 4:12.66 | 3:32.67 | 18966 | 34932
3 | 7:45.58 | 5:03.07 | 34933 | 57664
4 | 12:48.65 | 4:22.46 | 57665 | 77360
5 | 17:11.36 | 3:27.05 | 77361 | 92890
6 | 20:38.41 | 4:09.14 | 92891 | 111579
7 | 24:47.55 | 4:40.70 | 111580 | 132649
8 | 29:28.50 | 5:10.41 | 132650 | 155940
9 | 34:39.16 | 3:22.31 | 155941 | 171121
10 | 38:01.47 | 2:37.15 | 171122 | 182911
11 | 40:38.62 | 3:58.14 | 182912 | 200775
12 | 44:37.01 | 3:29.32 | 200776 | 216482


Range status and errors

Selected range

Filename C:\Users\Alex\Desktop\ALLexxess\Gram Parsons\2017 A Song For You (7CD Box Set Sandoz Records)\CD3 Flying Burrito Brothers\Gram Parsons - A Song For You CD3.wav

Peak level 99.9 %
Extraction speed 6.8 X
Range quality 99.9 %
Test CRC 7F2BB544
Copy CRC 7F2BB544
Copy OK

No errors occurred


AccurateRip summary

Track 1 not present in database
Track 2 not present in database
Track 3 not present in database
Track 4 not present in database
Track 5 not present in database
Track 6 not present in database
Track 7 not present in database
Track 8 not present in database
Track 9 not present in database
Track 10 not present in database
Track 11 not present in database
Track 12 not present in database

None of the tracks are present in the AccurateRip database

End of status report

–– CUETools DB Plugin V2.1.6

[CTDB TOCID: asW095KmLcLtC1DmcqvXaRC.PR8-] disk not present in database
Submit result: asW095KmLcLtC1DmcqvXaRC.PR8- has been uploaded


==== Log checksum 5D324A4B186A4C47E44C895F318FD5AB0E13C43123A7A7B305BE502CA309A55E ====


Gram Parsons - A Song For You (2017) [7CD Limited Edition Box Set]

Tracklist CD4 - Flying Burrito Brothers
Palomino Club, North Hollywood, Los Angeles,
8th June 1969, KMET-FM / Set Two:


01 Buckaroo
02 Sweet Mental Revenge
03 Another Place, Another Time
04 Life In Prison *
05 Hungry Eyes *
06 High On A Hill Top *
07 Sing Me Back Home
08 Hot Burrito #1
09 Hot Burrito #2
10 Train Song
11 Everybody Loves A Winner

Exact Audio Copy V1.3 from 2. September 2016

EAC extraction logfile from 3. February 2018, 7:34

Gram Parsons / A Song For You CD4

Used drive : PLEXTOR BD-R PX-B950SA Adapter: 1 ID: 1

Read mode : Secure
Utilize accurate stream : Yes
Defeat audio cache : Yes
Make use of C2 pointers : No

Read offset correction : 6
Overread into Lead-In and Lead-Out : No
Fill up missing offset samples with silence : Yes
Delete leading and trailing silent blocks : No
Null samples used in CRC calculations : Yes
Used interface : Native Win32 interface for Win NT & 2000

Used output format : Internal WAV Routines
Sample format : 44.100 Hz; 16 Bit; Stereo


TOC of the extracted CD

Track | Start | Length | Start sector | End sector
––––––––––––––––––––––––––––-
1 | 0:00.00 | 3:21.11 | 0 | 15085
2 | 3:21.11 | 3:31.04 | 15086 | 30914
3 | 6:52.15 | 3:44.00 | 30915 | 47714
4 | 10:36.15 | 3:05.41 | 47715 | 61630
5 | 13:41.56 | 5:14.24 | 61631 | 85204
6 | 18:56.05 | 4:11.12 | 85205 | 104041
7 | 23:07.17 | 4:20.69 | 104042 | 123610
8 | 27:28.11 | 4:06.14 | 123611 | 142074
9 | 31:34.25 | 5:19.69 | 142075 | 166068
10 | 36:54.19 | 4:02.50 | 166069 | 184268
11 | 40:56.69 | 4:58.48 | 184269 | 206666


Range status and errors

Selected range

Filename C:\Users\Alex\Desktop\ALLexxess\Gram Parsons\2017 A Song For You (7CD Box Set Sandoz Records)\CD4 Flying Burrito Brothers\Gram Parsons - A Song For You CD4.wav

Peak level 99.9 %
Extraction speed 6.9 X
Range quality 100.0 %
Test CRC 8A46A50A
Copy CRC 8A46A50A
Copy OK

No errors occurred


AccurateRip summary

Track 1 not present in database
Track 2 not present in database
Track 3 not present in database
Track 4 not present in database
Track 5 not present in database
Track 6 not present in database
Track 7 not present in database
Track 8 not present in database
Track 9 not present in database
Track 10 not present in database
Track 11 not present in database

None of the tracks are present in the AccurateRip database

End of status report

–– CUETools DB Plugin V2.1.6

[CTDB TOCID: mcNt5fCsTOVJ73TxQEKQWWsoB1M-] disk not present in database
Submit result: mcNt5fCsTOVJ73TxQEKQWWsoB1M- has been uploaded


==== Log checksum AF3DB783BA8C550D16A010238DF0BB0D2DE8BF3459E864C86125155D84CEC557 ====


Gram Parsons - A Song For You (2017) [7CD Limited Edition Box Set]

Tracklist CD5 - Flying Burrito Brothers
Seattle Pop Festival, 27th July 1969,
Gold Creek Park, Woodinville, Washington - KOL-FM:


01 Close Up The Honky Tonks
02 Dark End Of The Street
03 Sweet Mental Revenge
04 Image Of Me
05 Christine’s Tune
06 Sin City
07 Out Of Control
08 Wake Up Little Susie
09 You Win Again
10 We’ve Got To Get Ourselves Together
11 She Thinks I Still Care
12 Dream Baby
13 Lucille
14 Take A Message To Mary
15 Train Song

Exact Audio Copy V1.3 from 2. September 2016

EAC extraction logfile from 2. February 2018, 19:30

Gram Parsons / A Song For You CD5

Used drive : PLEXTOR BD-R PX-B950SA Adapter: 1 ID: 1

Read mode : Secure
Utilize accurate stream : Yes
Defeat audio cache : Yes
Make use of C2 pointers : No

Read offset correction : 6
Overread into Lead-In and Lead-Out : No
Fill up missing offset samples with silence : Yes
Delete leading and trailing silent blocks : No
Null samples used in CRC calculations : Yes
Used interface : Native Win32 interface for Win NT & 2000

Used output format : Internal WAV Routines
Sample format : 44.100 Hz; 16 Bit; Stereo


TOC of the extracted CD

Track | Start | Length | Start sector | End sector
––––––––––––––––––––––––––––-
1 | 0:00.00 | 2:38.17 | 0 | 11866
2 | 2:38.17 | 3:52.49 | 11867 | 29315
3 | 6:30.66 | 3:14.28 | 29316 | 43893
4 | 9:45.19 | 3:18.59 | 43894 | 58802
5 | 13:04.03 | 5:32.23 | 58803 | 83725
6 | 18:36.26 | 4:07.60 | 83726 | 102310
7 | 22:44.11 | 2:48.68 | 102311 | 114978
8 | 25:33.04 | 3:05.60 | 114979 | 128913
9 | 28:38.64 | 3:37.01 | 128914 | 145189
10 | 32:15.65 | 3:42.52 | 145190 | 161891
11 | 35:58.42 | 5:27.05 | 161892 | 186421
12 | 41:25.47 | 2:53.05 | 186422 | 199401
13 | 44:18.52 | 2:37.08 | 199402 | 211184
14 | 46:55.60 | 3:04.26 | 211185 | 225010
15 | 50:00.11 | 3:26.10 | 225011 | 240470


Range status and errors

Selected range

Filename C:\Users\Alex\Desktop\ALLexxess\Gram Parsons\2017 A Song For You (7CD Box Set Sandoz Records)\CD5 Flying Burrito Brothers\Gram Parsons - A Song For You CD5.wav

Peak level 99.9 %
Extraction speed 7.2 X
Range quality 100.0 %
Test CRC F334D62C
Copy CRC F334D62C
Copy OK

No errors occurred


AccurateRip summary

Track 1 not present in database
Track 2 not present in database
Track 3 not present in database
Track 4 not present in database
Track 5 not present in database
Track 6 not present in database
Track 7 not present in database
Track 8 not present in database
Track 9 not present in database
Track 10 not present in database
Track 11 not present in database
Track 12 not present in database
Track 13 not present in database
Track 14 not present in database
Track 15 not present in database

None of the tracks are present in the AccurateRip database

End of status report

–– CUETools DB Plugin V2.1.6

[CTDB TOCID: DOU8oqjXso5r95uegler.r_4BSY-] disk not present in database
Submit result: DOU8oqjXso5r95uegler.r_4BSY- has been uploaded


==== Log checksum F4F8303EBBD51E5369A777E9F5673647049E6B2095938A9B2A363897A1C8D587 ====


Gram Parsons - A Song For You (2017) [7CD Limited Edition Box Set]

Tracklist CD6 - A Live Tribute Part One:

01 Sin City (Uncle Tupelo, WFMU Radio, East Orange, NJ Jule 29th 1990)
02 Hickory Wind
(Roger McGuinn's Thunderbyrd - WLIR Living Room Concert,
Glen Cove, N.Y. September 14th 1976)
03 Six Days On The Road
(Flying Burrito Brothers - The Record Plant,
Hollywood, CA, September 19th 1971)
04 One Hundred Years From Now
(Flying Burrito Brothers - The Record Plant,
Hollywood, CA, September 19th 1971)
05 My Uncle
(Flying Burrito Brothers - The Record Plant,
Hollywood, CA, September 19th 1971)
06 Christine’s Tune (Devil In Disguise)
(Flying Burrito Brothers - The Record Plant,
Hollywood, CA, September 19th 1971)
07 Hot Burrito #2
(Flying Burrito Brothers - The Record Plant,
Hollywood, CA, September 19th 1971)
08 Love Hurts
(Jayhawks - Slim's, San Francisco,
April 29th 1995 - KFOG-FM)
09 Return Of The Grievous Angel
(Emmylou Harris & The Hot Band - My Father's Place,
Roslyn, N.Y. September 14th 1976)
10 Sin City
(Emmylou Harris & The Hot Band - My Father's Place,
Roslyn, N.Y. September 14th 1976)
11 Wheels
(Emmylou Harris & The Hot Band - My Father's Place,
Roslyn, N.Y. September 14th 1976)
12 Ooh Las Vegas
(Emmylou Harris & The Hot Band - My Father's Place,
Roslyn, N.Y. September 14th 1976)
13 Down In The Churchyard
(Chris Hillman - Ebbets Field,
Denver, May 8th 1975 KDPI)
14 Christine’s Tune (Devil In Disguise)
(Chris Hillman - Ebbets Field,
Denver, May 8th 1975 KDPI)
15 Six Days On The Road
(Chris Hillman - Ebbets Field,
Denver, May 8th 1975 KDPI)
16 Wild Horses
(Old & In The Way featuring Jerry Garcia - The Boarding House,
San Francisco, April 16th 1973 - WBAI-FM)

Exact Audio Copy V1.3 from 2. September 2016

EAC extraction logfile from 2. February 2018, 19:00

Gram Parsons / A Song For You CD6

Used drive : PLEXTOR BD-R PX-B950SA Adapter: 1 ID: 1

Read mode : Secure
Utilize accurate stream : Yes
Defeat audio cache : Yes
Make use of C2 pointers : No

Read offset correction : 6
Overread into Lead-In and Lead-Out : No
Fill up missing offset samples with silence : Yes
Delete leading and trailing silent blocks : No
Null samples used in CRC calculations : Yes
Used interface : Native Win32 interface for Win NT & 2000

Used output format : Internal WAV Routines
Sample format : 44.100 Hz; 16 Bit; Stereo


TOC of the extracted CD

Track | Start | Length | Start sector | End sector
––––––––––––––––––––––––––––-
1 | 0:00.00 | 3:52.00 | 0 | 17399
2 | 3:52.00 | 0:52.65 | 17400 | 21364
3 | 4:44.65 | 2:59.02 | 21365 | 34791
4 | 7:43.67 | 2:42.03 | 34792 | 46944
5 | 10:25.70 | 2:14.57 | 46945 | 57051
6 | 12:40.52 | 3:26.47 | 57052 | 72548
7 | 16:07.24 | 4:03.46 | 72549 | 90819
8 | 20:10.70 | 2:51.00 | 90820 | 103644
9 | 23:01.70 | 4:46.00 | 103645 | 125094
10 | 27:47.70 | 4:16.00 | 125095 | 144294
11 | 32:03.70 | 3:16.56 | 144295 | 159050
12 | 35:20.51 | 4:02.15 | 159051 | 177215
13 | 39:22.66 | 4:10.40 | 177216 | 196005
14 | 43:33.31 | 3:18.35 | 196006 | 210890
15 | 46:51.66 | 2:39.53 | 210891 | 222868
16 | 49:31.44 | 5:09.00 | 222869 | 246043


Range status and errors

Selected range

Filename C:\Users\Alex\Desktop\ALLexxess\Gram Parsons\2017 A Song For You (7CD Box Set Sandoz Records)\CD6 A Live Tribute Part One\Gram Parsons - A Song For You CD6.wav

Peak level 99.9 %
Extraction speed 7.2 X
Range quality 100.0 %
Test CRC 530BE31A
Copy CRC 530BE31A
Copy OK

No errors occurred


AccurateRip summary

Track 1 not present in database
Track 2 not present in database
Track 3 not present in database
Track 4 not present in database
Track 5 not present in database
Track 6 not present in database
Track 7 not present in database
Track 8 not present in database
Track 9 not present in database
Track 10 not present in database
Track 11 not present in database
Track 12 not present in database
Track 13 not present in database
Track 14 not present in database
Track 15 not present in database
Track 16 not present in database

None of the tracks are present in the AccurateRip database

End of status report

–– CUETools DB Plugin V2.1.6

[CTDB TOCID: oW_eh1DokFGhmfIqtMdyC59ir7U-] disk not present in database
Submit result: oW_eh1DokFGhmfIqtMdyC59ir7U- has been uploaded


==== Log checksum 27F4926C2363290D59E8AD8FC0133794FC5BE986DB0F5724E0F0456704516F88 ====


Gram Parsons - A Song For You (2017) [7CD Limited Edition Box Set]

Tracklist CD7 - A Live Tribute Part Two:

01 Roger Mcguinn Intro / Drugstore Truck Drivin' Man
(The Byrds - Avalon Ballroom, San Francisco, November 2nd 1968)
02 Hickory Wind
(The Byrds - Avalon Ballroom, San Francisco, November 2nd 1968)
03 Still Feelin Blue
(Flyte: Gene Clark, Chris Hillman, Herb Pedersen, Al Perkins, Trey Thompson
- Palomino Club, North Hollywood, CA, December 18th 1982)
04 Wheels
(Flyte: Gene Clark, Chris Hillman, Herb Pedersen, Al Perkins, Trey Thompson
- Palomino Club, North Hollywood, CA, December 18th 1982)
05 My Uncle
(Flyte: Gene Clark, Chris Hillman, Herb Pedersen, Al Perkins, Trey Thompson
- Palomino Club, North Hollywood, CA, December 18th 1982)
06 100 Years From Now
(Flyte: Gene Clark, Chris Hillman, Herb Pedersen, Al Perkins, Trey Thompson
- Palomino Club, North Hollywood, CA, December 18th 1982)
07 Dim Lights, Thick Smoke
(Flying Burrito Brothers - Starwood Nightclub,
West Hollywood, CA, September 6th 1976)
08 Hot Burrito #2
(Flying Burrito Brothers - Starwood Nightclub,
West Hollywood, CA, September 6th 1976)
09 Christine’s Tune (Devil In Disguise)
(Flying Burrito Brothers - Starwood Nightclub,
West Hollywood, CA, September 6th 1976)
10 Wheels
(Flying Burrito Brothers - Starwood Nightclub,
West Hollywood, CA, September 6th 1976)
11 Six Days On The Road
(Flying Burrito Brothers - Starwood Nightclub,
West Hollywood, CA, September 6th 1976)
12 Close Up The Honky Tonks
(Flying Burrito Brothers - Starwood Nightclub,
West Hollywood, CA, September 6th 1976)
13 Durgstore Turck Drivin’ Man
(Flying Burrito Brothers - Starwood Nightclub,
West Hollywood, CA, September 6th 1976)
14 Silver Threads & Golden Needles
(Linda Ronstadt - Record Plant, Sausalito, CA,
November 18th 1973, KSAN-FM)
15 Dark End Of The Street
(Linda Ronstadt - Record Plant, Sausalito, CA,
November 18th 1973, KSAN-FM)
16 Widowmaker
(Gram Parsons WBCN Radio, Boston, March 18th 1973)

Exact Audio Copy V1.3 from 2. September 2016

EAC extraction logfile from 2. February 2018, 18:17

Gram Parsons / A Song For You CD7

Used drive : PLEXTOR BD-R PX-B950SA Adapter: 1 ID: 1

Read mode : Secure
Utilize accurate stream : Yes
Defeat audio cache : Yes
Make use of C2 pointers : No

Read offset correction : 6
Overread into Lead-In and Lead-Out : No
Fill up missing offset samples with silence : Yes
Delete leading and trailing silent blocks : No
Null samples used in CRC calculations : Yes
Used interface : Native Win32 interface for Win NT & 2000

Used output format : Internal WAV Routines
Sample format : 44.100 Hz; 16 Bit; Stereo


TOC of the extracted CD

Track | Start | Length | Start sector | End sector
––––––––––––––––––––––––––––-
1 | 0:00.00 | 5:24.00 | 0 | 24299
2 | 5:24.00 | 2:39.09 | 24300 | 36233
3 | 8:03.09 | 2:10.65 | 36234 | 46048
4 | 10:13.74 | 3:06.46 | 46049 | 60044
5 | 13:20.45 | 2:09.28 | 60045 | 69747
6 | 15:29.73 | 2:48.18 | 69748 | 82365
7 | 18:18.16 | 2:15.18 | 82366 | 92508
8 | 20:33.34 | 4:18.37 | 92509 | 111895
9 | 24:51.71 | 5:04.00 | 111896 | 134695
10 | 29:55.71 | 3:34.37 | 134696 | 150782
11 | 33:30.33 | 4:10.00 | 150783 | 169532
12 | 37:40.33 | 2:57.37 | 169533 | 182844
13 | 40:37.70 | 2:18.56 | 182845 | 193250
14 | 42:56.51 | 2:25.00 | 193251 | 204125
15 | 45:21.51 | 4:09.56 | 204126 | 222856
16 | 49:31.32 | 3:02.37 | 222857 | 236543


Range status and errors

Selected range

Filename C:\Users\Alex\Desktop\ALLexxess\Gram Parsons\2017 A Song For You (7CD Box Set Sandoz Records)\CD7 A Live Tribute Part Two\Gram Parsons - A Song For You CD7.wav

Peak level 99.8 %
Extraction speed 7.2 X
Range quality 100.0 %
Test CRC 66BA039D
Copy CRC 66BA039D
Copy OK

No errors occurred


AccurateRip summary

Track 1 not present in database
Track 2 not present in database
Track 3 not present in database
Track 4 not present in database
Track 5 not present in database
Track 6 not present in database
Track 7 not present in database
Track 8 not present in database
Track 9 not present in database
Track 10 not present in database
Track 11 not present in database
Track 12 not present in database
Track 13 not present in database
Track 14 not present in database
Track 15 not present in database
Track 16 not present in database

None of the tracks are present in the AccurateRip database

End of status report

–– CUETools DB Plugin V2.1.6

[CTDB TOCID: VzB9lLaWoB8kbGiu4erDwSQIVnw-] disk not present in database
Submit result: VzB9lLaWoB8kbGiu4erDwSQIVnw- has been uploaded


==== Log checksum 5101CAC0B8D68A7F987B78CF4D07A4FBFEED842A5A57BC65F21DF7FEFDBEC92F ====


Gram Parsons - A Song For You (2017) [7CD Limited Edition Box Set]

All thanks go to ALLexxess

Gram Parsons or Gram Parsons in my Blog

Download Gram Parsons - A Song For You (2017):