Subcategories

Herbie Mann - Verve Jazz Masters 56 (1996)

Posted By: gribovar
Warlock Chronicles Digital 1-8

Herbie Mann - Verve Jazz Masters 56 (1996)
EAC Rip | FLAC (tracks+.cue+log) - 402 MB | MP3 CBR 320 kbps (LAME 3.93) - 179 MB | Covers - 27 MB
Genre: Jazz | RAR 3% Rec. | Label: Verve (529 901-2)

During the three years that he recorded for Verve, flutist Herbie Mann's playing changed from straight bop to incorporating elements of Latin, African and South American music. This CD reissues all of the music from one former LP (Flautista) and several of the selections from two others (The Magic Flute of Herbie Mann and Herbie Mann's Cuban Band). Whether it be with a standard quartet, backed by a string section, jamming with a sextet that includes two percussionists or interacting with a brass section, the flutist is heard in explorative form, satisfying his fertile musical curiosity; he even plays bass clarinet and piccolo on one song apiece. Highlights of this excellent overview of Mann's Verve period include "Baia," "Oodles of Noodles" (Jimmy Dorsey's theme song "Contrasts"), "The Peanut Vendor," "Cuban Patato Chip" and "Caravan."
Tracklist:
01. St. Louis Blues
02. Baia
03. Evolution of Mann
04. Oodles of Noodles
05. The Peanut Vendor
06. Star Dust
07. Strike Up the Band
08. Todos Locos
09. Cuban Patato Chip ["Cuban Potato Chips"]
10. Come on, Mule
11. The Amazon River
12. Caravan
13. A Ritual
14. You Stepped Out of a Dream
15. Fife'n'Tambourine Corps

Total time: 01:15:23

EAC extraction logfile from 10. November 2007, 17:09 for CD
Herbie Mann / Verve Jazz Masters 56

Used drive : Optiarc DVD RW AD-5170A Adapter: 1 ID: 0
Read mode : Secure with NO C2, accurate stream, disable cache
Read offset correction : 48
Overread into Lead-In and Lead-Out : No

Used output format : D:\tools\FLAC\flac.exe (User Defined Encoder)
128 kBit/s
Additional command line options : -V -8 -T "artist=%a" -T "title=%t" -T "album=%g" -T "date=%y" -T "tracknumber=%n" -T "genre=%m" %s

Other options :
Fill up missing offset samples with silence : Yes
Delete leading and trailing silent blocks : No
Native Win32 interface for Win NT & 2000


Track 1
Filename D:\0\Herbie Mann - Verve Jazz Masters 56 (1996) [FLAC]\01 - St. Louis Blues.wav

Pre-gap length 0:00:02.00

Peak level 99.9 %
Track quality 100.0 %
Test CRC 19B3E965
Copy CRC 19B3E965
Copy OK

Track 2
Filename D:\0\Herbie Mann - Verve Jazz Masters 56 (1996) [FLAC]\02 - Baia.wav

Pre-gap length 0:00:01.93

Peak level 100.0 %
Track quality 100.0 %
Test CRC 97C44E12
Copy CRC 97C44E12
Copy OK

Track 3
Filename D:\0\Herbie Mann - Verve Jazz Masters 56 (1996) [FLAC]\03 - Evolution of Mann.wav

Pre-gap length 0:00:02.96

Peak level 100.0 %
Track quality 100.0 %
Test CRC 06EB9BE1
Copy CRC 06EB9BE1
Copy OK

Track 4
Filename D:\0\Herbie Mann - Verve Jazz Masters 56 (1996) [FLAC]\04 - Oodles of Noodles.wav

Pre-gap length 0:00:02.96

Peak level 100.0 %
Track quality 100.0 %
Test CRC C11858C2
Copy CRC C11858C2
Copy OK

Track 5
Filename D:\0\Herbie Mann - Verve Jazz Masters 56 (1996) [FLAC]\05 - The Peanut Vendor.wav

Pre-gap length 0:00:02.97

Peak level 100.0 %
Track quality 100.0 %
Test CRC 6B11D18C
Copy CRC 6B11D18C
Copy OK

Track 6
Filename D:\0\Herbie Mann - Verve Jazz Masters 56 (1996) [FLAC]\06 - Star Dust.wav

Pre-gap length 0:00:02.96

Peak level 100.0 %
Track quality 99.9 %
Test CRC C6123B49
Copy CRC C6123B49
Copy OK

Track 7
Filename D:\0\Herbie Mann - Verve Jazz Masters 56 (1996) [FLAC]\07 - Strike Up the Band.wav

Pre-gap length 0:00:02.93

Peak level 100.0 %
Track quality 100.0 %
Test CRC EF4ECD4E
Copy CRC EF4ECD4E
Copy OK

Track 8
Filename D:\0\Herbie Mann - Verve Jazz Masters 56 (1996) [FLAC]\08 - Todos Locos.wav

Pre-gap length 0:00:02.97

Peak level 100.0 %
Track quality 100.0 %
Test CRC E3D87577
Copy CRC E3D87577
Copy OK

Track 9
Filename D:\0\Herbie Mann - Verve Jazz Masters 56 (1996) [FLAC]\09 - Cuban Patato Chip ['Cuban Potato Chips'].wav

Pre-gap length 0:00:02.93

Peak level 99.9 %
Track quality 100.0 %
Test CRC B5B70E97
Copy CRC B5B70E97
Copy OK

Track 10
Filename D:\0\Herbie Mann - Verve Jazz Masters 56 (1996) [FLAC]\10 - Come on, Mule.wav

Pre-gap length 0:00:03.13

Peak level 80.8 %
Track quality 99.9 %
Test CRC 20C5CD60
Copy CRC 20C5CD60
Copy OK

Track 11
Filename D:\0\Herbie Mann - Verve Jazz Masters 56 (1996) [FLAC]\11 - The Amazon River.wav

Pre-gap length 0:00:02.93

Peak level 100.0 %
Track quality 100.0 %
Test CRC C213ABC7
Copy CRC C213ABC7
Copy OK

Track 12
Filename D:\0\Herbie Mann - Verve Jazz Masters 56 (1996) [FLAC]\12 - Caravan.wav

Pre-gap length 0:00:02.97

Peak level 95.6 %
Track quality 99.9 %
Test CRC 317F6E9D
Copy CRC 317F6E9D
Copy OK

Track 13
Filename D:\0\Herbie Mann - Verve Jazz Masters 56 (1996) [FLAC]\13 - A Ritual.wav

Pre-gap length 0:00:02.86

Peak level 99.9 %
Track quality 99.9 %
Test CRC 6285121B
Copy CRC 6285121B
Copy OK

Track 14
Filename D:\0\Herbie Mann - Verve Jazz Masters 56 (1996) [FLAC]\14 - You Stepped Out of a Dream.wav

Pre-gap length 0:00:02.97

Peak level 100.0 %
Track quality 99.9 %
Test CRC E5A0F0B8
Copy CRC E5A0F0B8
Copy OK

Track 15
Filename D:\0\Herbie Mann - Verve Jazz Masters 56 (1996) [FLAC]\15 - Fife 'n' Tambourine Corps.wav

Pre-gap length 0:00:02.93

Peak level 92.9 %
Track quality 99.9 %
Test CRC 95EC3EAD
Copy CRC 95EC3EAD
Copy OK

No errors occured


End of status report

[CUETools log; Date: 17.05.2018 17:13:55; Version: 2.1.4]
[CTDB TOCID: z.BWZTYBtpnYe3fb9mO94UcvRbo-] found.
Track | CTDB Status
1 | (17/17) Accurately ripped
2 | (17/17) Accurately ripped
3 | (17/17) Accurately ripped
4 | (17/17) Accurately ripped
5 | (17/17) Accurately ripped
6 | (17/17) Accurately ripped
7 | (17/17) Accurately ripped
8 | (17/17) Accurately ripped
9 | (16/17) Accurately ripped
10 | (11/17) Accurately ripped
11 | (17/17) Accurately ripped
12 | (11/17) Accurately ripped
13 | (11/17) Accurately ripped
14 | (11/17) Accurately ripped
15 | (17/17) Accurately ripped
[AccurateRip ID: 0023ea73-01acb939-be11d80f] found.
Track [ CRC | V2 ] Status
01 [df8526f9|97245777] (06+04/21) Accurately ripped
02 [2fd8e296|6b1e4c7d] (06+04/21) Accurately ripped
03 [8ffe9aeb|d4f65082] (05+04/20) Accurately ripped
04 [0e7db78b|73f56e58] (06+04/21) Accurately ripped
05 [a46a6bae|877f3156] (06+04/21) Accurately ripped
06 [fa817f94|fe3c30c4] (06+04/21) Accurately ripped
07 [f2d14739|79adcef6] (07+04/22) Accurately ripped
08 [c829c3ef|64a88c31] (07+04/22) Accurately ripped
09 [8f7a0cb9|34571e1f] (07+04/22) Accurately ripped
10 [4fe37eb9|4da97f14] (06+04/21) Accurately ripped
11 [02f249d6|9f5d2355] (07+04/22) Accurately ripped
12 [ac82dc5e|1d139cb1] (06+03/20) Accurately ripped
13 [6f1fcef6|1420a5cd] (06+04/21) Accurately ripped
14 [c045a5d6|1cb75db3] (06+04/21) Accurately ripped
15 [bb084c7d|e5e2a97a] (07+04/22) Accurately ripped
Offsetted by 250:
01 [4921d19f] (00/21) No match (V2 was not tested)
02 [3ae8e454] (00/21) No match (V2 was not tested)
03 [cebb95db] (00/20) No match (V2 was not tested)
04 [11c2c579] (00/21) No match (V2 was not tested)
05 [0d094f5c] (00/21) No match (V2 was not tested)
06 [4f6fa10e] (00/21) No match (V2 was not tested)
07 [9b7c5657] (00/22) No match (V2 was not tested)
08 [93dbcd43] (00/22) No match (V2 was not tested)
09 [51da046f] (00/22) No match (V2 was not tested)
10 [c19b9983] (00/21) No match (V2 was not tested)
11 [994aa68e] (00/22) No match (V2 was not tested)
12 [9fda40e0] (00/20) No match (V2 was not tested)
13 [1b2bad4e] (00/21) No match (V2 was not tested)
14 [48247652] (00/21) No match (V2 was not tested)
15 [58c15963] (00/22) No match (V2 was not tested)
Offsetted by 284:
01 [d46c5f9d] (03/21) Accurately ripped
02 [ab0198ca] (03/21) Accurately ripped
03 [70dd7a8b] (03/20) Accurately ripped
04 [b3ff5cdf] (03/21) Accurately ripped
05 [e6044b82] (03/21) Accurately ripped
06 [0b1d53b0] (03/21) Accurately ripped
07 [12ae39ad] (03/22) Accurately ripped
08 [c8231e67] (03/22) Accurately ripped
09 [6a3d15bd] (03/22) Accurately ripped
10 [93a234b5] (00/21) No match (V2 was not tested)
11 [36f45d26] (03/22) Accurately ripped
12 [2758d3aa] (00/20) No match (V2 was not tested)
13 [8270e006] (00/21) No match (V2 was not tested)
14 [5eb7803e] (00/21) No match (V2 was not tested)
15 [d8b39aa1] (03/22) Accurately ripped

Track Peak [ CRC32 ] [W/O NULL] [ LOG ]
– 99,9 [5B9272A7] [FF8C1E97]
01 99,9 [19B3E965] [1B6E9933] CRC32
02 99,9 [97C44E12] [34805373] CRC32
03 99,9 [06EB9BE1] [B8E61537] CRC32
04 99,9 [C11858C2] [46FB77BE] CRC32
05 99,9 [6B11D18C] [686E0EF2] CRC32
06 99,9 [C6123B49] [186C53E8] CRC32
07 99,9 [EF4ECD4E] [6D63D510] CRC32
08 99,9 [E3D87577] [00106CA7] CRC32
09 99,9 [B5B70E97] [E260A423] CRC32
10 80,8 [20C5CD60] [FFA11051] CRC32
11 99,9 [C213ABC7] [165A843F] CRC32
12 95,6 [317F6E9D] [8EB35606] CRC32
13 99,9 [6285121B] [017C9DA6] CRC32
14 99,9 [E5A0F0B8] [E074A16E] CRC32
15 92,9 [95EC3EAD] [4D02C261] CRC32

Thanks to Musicgate