Subcategories

Hubert Laws - Say It With Silence (1978) {Sony Japan}

Posted By: tiburon
Hubert Laws - Say It With Silence (1978) {Sony Japan}

Hubert Laws - Say It With Silence (1978) {Sony Japan}
EAC 1.3 | FLAC Image level 8 | Cue+Log | Full Scans 300dpi | 204MB + 5% Recovery
MP3 CBR 320 Kbps | 101MB + 5% Recovery
Genre: Jazz-Funk, Fusion

Nothing too silent here, as the set's filled with the kind of soulful fusion grooves we'd expect from Hubert Laws in the 70s! The album's a real standout in his Columbia catalog – a perfectly balanced set that features plenty of great work from Hubert on flute, amidst arrangements that also have a bit of a groove on most numbers – never too smooth, nor too commercial – and very much in the spirit of Bobbi Humphrey's excellent late 70s sides for the label. As with those records, there's a bit of vocals here – sung in a lovely way by Debra and Eloise Laws – and there's also a bit of strings here, but used sparingly to match the sweetly stepping rhythms. Titles include "The Baron", "False Faces", "Love Gets Better", "It Happens Every Day", and "Say It With Silence".
Track List
01. Say It with Silence (Laws) - 5:54
02. False Faces (Laws) - 6:20
03. Baron (Kelley) - 5:09
04. It Happens Everyday (Sample) - 7:41
05. Love Gets Better (Laws) - 8:20

musicians
Hubert Laws - flute, piccolo
Joe Sample, Mark Gray - Fender Rhodes piano
Barnaby E.Finch - Fender Rhodes piano, piano
Jerry Peters, Mike Mandel - ARP synthesizer
Patrick Kelly, Melvin Robinson, Hiram Bullock, Barry Finnerty - guitar
Robert Vega, Robert Popwell, Mike Richmond - electric bass
Gregory Errico, Anthony Lewis, Daniel Gottlieb - drums
Victor Feldman, Susan Evans - percussion
Woody Murray - vibes
Snooky Young - trumpet
Ronnie Laws - saxophone
Debra Laws, Eloise Laws, Ronnie Laws, Johnny Laws - vocals
Bobby Bryant, Snooky Young, Ray Brown, Alan Rubin, Lew Soloff, Marvin Stamm - trumpet
Garnet Brown, Thurman A.Green, Maurice Spears, Wayne Andre, Tom Malone, Tony Studd - trombone
James Buffington, Don Corrado, Lawrence Wechsler - French horn
Sidney Sharp, Israel Baker, Henry Ferber, Ronald Folsom, Arnold Belnick, David Montagu, Alfred Breuning, Don Palmer, Joy Lyle - violin
Harry Shlutz, Jerome Kessler, Jesse Ehrlich - cello

Produced by Hubert Laws and Ronnie Laws


Exact Audio Copy V1.3 from 2. September 2016

Отчёт EAC об извлечении, выполненном 16. мая 2018, 19:38

Hubert Laws / Say It With Silence

Дисковод: Optiarc DVD RW AD-7203S Adapter: 1 ID: 0

Режим чтения : Достоверность
Использование точного потока : Да
Отключение кэша аудио : Да
Использование указателей C2 : Нет

Коррекция смещения при чтении : 48
Способность читать области Lead-in и Lead-out : Нет
Заполнение пропущенных сэмплов тишиной : Да
Удаление блоков с тишиной в начале и конце : Нет
При вычислениях CRC использовались нулевые сэмплы : Да
Интерфейс : Встроенный Win32-интерфейс для Win NT/2000

Выходной формат : Пользовательский кодировщик
Выбранный битрейт : 128 kBit/s
Качество : Высокий
Добавление ID3-тега : Нет
Утилита сжатия : C:\Program Files (x86)\Exact Audio Copy\Flac\flac.exe
Дополнительные параметры : -V -8 %source%


TOC извлечённого CD

Трек | Старт | Длительность | Начальный сектор | Конечный сектор
––––––––––––––––––––––––––––––––––-
1 | 0:00.00 | 5:54.02 | 0 | 26551
2 | 5:54.02 | 6:19.56 | 26552 | 55032
3 | 12:13.58 | 5:08.69 | 55033 | 78201
4 | 17:22.52 | 7:41.32 | 78202 | 112808
5 | 25:04.09 | 8:20.19 | 112809 | 150327


Характеристики диапазона извлечения и сообщения об ошибках

Выбранный диапазон

Имя файла C:\Users\Администратор\Music\_NEW\Hubert Laws - Say It With Silence (1978)\Hubert Laws - Say It With Silence.wav

Пиковый уровень 100.0 %
Скорость извлечения 3.4 X
Качество диапазона 100.0 %
CRC теста B9DA789A
CRC копии B9DA789A
Копирование… OK

Ошибок не произошло


AccurateRip: сводка

Трек 1 : извлечено точно (доверие 2) [DFD1A38D] (AR v1)
Трек 2 : извлечено точно (доверие 2) [2DBC09E9] (AR v1)
Трек 3 : извлечено точно (доверие 2) [C2014A73] (AR v1)
Трек 4 : извлечено точно (доверие 2) [5B0A47DC] (AR v1)
Трек 5 : извлечено точно (доверие 1) [351F0B77] (AR v1)

Все треки извлечены точно

Конец отчёта

==== Контрольная сумма отчёта 9BB52B5B9F9444B84D0A4F28228878031EEABE6168F06EE71863B85D390A9B23 ====

Hubert Laws - Say It With Silence (1978) {Sony Japan}
Hubert Laws - Say It With Silence (1978) {Sony Japan}


Thanks to the original ripper