Subcategories

Jennifer Rush - Rush Hour: The Original Hits (2013) {3CD Box Set}

Posted By: popsakov
Jennifer Rush - Rush Hour: The Original Hits (2013) {3CD Box Set}

Jennifer Rush - Rush Hour: The Original Hits (2013) {3CD Box Set}
EAC Rip | FLAC (Img) + Cue + Log ~ 1,22 Gb | MP3 CBR320 ~ 409 Mb
Full Scans (PNG, 400 dpi) ~ 79 Mb | RAR 5% Recovery
Pop, Pop Rock, Dance-Rock, Synth-pop | Sony Music #88883 76173 2

While virtually unknown in the U.S., pop singer Jennifer Rush achieved superstar status as an expatriate in Europe, selling millions of records and releasing a string of hit singles notable for their booming, dance-rock arrangements and Rush's powerful voice. Born Heidi Stern in New York City, Rush's father was an opera singer and her mother was a pianist. At the age of nine, she moved to Germany with her family, returning in her teens to the States. In 1982, she returned to Germany with her father to pursue a singing career, signing a deal with CBS/Columbia. Changing her name to Jennifer Rush, she released a series of songs that made her a star in Europe, including "Into My Dreams," "Come Give Me Your Hand," "25 Lovers," and "Ring of Ice." In 1985, Rush scored a massive European hit with "The Power of Love," which became one of the longest-running chart-toppers in U.K. history. The song, which she also co-wrote, was packaged with several of her other European hits for her U.S. debut Jennifer Rush. Released as a single, "The Power of Love" failed to duplicate its success upon its stateside release, only reaching number 57. Instead, versions of the song by Laura Branigan and Celine Dion hit the American Top 40 (the latter hitting number one for a month in 1994). It wasn't until her third U.S. release, Heart Over Mind, that Rush reached the Top 40 as an artist with her duet with Elton John, "Flames of Paradise," reaching number 37 in 1987. She continued to retain a large European following throughout the rest of the '80s and '90s, collaborating with writers such as Desmond Child and Diane Warren and performing with high-profile acts like Michael Bolton and Placido Domingo. Despite selling millions of albums abroad, most of her albums have not been released in the U.S.
~ All Music

***************

Jennifer Rush - Rush Hour: The Original Hits (2013) {3CD Box Set}

Track List CD1:

01. The Power Of Love (Radio Edit) [4:54]
02. Ave Maria (Survivors Of A Different Kind) [3:48]
03. Higher Ground [4:17]
04. Love Of A Stranger [4:04]
05. Come Give Me Your Hand [3:50]
06. Silent Killer [3:34]
07. Flames Of Paradise (feat. Elton John) [4:44]
08. Heart Wars [3:17]
09. Cry [3:38]
10. Yesterme, Yesteryou, Yesterday [3:15]
11. Midnight Mirage [4:11]
12. Falling In Love [3:59]
13. The Right Time Has Come Now [4:02]
14. Call My Name [4:13]

Exact Audio Copy V1.0 beta 3 from 29. August 2011

EAC extraction logfile from 14. April 2018, 22:00

Jennifer Rush / Rush Hour: The Original Hits CD1

Used drive : PIONEER BD-RW BDR-TD03 Adapter: 0 ID: 1

Read mode : Secure
Utilize accurate stream : Yes
Defeat audio cache : Yes
Make use of C2 pointers : No

Read offset correction : 667
Overread into Lead-In and Lead-Out : No
Fill up missing offset samples with silence : Yes
Delete leading and trailing silent blocks : No
Null samples used in CRC calculations : Yes
Used interface : Native Win32 interface for Win NT & 2000

Used output format : User Defined Encoder
Selected bitrate : 768 kBit/s
Quality : High
Add ID3 tag : No
Command line compressor : C:\Program Files (x86)\Exact Audio Copy\FLAC\FLAC.EXE
Additional command line options : -6 -V -T "ARTIST=%artist%" -T "TITLE=%title%" -T "ALBUM=%albumtitle%" -T "DATE=%year%" -T "TRACKNUMBER=%tracknr%" -T "GENRE=%genre%" -T "COMMENT=%comment%" -T "BAND=%albuminterpret%" -T "ALBUMARTIST=%albuminterpret%" -T "COMPOSER=%composer%" %haslyrics%–tag-from-file=LYRICS="%lyricsfile%"%haslyrics% -T "DISCNUMBER=%cdnumber%" -T "TOTALDISCS=%totalcds%" -T "TOTALTRACKS=%numtracks%" %hascover%–picture="%coverfile%"%hascover% %source% -o %dest%


TOC of the extracted CD

Track | Start | Length | Start sector | End sector
––––––––––––––––––––––––––––-
1 | 0:00.00 | 4:53.72 | 0 | 22046
2 | 4:53.72 | 3:48.09 | 22047 | 39155
3 | 8:42.06 | 4:17.35 | 39156 | 58465
4 | 12:59.41 | 4:03.58 | 58466 | 76748
5 | 17:03.24 | 3:49.68 | 76749 | 93991
6 | 20:53.17 | 3:33.64 | 93992 | 110030
7 | 24:27.06 | 4:44.00 | 110031 | 131330
8 | 29:11.06 | 3:17.24 | 131331 | 146129
9 | 32:28.30 | 3:38.26 | 146130 | 162505
10 | 36:06.56 | 3:15.20 | 162506 | 177150
11 | 39:22.01 | 4:11.29 | 177151 | 196004
12 | 43:33.30 | 3:59.01 | 196005 | 213930
13 | 47:32.31 | 4:02.07 | 213931 | 232087
14 | 51:34.38 | 4:13.10 | 232088 | 251072


Range status and errors

Selected range

Filename C:\Users\Deris\Desktop\Rush\cd1\Jennifer Rush - Rush Hour- The Original Hits CD1.wav

Peak level 100.0 %
Extraction speed 4.7 X
Range quality 99.9 %
Test CRC 976AC58F
Copy CRC 976AC58F
Copy OK

No errors occurred


AccurateRip summary

Track 1 accurately ripped (confidence 2) [16B981BF] (AR v2)
Track 2 accurately ripped (confidence 2) [660B2218] (AR v2)
Track 3 accurately ripped (confidence 2) [442DB817] (AR v2)
Track 4 accurately ripped (confidence 2) [3284FA94] (AR v2)
Track 5 accurately ripped (confidence 2) [4D5D0AC1] (AR v2)
Track 6 accurately ripped (confidence 2) [7F0DD6E1] (AR v2)
Track 7 accurately ripped (confidence 2) [31F7AE0D] (AR v2)
Track 8 accurately ripped (confidence 2) [8021093E] (AR v2)
Track 9 accurately ripped (confidence 2) [5213FCD9] (AR v2)
Track 10 accurately ripped (confidence 2) [82D761FE] (AR v2)
Track 11 accurately ripped (confidence 2) [F7C9D4B8] (AR v2)
Track 12 accurately ripped (confidence 2) [7F412DCC] (AR v2)
Track 13 accurately ripped (confidence 2) [F059D414] (AR v2)
Track 14 accurately ripped (confidence 2) [9B8567F7] (AR v2)

All tracks accurately ripped

End of status report

–– CUETools DB Plugin V2.1.3

[CTDB TOCID: g9YirFdq1DxEAAkyC7ttEukocUc-] found, Submit result: g9YirFdq1DxEAAkyC7ttEukocUc- has been confirmed
[3bbdddc4] (2/2) Accurately ripped


==== Log checksum 31008D02F056D23A76D23FE4DC6C746DBBAE6788DA77878818F8C192AEB8525B ====

foobar2000 1.3.16 / Dynamic Range Meter 1.1.1
log date: 2018-04-17 12:21:11

––––––––––––––––––––––––––––––––––––––––
Analyzed: Jennifer Rush / Rush Hour: The Original Hits CD1
––––––––––––––––––––––––––––––––––––––––

DR Peak RMS Duration Track
––––––––––––––––––––––––––––––––––––––––
DR7 0.00 dB -9.53 dB 4:54 01-The Power Of Love (Radio Edit)
DR9 0.00 dB -9.61 dB 3:48 02-Ave Maria (Survivors Of A Different Kind)
DR10 0.00 dB -12.03 dB 4:17 03-Higher Ground
DR9 0.00 dB -11.06 dB 4:04 04-Love Of A Stranger
DR9 0.00 dB -9.95 dB 3:50 05-Come Give Me Your Hand
DR8 0.00 dB -8.61 dB 3:34 06-Silent Killer
DR9 0.00 dB -10.74 dB 4:44 07-Flames Of Paradise (feat. Elton John)
DR8 -0.41 dB -9.49 dB 3:17 08-Heart Wars
DR12 0.00 dB -14.41 dB 3:38 09-Cry
DR9 0.00 dB -10.13 dB 3:15 10-Yesterme, Yesteryou, Yesterday
DR8 -0.75 dB -10.17 dB 4:11 11-Midnight Mirage
DR11 0.00 dB -12.75 dB 3:59 12-Falling In Love
DR7 -0.82 dB -8.98 dB 4:02 13-The Right Time Has Come Now
DR10 0.00 dB -12.68 dB 4:13 14-Call My Name
––––––––––––––––––––––––––––––––––––––––

Number of tracks: 14
Official DR value: DR9

Samplerate: 44100 Hz
Channels: 2
Bits per sample: 16
Bitrate: 987 kbps
Codec: FLAC
================================================================================

[CUETools log; Date: 17.04.2018 12:21:21; Version: 2.1.6]
[CTDB TOCID: g9YirFdq1DxEAAkyC7ttEukocUc-] found.
Track | CTDB Status
1 | (3/3) Accurately ripped
2 | (3/3) Accurately ripped
3 | (3/3) Accurately ripped
4 | (3/3) Accurately ripped
5 | (3/3) Accurately ripped
6 | (3/3) Accurately ripped
7 | (3/3) Accurately ripped
8 | (3/3) Accurately ripped
9 | (3/3) Accurately ripped
10 | (3/3) Accurately ripped
11 | (3/3) Accurately ripped
12 | (3/3) Accurately ripped
13 | (3/3) Accurately ripped
14 | (3/3) Accurately ripped
[AccurateRip ID: 001d2780-01343f9a-c80d130e] found.
Track [ CRC | V2 ] Status
01 [2eeb3340|16b981bf] (0+2/7) Accurately ripped
02 [e9ec4bf2|660b2218] (0+2/7) Accurately ripped
03 [1b0350c9|442db817] (0+2/7) Accurately ripped
04 [52925909|3284fa94] (0+2/7) Accurately ripped
05 [11c90ed7|4d5d0ac1] (0+2/7) Accurately ripped
06 [0280cac2|7f0dd6e1] (0+2/7) Accurately ripped
07 [5306170a|31f7ae0d] (0+2/7) Accurately ripped
08 [72107f47|8021093e] (0+2/7) Accurately ripped
09 [eae8081f|5213fcd9] (0+2/7) Accurately ripped
10 [b4cb031c|82d761fe] (0+2/7) Accurately ripped
11 [fec5ee35|f7c9d4b8] (0+2/7) Accurately ripped
12 [8aa0e2c8|7f412dcc] (0+2/7) Accurately ripped
13 [3ec01725|f059d414] (0+2/7) Accurately ripped
14 [90e12b3e|9b8567f7] (0+2/7) Accurately ripped
Offsetted by 12:
01 [c612d7b4] (0/7) No match (V2 was not tested)
02 [90d8b7a2] (0/7) No match (V2 was not tested)
03 [bdfb9a69] (0/7) No match (V2 was not tested)
04 [5a3917e1] (0/7) No match (V2 was not tested)
05 [e1d1df9f] (0/7) No match (V2 was not tested)
06 [bb5870d2] (0/7) No match (V2 was not tested)
07 [352b3f76] (0/7) No match (V2 was not tested)
08 [57adee8b] (0/7) No match (V2 was not tested)
09 [100e88a3] (0/7) No match (V2 was not tested)
10 [7d39fc28] (0/7) No match (V2 was not tested)
11 [dfaa5b45] (0/7) No match (V2 was not tested)
12 [32f1b5dc] (0/7) No match (V2 was not tested)
13 [85bb04b1] (0/7) No match (V2 was not tested)
14 [98137afe] (0/7) No match (V2 was not tested)
Offsetted by 48:
01 [8b89c510] (0/7) No match (V2 was not tested)
02 [859dfab2] (0/7) No match (V2 was not tested)
03 [a6e47749] (0/7) No match (V2 was not tested)
04 [712d5469] (0/7) No match (V2 was not tested)
05 [51ec51f7] (0/7) No match (V2 was not tested)
06 [e5df6302] (0/7) No match (V2 was not tested)
07 [db9ab8ba] (0/7) No match (V2 was not tested)
08 [08863c57] (0/7) No match (V2 was not tested)
09 [7f820a2f] (0/7) No match (V2 was not tested)
10 [d686e74c] (0/7) No match (V2 was not tested)
11 [8257a275] (0/7) No match (V2 was not tested)
12 [2be42f18] (0/7) No match (V2 was not tested)
13 [5aabcd55] (0/7) No match (V2 was not tested)
14 [adaa6a3e] (0/7) No match (V2 was not tested)

Track Peak [ CRC32 ] [W/O NULL] [ LOG ]
– 100,0 [976AC58F] [7DE1C4EE] CRC32
01 100,0 [74BAA70B] [A6048D27]
02 100,0 [114818FF] [73541EA8]
03 100,0 [3863CD53] [503F5D72]
04 100,0 [19380339] [05F3F01A]
05 100,0 [DBA2F651] [E24ED037]
06 100,0 [ADFBAD92] [14EB8771]
07 100,0 [B6A2CC3E] [86730460]
08 95,3 [46B726DB] [02A2AF96]
09 100,0 [AE395713] [627A8725]
10 99,9 [6C0DDF5A] [7AF4E6B8]
11 91,7 [A80D2501] [60FCF445]
12 100,0 [5AD629EF] [F642FAE1]
13 90,9 [847FF0D8] [8B88709E]
14 100,0 [6EEED24E] [F3C8CB20]

Track List CD2:

01. I come Undone [4:09]
02. Ring of Ice [3:49]
03. You're my one and Only [3:42]
04. Stronghold [4:23]
05. Love is the Language (of the Heart) [4:29]
06. Into my Dreams [4:02]
07. Live Wire [3:50]
08. My Heart is still Young [3:58]
09. Search the Sky [4:36]
10. Madonna's Eyes [3:40]
11. Love get Ready [4:04]
12. For all that [4:12]
13. Rain Coming Down on me [4:06]
14. Hero of a Fool [3:38]

Exact Audio Copy V1.0 beta 3 from 29. August 2011

EAC extraction logfile from 15. April 2018, 16:59

Jennifer Rush / Rush Hour: The Original Hits CD2

Used drive : PIONEER BD-RW BDR-TD03 Adapter: 0 ID: 1

Read mode : Secure
Utilize accurate stream : Yes
Defeat audio cache : Yes
Make use of C2 pointers : No

Read offset correction : 667
Overread into Lead-In and Lead-Out : No
Fill up missing offset samples with silence : Yes
Delete leading and trailing silent blocks : No
Null samples used in CRC calculations : Yes
Used interface : Native Win32 interface for Win NT & 2000

Used output format : User Defined Encoder
Selected bitrate : 768 kBit/s
Quality : High
Add ID3 tag : No
Command line compressor : C:\Program Files (x86)\Exact Audio Copy\FLAC\FLAC.EXE
Additional command line options : -6 -V -T "ARTIST=%artist%" -T "TITLE=%title%" -T "ALBUM=%albumtitle%" -T "DATE=%year%" -T "TRACKNUMBER=%tracknr%" -T "GENRE=%genre%" -T "COMMENT=%comment%" -T "BAND=%albuminterpret%" -T "ALBUMARTIST=%albuminterpret%" -T "COMPOSER=%composer%" %haslyrics%–tag-from-file=LYRICS="%lyricsfile%"%haslyrics% -T "DISCNUMBER=%cdnumber%" -T "TOTALDISCS=%totalcds%" -T "TOTALTRACKS=%numtracks%" %hascover%–picture="%coverfile%"%hascover% %source% -o %dest%


TOC of the extracted CD

Track | Start | Length | Start sector | End sector
––––––––––––––––––––––––––––-
1 | 0:00.00 | 4:09.35 | 0 | 18709
2 | 4:09.35 | 3:49.24 | 18710 | 35908
3 | 7:58.59 | 3:41.51 | 35909 | 52534
4 | 11:40.35 | 4:23.24 | 52535 | 72283
5 | 16:03.59 | 4:28.60 | 72284 | 92443
6 | 20:32.44 | 4:02.30 | 92444 | 110623
7 | 24:34.74 | 3:50.28 | 110624 | 127901
8 | 28:25.27 | 3:58.08 | 127902 | 145759
9 | 32:23.35 | 4:35.44 | 145760 | 166428
10 | 36:59.04 | 3:39.65 | 166429 | 182918
11 | 40:38.69 | 4:03.59 | 182919 | 201202
12 | 44:42.53 | 4:11.46 | 201203 | 220073
13 | 48:54.24 | 4:06.34 | 220074 | 238557
14 | 53:00.58 | 3:38.09 | 238558 | 254916


Range status and errors

Selected range

Filename C:\Users\Deris\Desktop\Rush\cd2\Jennifer Rush - Rush Hour- The Original Hits CD2.wav

Peak level 100.0 %
Extraction speed 4.7 X
Range quality 100.0 %
Test CRC A30C3D0B
Copy CRC A30C3D0B
Copy OK

No errors occurred


AccurateRip summary

Track 1 accurately ripped (confidence 2) [4136A6C2] (AR v2)
Track 2 accurately ripped (confidence 2) [89987432] (AR v2)
Track 3 accurately ripped (confidence 2) [F6AEC249] (AR v2)
Track 4 accurately ripped (confidence 2) [FE069393] (AR v2)
Track 5 accurately ripped (confidence 2) [23CF5815] (AR v2)
Track 6 accurately ripped (confidence 2) [9864BDC8] (AR v2)
Track 7 accurately ripped (confidence 2) [2CCA21F5] (AR v2)
Track 8 accurately ripped (confidence 2) [ABCD0EA5] (AR v2)
Track 9 accurately ripped (confidence 2) [9B8BE933] (AR v2)
Track 10 accurately ripped (confidence 2) [77C5AEB1] (AR v2)
Track 11 accurately ripped (confidence 2) [AFF4AAC5] (AR v2)
Track 12 accurately ripped (confidence 2) [106087E4] (AR v2)
Track 13 accurately ripped (confidence 2) [FE8BE352] (AR v2)
Track 14 accurately ripped (confidence 2) [15701818] (AR v2)

All tracks accurately ripped

End of status report

–– CUETools DB Plugin V2.1.3

[CTDB TOCID: 2ym3j0iFxIFmCttei6UOdGp47PY-] found
[c5133518] (3/4) Accurately ripped
[c547c917] (1/4) No match


==== Log checksum 2671A6AB06173875CCA0320F0B15B9CF082266841E81BC596C707EDC260653EA ====

foobar2000 1.3.16 / Dynamic Range Meter 1.1.1
log date: 2018-04-17 12:22:45

––––––––––––––––––––––––––––––––––––––––
Analyzed: Jennifer Rush / Rush Hour: The Original Hits CD2
––––––––––––––––––––––––––––––––––––––––

DR Peak RMS Duration Track
––––––––––––––––––––––––––––––––––––––––
DR12 0.00 dB -14.07 dB 4:09 01-I come Undone
DR10 0.00 dB -11.70 dB 3:49 02-Ring of Ice
DR10 0.00 dB -12.91 dB 3:42 03-You're my one and Only
DR7 -1.97 dB -10.83 dB 4:23 04-Stronghold
DR10 0.00 dB -11.28 dB 4:29 05-Love is the Language (of the Heart)
DR9 0.00 dB -10.52 dB 4:02 06-Into my Dreams
DR7 -1.96 dB -10.01 dB 3:50 07-Live Wire
DR11 0.00 dB -13.54 dB 3:58 08-My Heart is still Young
DR12 0.00 dB -13.75 dB 4:36 09-Search the Sky
DR11 0.00 dB -13.60 dB 3:40 10-Madonna's Eyes
DR12 0.00 dB -13.65 dB 4:04 11-Love get Ready
DR9 -0.65 dB -10.84 dB 4:12 12-For all that
DR10 0.00 dB -11.86 dB 4:06 13-Rain Coming Down on me
DR6 -2.25 dB -11.31 dB 3:38 14-Hero of a Fool
––––––––––––––––––––––––––––––––––––––––

Number of tracks: 14
Official DR value: DR10

Samplerate: 44100 Hz
Channels: 2
Bits per sample: 16
Bitrate: 979 kbps
Codec: FLAC
================================================================================

[CUETools log; Date: 17.04.2018 12:22:31; Version: 2.1.6]
[CTDB TOCID: 2ym3j0iFxIFmCttei6UOdGp47PY-] found.
Track | CTDB Status
1 | (4/4) Accurately ripped
2 | (4/4) Accurately ripped
3 | (4/4) Accurately ripped
4 | (4/4) Accurately ripped
5 | (4/4) Accurately ripped
6 | (4/4) Accurately ripped
7 | (4/4) Accurately ripped
8 | (4/4) Accurately ripped
9 | (4/4) Accurately ripped
10 | (4/4) Accurately ripped
11 | (4/4) Accurately ripped
12 | (3/4) Accurately ripped, or (1/4) differs in 2 samples @00:56:49,01:17:14
13 | (4/4) Accurately ripped
14 | (4/4) Accurately ripped
[AccurateRip ID: 001d4d0c-0138bf20-b80d460e] found.
Track [ CRC | V2 ] Status
01 [df35a599|4136a6c2] (0+2/7) Accurately ripped
02 [22534b2c|89987432] (0+2/7) Accurately ripped
03 [e5078a71|f6aec249] (0+2/7) Accurately ripped
04 [18dacfbd|fe069393] (0+2/7) Accurately ripped
05 [543bb3bb|23cf5815] (0+2/7) Accurately ripped
06 [2b720731|9864bdc8] (0+2/7) Accurately ripped
07 [e5b4780f|2cca21f5] (0+2/7) Accurately ripped
08 [e0783da9|abcd0ea5] (0+2/7) Accurately ripped
09 [e6b0ee61|9b8be933] (0+2/7) Accurately ripped
10 [04066485|77c5aeb1] (0+2/7) Accurately ripped
11 [d8aecd3e|aff4aac5] (0+2/7) Accurately ripped
12 [a211ff8a|106087e4] (0+2/7) Accurately ripped
13 [72dafdaf|fe8be352] (0+2/7) Accurately ripped
14 [0344484e|15701818] (0+2/7) Accurately ripped
Offsetted by 12:
01 [e50e2495] (0/7) No match (V2 was not tested)
02 [192369e8] (0/7) No match (V2 was not tested)
03 [78631c11] (0/7) No match (V2 was not tested)
04 [fd1ffe6d] (0/7) No match (V2 was not tested)
05 [596bf2df] (0/7) No match (V2 was not tested)
06 [928161d5] (0/7) No match (V2 was not tested)
07 [14a43ea7] (0/7) No match (V2 was not tested)
08 [b1c13801] (0/7) No match (V2 was not tested)
09 [874697c5] (0/7) No match (V2 was not tested)
10 [679b9fa9] (0/7) No match (V2 was not tested)
11 [6405478e] (0/7) No match (V2 was not tested)
12 [4a294276] (0/7) No match (V2 was not tested)
13 [a23a5aab] (0/7) No match (V2 was not tested)
14 [bf8d6e16] (0/7) No match (V2 was not tested)
Offsetted by 48:
01 [f697a189] (0/7) No match (V2 was not tested)
02 [fd93c61c] (0/7) No match (V2 was not tested)
03 [3275d0f1] (0/7) No match (V2 was not tested)
04 [a9ef8a7d] (0/7) No match (V2 was not tested)
05 [68fcb04b] (0/7) No match (V2 was not tested)
06 [c7af71c1] (0/7) No match (V2 was not tested)
07 [a173926f] (0/7) No match (V2 was not tested)
08 [259c2709] (0/7) No match (V2 was not tested)
09 [690793f1] (0/7) No match (V2 was not tested)
10 [925b5115] (0/7) No match (V2 was not tested)
11 [0608b67e] (0/7) No match (V2 was not tested)
12 [426f0b3a] (0/7) No match (V2 was not tested)
13 [3058719f] (0/7) No match (V2 was not tested)
14 [f468df6e] (0/7) No match (V2 was not tested)

Track Peak [ CRC32 ] [W/O NULL] [ LOG ]
– 100,0 [A30C3D0B] [FE3BC16F] CRC32
01 100,0 [03475422] [2A413C5A]
02 100,0 [7B64A46E] [88747931]
03 99,9 [97EC2157] [6744623D]
04 79,7 [1FF98B77] [5F377035]
05 100,0 [96CEC20E] [836D696E]
06 100,0 [B44C3FEF] [C6CEB440]
07 79,8 [3EA37D6C] [C6E2D339]
08 100,0 [6299DF96] [E6AAE99E]
09 100,0 [F1114F02] [45CF475C]
10 100,0 [0D9A378D] [8EADF680]
11 100,0 [AB98EA8C] [1CA5248A]
12 92,7 [E9359077] [3A90D898]
13 100,0 [1280B36D] [B26372C3]
14 77,1 [6A8E1153] [0214A936]

Track List CD3:

01. Destiny [3:38]
02. Heart Over Mind [4:08]
03. 25 Lovers [3:38]
04. Down To You [4:29]
05. Angel [4:35]
06. Keep All The Fires Burning Bright [4:53]
07. Wings Of Desire [3:59]
08. Same Heart (feat. Michael Bolton) [4:14]
09. Love Is A Wild Thing [4:41]
10. Sidekick [4:08]
11. Where Can You Run [3:19]
12. I See A Shadow (Not A Fantasy) [4:23]
13. Automatic [3:29]
14. Now That It's Over [4:02]

Exact Audio Copy V1.0 beta 3 from 29. August 2011

EAC extraction logfile from 15. April 2018, 18:33

Jennifer Rush / Rush Hour: The Original Hits CD3

Used drive : PIONEER BD-RW BDR-TD03 Adapter: 0 ID: 1

Read mode : Secure
Utilize accurate stream : Yes
Defeat audio cache : Yes
Make use of C2 pointers : No

Read offset correction : 667
Overread into Lead-In and Lead-Out : No
Fill up missing offset samples with silence : Yes
Delete leading and trailing silent blocks : No
Null samples used in CRC calculations : Yes
Used interface : Native Win32 interface for Win NT & 2000

Used output format : User Defined Encoder
Selected bitrate : 768 kBit/s
Quality : High
Add ID3 tag : No
Command line compressor : C:\Program Files (x86)\Exact Audio Copy\FLAC\FLAC.EXE
Additional command line options : -6 -V -T "ARTIST=%artist%" -T "TITLE=%title%" -T "ALBUM=%albumtitle%" -T "DATE=%year%" -T "TRACKNUMBER=%tracknr%" -T "GENRE=%genre%" -T "COMMENT=%comment%" -T "BAND=%albuminterpret%" -T "ALBUMARTIST=%albuminterpret%" -T "COMPOSER=%composer%" %haslyrics%–tag-from-file=LYRICS="%lyricsfile%"%haslyrics% -T "DISCNUMBER=%cdnumber%" -T "TOTALDISCS=%totalcds%" -T "TOTALTRACKS=%numtracks%" %hascover%–picture="%coverfile%"%hascover% %source% -o %dest%


TOC of the extracted CD

Track | Start | Length | Start sector | End sector
––––––––––––––––––––––––––––-
1 | 0:00.00 | 3:37.70 | 0 | 16344
2 | 3:37.70 | 4:08.25 | 16345 | 34969
3 | 7:46.20 | 3:37.69 | 34970 | 51313
4 | 11:24.14 | 4:28.68 | 51314 | 71481
5 | 15:53.07 | 4:35.37 | 71482 | 92143
6 | 20:28.44 | 4:53.04 | 92144 | 114122
7 | 25:21.48 | 3:59.09 | 114123 | 132056
8 | 29:20.57 | 4:14.35 | 132057 | 151141
9 | 33:35.17 | 4:40.70 | 151142 | 172211
10 | 38:16.12 | 4:08.13 | 172212 | 190824
11 | 42:24.25 | 3:18.54 | 190825 | 205728
12 | 45:43.04 | 4:22.39 | 205729 | 225417
13 | 50:05.43 | 3:28.46 | 225418 | 241063
14 | 53:34.14 | 4:01.69 | 241064 | 259207


Range status and errors

Selected range

Filename C:\Users\Deris\Desktop\Rush\cd3\Jennifer Rush - Rush Hour- The Original Hits CD3.wav

Peak level 100.0 %
Extraction speed 4.7 X
Range quality 99.9 %
Test CRC 72ADDBDB
Copy CRC 72ADDBDB
Copy OK

No errors occurred


AccurateRip summary

Track 1 accurately ripped (confidence 2) [998B84FC] (AR v2)
Track 2 accurately ripped (confidence 2) [27DA08C2] (AR v2)
Track 3 accurately ripped (confidence 2) [4FECDDC4] (AR v2)
Track 4 accurately ripped (confidence 2) [4A2CBFCA] (AR v2)
Track 5 accurately ripped (confidence 2) [38DB3B70] (AR v2)
Track 6 accurately ripped (confidence 2) [6963A2B3] (AR v2)
Track 7 accurately ripped (confidence 2) [471FC2C4] (AR v2)
Track 8 accurately ripped (confidence 2) [5D3149C2] (AR v2)
Track 9 accurately ripped (confidence 2) [A5C222F9] (AR v2)
Track 10 accurately ripped (confidence 2) [89D4C78C] (AR v2)
Track 11 accurately ripped (confidence 2) [8E468CBA] (AR v2)
Track 12 accurately ripped (confidence 2) [DAF2E4EC] (AR v2)
Track 13 accurately ripped (confidence 2) [04B919EB] (AR v2)
Track 14 accurately ripped (confidence 2) [E9A54BF6] (AR v2)

All tracks accurately ripped

End of status report

–– CUETools DB Plugin V2.1.3

[CTDB TOCID: B1vlOoll_AHUHthCzDps7W90RUI-] found, Submit result: B1vlOoll_AHUHthCzDps7W90RUI- has been confirmed
[9fb19c77] (4/4) Accurately ripped


==== Log checksum 7946491BA28F53B0557A2657EEB0520565B9ED8BFA4087E706C55A10A61A7181 ====

foobar2000 1.3.16 / Dynamic Range Meter 1.1.1
log date: 2018-04-17 12:24:01

––––––––––––––––––––––––––––––––––––––––
Analyzed: Jennifer Rush / Rush Hour: The Original Hits CD3
––––––––––––––––––––––––––––––––––––––––

DR Peak RMS Duration Track
––––––––––––––––––––––––––––––––––––––––
DR7 -0.52 dB -8.77 dB 3:38 01-Destiny
DR9 -0.54 dB -10.84 dB 4:08 02-Heart Over Mind
DR10 0.00 dB -11.20 dB 3:38 03-25 Lovers
DR10 0.00 dB -11.63 dB 4:29 04-Down To You
DR10 0.00 dB -11.96 dB 4:35 05-Angel
DR11 0.00 dB -14.19 dB 4:53 06-Keep All The Fires Burning Bright
DR9 0.00 dB -10.71 dB 3:59 07-Wings Of Desire
DR11 0.00 dB -12.57 dB 4:14 08-Same Heart (feat. Michael Bolton)
DR8 -1.13 dB -10.15 dB 4:41 09-Love Is A Wild Thing
DR9 0.00 dB -10.35 dB 4:08 10-Sidekick
DR8 0.00 dB -9.67 dB 3:19 11-Where Can You Run
DR8 -0.95 dB -10.27 dB 4:23 12-I See A Shadow (Not A Fantasy)
DR7 -0.95 dB -9.09 dB 3:29 13-Automatic
DR9 0.00 dB -11.20 dB 4:02 14-Now That It's Over
––––––––––––––––––––––––––––––––––––––––

Number of tracks: 14
Official DR value: DR9

Samplerate: 44100 Hz
Channels: 2
Bits per sample: 16
Bitrate: 985 kbps
Codec: FLAC
================================================================================

[CUETools log; Date: 17.04.2018 12:24:05; Version: 2.1.6]
[CTDB TOCID: B1vlOoll_AHUHthCzDps7W90RUI-] found.
Track | CTDB Status
1 | (5/5) Accurately ripped
2 | (5/5) Accurately ripped
3 | (5/5) Accurately ripped
4 | (5/5) Accurately ripped
5 | (5/5) Accurately ripped
6 | (5/5) Accurately ripped
7 | (5/5) Accurately ripped
8 | (5/5) Accurately ripped
9 | (5/5) Accurately ripped
10 | (5/5) Accurately ripped
11 | (5/5) Accurately ripped
12 | (5/5) Accurately ripped
13 | (5/5) Accurately ripped
14 | (5/5) Accurately ripped
[AccurateRip ID: 001de091-013fb437-c00d800e] found.
Track [ CRC | V2 ] Status
01 [15b56279|998b84fc] (0+2/7) Accurately ripped
02 [11e5e6cc|27da08c2] (0+2/7) Accurately ripped
03 [be9f1fda|4fecddc4] (0+2/7) Accurately ripped
04 [31c64bd5|4a2cbfca] (0+2/7) Accurately ripped
05 [4108c744|38db3b70] (0+2/7) Accurately ripped
06 [b0403696|6963a2b3] (0+2/7) Accurately ripped
07 [61fec5b5|471fc2c4] (0+2/7) Accurately ripped
08 [75f4f32a|5d3149c2] (0+2/7) Accurately ripped
09 [46031511|a5c222f9] (0+2/7) Accurately ripped
10 [b0721558|89d4c78c] (0+2/7) Accurately ripped
11 [cf96d22b|8e468cba] (0+2/7) Accurately ripped
12 [75e5e2e5|daf2e4ec] (0+2/7) Accurately ripped
13 [6d331d10|04b919eb] (0+2/7) Accurately ripped
14 [56cb0d3d|e9a54bf6] (0+2/7) Accurately ripped
Offsetted by 12:
01 [41c933cd] (0/7) No match (V2 was not tested)
02 [62392c58] (0/7) No match (V2 was not tested)
03 [68135562] (0/7) No match (V2 was not tested)
04 [faf386f1] (0/7) No match (V2 was not tested)
05 [a23b8384] (0/7) No match (V2 was not tested)
06 [5db36592] (0/7) No match (V2 was not tested)
07 [ad19d2f9] (0/7) No match (V2 was not tested)
08 [8a121d02] (0/7) No match (V2 was not tested)
09 [2475c6f1] (0/7) No match (V2 was not tested)
10 [53350e04] (0/7) No match (V2 was not tested)
11 [1c6bb927] (0/7) No match (V2 was not tested)
12 [10487dfd] (0/7) No match (V2 was not tested)
13 [c57db5b8] (0/7) No match (V2 was not tested)
14 [1dff97a1] (0/7) No match (V2 was not tested)

Track Peak [ CRC32 ] [W/O NULL] [ LOG ]
– 100,0 [72ADDBDB] [47EC8DFF] CRC32
01 94,1 [A4D53855] [61AD6778]
02 93,9 [29882348] [2C7BE3AE]
03 99,9 [9C0CEC4B] [94CD3AC8]
04 100,0 [44CFC9D7] [C70FB14B]
05 100,0 [A3BDA26A] [8E86B5A8]
06 100,0 [3C4505DD] [EBEA4D1D]
07 100,0 [04916A17] [46D56C74]
08 100,0 [0C9173C6] [E0D4E371]
09 87,8 [9BC2F2FF] [32BC0854]
10 100,0 [CE4F7428] [E4EE1148]
11 100,0 [2ABF2666] [997CFB3B]
12 89,6 [1FC12C94] [733087FE]
13 89,5 [3D394960] [7714EB3E]
14 100,0 [8B63AFC6] [164AD7FB]

Jennifer Rush - Rush Hour: The Original Hits (2013) {3CD Box Set}

See also:
Jennifer Rush - Movin' (1985)
Jennifer Rush - The Power Of Love: The Best Of Jennifer Rush (2000)

All thanks go to Boris1

>>> My Blog <<<

Download from icerbox.com: