Subcategories

John Lennon: Japanese Mini LP Collection (1969-1984)

Posted By: v3122
John Lennon: Japanese Mini LP Collection (1969-1984)

John Lennon: Japanese Mini LP Collection (1969-1984)
EAC | Flac(Image) + Cue + Log & MP3 CBR 320Kbps
2007 | 11CD | EMI, TOCP 70390-70400 | ~ 3394 or 1357 Mb | Scans(jpg) -> 112 Mb
Rock & Roll, Art Rock, Noise, Avantgarde, Classic Rock

John Winston Ono Lennon, MBE (born John Winston Lennon; 9 October 1940 – 8 December 1980) was an English singer, songwriter, musician, and peace activist who co-founded the Beatles, the most commercially successful band in the history of popular music. He and fellow member Paul McCartney formed a much-celebrated songwriting partnership. Along with George Harrison and Ringo Starr, the group would ascend to world-wide fame during the 1960s.

Born and raised in Liverpool, Lennon became involved in the skiffle craze as a teenager. In 1957, he formed his first band, the Quarrymen, which evolved into the Beatles in 1960. Lennon began to record as a solo artist before the band's break-up in April 1970; two of those songs were "Give Peace a Chance" and "Instant Karma!" Lennon subsequently produced albums that included John Lennon/Plastic Ono Band and Imagine, and songs such as "Working Class Hero", "Imagine" and "Happy Xmas (War Is Over)". After he married Yoko Ono in 1969, he added "Ono" as one of his middle names. Lennon disengaged himself from the music business in 1975 to raise his infant son Sean, but re-emerged with Ono in 1980 with the album Double Fantasy. A lone gunman shot and killed Lennon in the archway of his Manhattan apartment building three weeks after the album was released.

Lennon revealed a rebellious nature and acerbic wit in his music, writing, drawings, on film and in interviews. Controversial through his political and peace activism, he moved from London to Manhattan in 1971, where his criticism of the Vietnam War resulted in a lengthy attempt by the Nixon administration to deport him. Some of his songs were adopted as anthems by the anti-war movement and the larger counterculture.

By 2012, Lennon's solo album sales in the United States had exceeded 14 million units. He is responsible for 25 number-one singles on the US Billboard Hot 100 chart as a writer, co-writer, or performer. In 2002, Lennon was voted eighth in a BBC poll of the 100 Greatest Britons and in 2008, Rolling Stone ranked him the fifth-greatest singer of all time. In 1987, he was posthumously inducted into the Songwriters Hall of Fame. Lennon was twice posthumously inducted into the Rock and Roll Hall of Fame—first in 1988 as a member of the Beatles and again in 1994 as a solo artist…

~ wiki
John Lennon: Japanese Mini LP Collection (1969-1984):

John Lennon: Japanese Mini LP Collection (1969-1984)

Tracklist CD1 - 1969 - The Plastic Ono Band - Live Peace In Toronto:
EMI TOCP-70390

01. Blue Suede Shoes (4:03)
02. Money (3:21)
03. Dizzy Miss Lizzy (3:20)
04. Yer Blues (4:08)
05. Cold Turkey (3:29)
06. Give Peace A Chance (3:57)
07. Don't Worry Kyoko (Mummy's Only Looking For Her Hand In The Snow) (4:49)
08. John, John (Let's Hope For Peace) (12:43)

Exact Audio Copy V0.99 prebeta 4 from 23. January 2008

EAC extraction logfile from 10. February 2009, 14:36

The Plastic Ono Band / Live Peace In Toronto 1969

Used drive : _NEC DVD_RW ND-3520AW Adapter: 0 ID: 0

Read mode : Secure
Utilize accurate stream : Yes
Defeat audio cache : Yes
Make use of C2 pointers : No

Read offset correction : 48
Overread into Lead-In and Lead-Out : No
Fill up missing offset samples with silence : Yes
Delete leading and trailing silent blocks : No
Null samples used in CRC calculations : Yes
Used interface : Native Win32 interface for Win NT & 2000

Used output format : Internal WAV Routines
Sample format : 44.100 Hz; 16 Bit; Stereo


TOC of the extracted CD

Track | Start | Length | Start sector | End sector
––––––––––––––––––––––––––––-
1 | 0:00.00 | 4:02.55 | 0 | 18204
2 | 4:02.55 | 3:20.72 | 18205 | 33276
3 | 7:23.52 | 3:19.45 | 33277 | 48246
4 | 10:43.22 | 4:08.28 | 48247 | 66874
5 | 14:51.50 | 3:28.60 | 66875 | 82534
6 | 18:20.35 | 3:57.30 | 82535 | 100339
7 | 22:17.65 | 4:48.62 | 100340 | 122001
8 | 27:06.52 | 12:42.65 | 122002 | 179216


Range status and errors

Selected range

Filename F:\Music Lossless\The Plastic Ono Band - Live Peace In Toronto 1969 (Japan EMI TOCP- 70390)\The Plastic Ono Band - Live Peace In Toronto 1969.wav

Peak level 97.7 %
Range quality 99.9 %
Test CRC 4FFBBBA1
Copy CRC 4FFBBBA1
Copy OK

No errors occurred


AccurateRip summary

Track 1 cannot be verified as accurate (confidence 2) [9165FDEC], AccurateRip returned [61394820]
Track 2 cannot be verified as accurate (confidence 2) [3CF88E25], AccurateRip returned [18EB1063]
Track 3 cannot be verified as accurate (confidence 2) [3CF76C8D], AccurateRip returned [A3232389]
Track 4 cannot be verified as accurate (confidence 2) [439ED89D], AccurateRip returned [EFAC0087]
Track 5 cannot be verified as accurate (confidence 2) [17DE1375], AccurateRip returned [FD25E8D2]
Track 6 cannot be verified as accurate (confidence 2) [8F7B554E], AccurateRip returned [52DD5182]
Track 7 cannot be verified as accurate (confidence 2) [C95DB0CA], AccurateRip returned [1A00EC28]
Track 8 cannot be verified as accurate (confidence 2) [7B6D89BE], AccurateRip returned [E3FF73E3]

No tracks could be verified as accurate
You may have a different pressing from the one(s) in the database

End of status report


[CUETools log; Date: 07.02.2018 8:21:00; Version: 2.1.5]
[CTDB TOCID: et81HiW7NBEB7ArVM2pr6CxGr.c-] found.
Track | CTDB Status
1 | (33/33) Accurately ripped
2 | (33/33) Accurately ripped
3 | (33/33) Accurately ripped
4 | (33/33) Accurately ripped
5 | (33/33) Accurately ripped
6 | (33/33) Accurately ripped
7 | (33/33) Accurately ripped
8 | (33/33) Accurately ripped
[AccurateRip ID: 0009edca-0043e774-61095508] found.
Track [ CRC | V2 ] Status
01 [9165fdec|938f511a] (02+02/25) Accurately ripped
02 [3cf88e25|7fdbb9f8] (02+02/25) Accurately ripped
03 [3cf76c8d|f78a63f5] (02+02/25) Accurately ripped
04 [439ed89d|a5a49ede] (02+02/25) Accurately ripped
05 [17de1375|489a026c] (02+02/25) Accurately ripped
06 [8f7b554e|813ea2db] (02+02/24) Accurately ripped
07 [c95db0ca|1d1805ca] (02+02/25) Accurately ripped
08 [7b6d89be|54ff26be] (00+02/23) Accurately ripped
Offsetted by -1885:
01 [69b80319] (04/25) Accurately ripped
02 [f5ad603b] (04/25) Accurately ripped
03 [178f8071] (04/25) Accurately ripped
04 [66cc9ad3] (04/25) Accurately ripped
05 [48d46496] (04/25) Accurately ripped
06 [20005b97] (03/24) Accurately ripped
07 [ce923324] (04/25) Accurately ripped
08 [d6fc6703] (04/23) Accurately ripped
Offsetted by -426:
01 [61394820] (04/25) Accurately ripped
02 [18eb1063] (04/25) Accurately ripped
03 [a3232389] (04/25) Accurately ripped
04 [efac0087] (04/25) Accurately ripped
05 [fd25e8d2] (04/25) Accurately ripped
06 [52dd5182] (04/24) Accurately ripped
07 [1a00ec28] (04/25) Accurately ripped
08 [e3ff73e3] (04/23) Accurately ripped
Offsetted by 6:
01 [922fae9c] (00/25) No match (V2 was not tested)
02 [1ff8a45e] (00/25) No match (V2 was not tested)
03 [e199563f] (00/25) No match (V2 was not tested)
04 [b4e75c80] (00/25) No match (V2 was not tested)
05 [07e88442] (00/25) No match (V2 was not tested)
06 [da4d8f5d] (00/24) No match (V2 was not tested)
07 [f068702b] (00/25) No match (V2 was not tested)
08 [0fd4f257] (00/23) No match (V2 was not tested)
Offsetted by 1245:
01 [dd7eb85d] (00/25) No match (V2 was not tested)
02 [c6ad3007] (00/25) No match (V2 was not tested)
03 [9f7a08d8] (00/25) No match (V2 was not tested)
04 [ed55b141] (00/25) No match (V2 was not tested)
05 [18c9d513] (00/25) No match (V2 was not tested)
06 [02f036df] (00/24) No match (V2 was not tested)
07 [c7045185] (00/25) No match (V2 was not tested)
08 [55f8e71c] (00/23) No match (V2 was not tested)

Track Peak [ CRC32 ] [W/O NULL] [ LOG ]
– 97,7 [4FFBBBA1] [B02A6E1B] CRC32
01 97,7 [DAC5711F] [5C3B74AE]
02 97,7 [83C9E6F9] [9DFC401F]
03 97,7 [532AF378] [F581EF01]
04 97,7 [429855B1] [41A95E02]
05 97,7 [F51BB379] [7A2D9F7B]
06 97,7 [DB3BDD67] [FFC8F8FC]
07 97,7 [B5CE2272] [AF9FC16C]
08 97,7 [E1F1D378] [07532DAC]


John Lennon: Japanese Mini LP Collection (1969-1984)

Tracklist CD2 - 1970 - John Lennon - Plastic Ono Band:
EMI TOCP-70391

01. Mother (5:37)
02. Hold On (1:52)
03. I Found Out (3:38)
04. Working Class Hero (3:51)
05. Isolation (2:52)
06. Remember (4:36)
07. Love (3:24)
08. Well Well Well (6:00)
09. Look At Me (2:56)
10. God (4:11)
11. My Mummy's Dead (0:59)
12. Power To The People (Bonus Track) (3:23)
13. Do The Oz (Bonus Track) (3:08)

Exact Audio Copy V0.99 prebeta 4 from 23. January 2008

EAC extraction logfile from 28. January 2009, 16:55

John Lennon / Plastic Ono Band

Used drive : _NEC DVD_RW ND-3520AW Adapter: 0 ID: 0

Read mode : Secure
Utilize accurate stream : Yes
Defeat audio cache : Yes
Make use of C2 pointers : No

Read offset correction : 48
Overread into Lead-In and Lead-Out : No
Fill up missing offset samples with silence : Yes
Delete leading and trailing silent blocks : No
Null samples used in CRC calculations : Yes
Used interface : Native Win32 interface for Win NT & 2000

Used output format : Internal WAV Routines
Sample format : 44.100 Hz; 16 Bit; Stereo


TOC of the extracted CD

Track | Start | Length | Start sector | End sector
––––––––––––––––––––––––––––-
1 | 0:00.00 | 5:37.02 | 0 | 25276
2 | 5:37.02 | 1:51.68 | 25277 | 33669
3 | 7:28.70 | 3:37.50 | 33670 | 49994
4 | 11:06.45 | 3:50.67 | 49995 | 67311
5 | 14:57.37 | 2:51.73 | 67312 | 80209
6 | 17:49.35 | 4:36.35 | 80210 | 100944
7 | 22:25.70 | 3:24.02 | 100945 | 116246
8 | 25:49.72 | 5:59.40 | 116247 | 143211
9 | 31:49.37 | 2:55.38 | 143212 | 156374
10 | 34:45.00 | 4:10.45 | 156375 | 175169
11 | 38:55.45 | 0:59.20 | 175170 | 179614
12 | 39:54.65 | 3:22.57 | 179615 | 194821
13 | 43:17.47 | 3:07.63 | 194822 | 208909


Range status and errors

Selected range

Filename F:\Music Lossless\John Lennon - Plastic Ono Band (1970) (Japan EMI TOCP-70391)\John Lennon - Plastic Ono Band.wav

Peak level 99.3 %
Range quality 100.0 %
Test CRC 52C454E3
Copy CRC 52C454E3
Copy OK

No errors occurred


AccurateRip summary

Track 1 not present in database
Track 2 not present in database
Track 3 not present in database
Track 4 not present in database
Track 5 not present in database
Track 6 not present in database
Track 7 not present in database
Track 8 not present in database
Track 9 not present in database
Track 10 not present in database
Track 11 not present in database
Track 12 not present in database
Track 13 not present in database

None of the tracks are present in the AccurateRip database

End of status report


[CUETools log; Date: 07.02.2018 8:21:29; Version: 2.1.5]
[CTDB TOCID: Jbq9p_aRoPOFv1GhS_DqxkMqslI-] found.
Track | CTDB Status
1 | (74/75) Accurately ripped
2 | (74/75) Accurately ripped
3 | (74/75) Accurately ripped
4 | (75/75) Accurately ripped
5 | (75/75) Accurately ripped
6 | (74/75) Accurately ripped
7 | (74/75) Accurately ripped
8 | (74/75) Accurately ripped
9 | (75/75) Accurately ripped
10 | (75/75) Accurately ripped
11 | (75/75) Accurately ripped
12 | (75/75) Accurately ripped
13 | (71/75) Accurately ripped
[AccurateRip ID: 00175f70-00e7e852-c50ae10d] found.
Track [ CRC | V2 ] Status
01 [fd1ff65f|9e64a956] (12+11/68) Accurately ripped
02 [22fbc1de|7d06598f] (12+11/68) Accurately ripped
03 [1063fa63|4da64097] (12+11/68) Accurately ripped
04 [31b2cb82|5d864011] (12+11/68) Accurately ripped
05 [5330032e|c8508148] (12+11/68) Accurately ripped
06 [cbe4378f|a415cabd] (12+11/67) Accurately ripped
07 [8da03893|7a8d3efa] (12+11/67) Accurately ripped
08 [c04f57c6|7d504e0d] (12+11/68) Accurately ripped
09 [43ecfda6|0dc31080] (12+11/68) Accurately ripped
10 [5a76ff54|d33fd0de] (12+11/67) Accurately ripped
11 [65d0e629|bad57408] (12+11/68) Accurately ripped
12 [2b5906d2|7b9ed892] (11+11/67) Accurately ripped
13 [c5fcb025|5c86c2e9] (10+11/64) Accurately ripped
Offsetted by -196:
01 [a981a844] (12/68) Accurately ripped
02 [40020bd3] (12/68) Accurately ripped
03 [438c62f5] (12/68) Accurately ripped
04 [6aa60fda] (12/68) Accurately ripped
05 [a13d9046] (12/68) Accurately ripped
06 [f704f868] (11/67) Accurately ripped
07 [89785c7f] (11/67) Accurately ripped
08 [37e174a1] (12/68) Accurately ripped
09 [153172ae] (12/68) Accurately ripped
10 [fa340498] (12/67) Accurately ripped
11 [3b6c41e5] (12/68) Accurately ripped
12 [cd869c9a] (12/67) Accurately ripped
13 [86ed9a35] (12/64) Accurately ripped
Offsetted by -30:
01 [93db46c7] (02/68) Accurately ripped
02 [c559b890] (02/68) Accurately ripped
03 [dd1c650f] (02/68) Accurately ripped
04 [ad5aa456] (02/68) Accurately ripped
05 [9b374fa2] (02/68) Accurately ripped
06 [a294ae4c] (02/67) Accurately ripped
07 [c5fd5749] (02/67) Accurately ripped
08 [95a9d945] (02/68) Accurately ripped
09 [7e143422] (02/68) Accurately ripped
10 [d62e0d32] (02/67) Accurately ripped
11 [5f53c7cb] (02/68) Accurately ripped
12 [97c344ee] (02/67) Accurately ripped
13 [88171d1d] (02/64) Accurately ripped
Offsetted by -807:
01 [fa64a85d] (00/68) No match (V2 was not tested)
02 [fe05a699] (00/68) No match (V2 was not tested)
03 [8374d195] (00/68) No match (V2 was not tested)
04 [fcd5e0fc] (00/68) No match (V2 was not tested)
05 [fe5abef8] (00/68) No match (V2 was not tested)
06 [e8b5711b] (00/67) No match (V2 was not tested)
07 [a127b292] (00/67) No match (V2 was not tested)
08 [ea781400] (00/68) No match (V2 was not tested)
09 [603f0414] (00/68) No match (V2 was not tested)
10 [f3fff45b] (00/67) No match (V2 was not tested)
11 [3744cee2] (00/68) No match (V2 was not tested)
12 [761c8d90] (00/67) No match (V2 was not tested)
13 [44f6bd01] (00/64) No match (V2 was not tested)
Offsetted by 6:
01 [e9c7e859] (00/68) No match (V2 was not tested)
02 [1e700f84] (00/68) No match (V2 was not tested)
03 [52e6517d] (00/68) No match (V2 was not tested)
04 [b29139be] (00/68) No match (V2 was not tested)
05 [77fb5a4a] (00/68) No match (V2 was not tested)
06 [eade7e67] (00/67) No match (V2 was not tested)
07 [a1e53a5b] (00/67) No match (V2 was not tested)
08 [fb4ad7ac] (00/68) No match (V2 was not tested)
09 [384b8c5a] (00/68) No match (V2 was not tested)
10 [74ebfc8e] (00/67) No match (V2 was not tested)
11 [671d1f6f] (00/68) No match (V2 was not tested)
12 [e276fa66] (00/67) No match (V2 was not tested)
13 [d25dcd8d] (00/64) No match (V2 was not tested)

Track Peak [ CRC32 ] [W/O NULL] [ LOG ]
– 99,2 [52C454E3] [0B686B70] CRC32
01 99,2 [AB256136] [8E14922A]
02 98,7 [94C40041] [645E9D7F]
03 99,1 [1ED3B03F] [2AD78CFB]
04 98,3 [6DDF8531] [885875C8]
05 99,1 [AE6BFD9E] [D1AE8915]
06 99,0 [23AF0CD8] [68C436E5]
07 77,3 [52DD595E] [7B8898CA]
08 98,9 [ABD13CFC] [E4ABDB32]
09 60,8 [80EDEF88] [81543C5A]
10 99,2 [21920A63] [80F014AE]
11 44,3 [545A1941] [DF3E36EC]
12 98,0 [77055683] [C3C8A151]
13 98,8 [F9562B4C] [EAFCCC05]


John Lennon: Japanese Mini LP Collection (1969-1984)

Tracklist CD3 - 1971 - John Lennon - Imagine:
EMI TOCP-70392

01. Imagine (3:04)
02. Crippled Inside (3:49)
03. Jealous Guy (4:15)
04. It's So Hard (2:28)
05. I Don't Wanna Be A Soldier Mama (6:08)
06. Gimme Some Truth (3:17)
07. Oh My Love (2:46)
08. How Do You Sleep? (5:36)
09. How? (3:45)
10. Oh Yoko! (4:22)

Exact Audio Copy V0.99 prebeta 4 from 23. January 2008

EAC extraction logfile from 28. January 2009, 21:21

John Lennon / Imagine

Used drive : _NEC DVD_RW ND-3520AW Adapter: 0 ID: 0

Read mode : Secure
Utilize accurate stream : Yes
Defeat audio cache : Yes
Make use of C2 pointers : No

Read offset correction : 48
Overread into Lead-In and Lead-Out : No
Fill up missing offset samples with silence : Yes
Delete leading and trailing silent blocks : No
Null samples used in CRC calculations : Yes
Used interface : Native Win32 interface for Win NT & 2000

Used output format : Internal WAV Routines
Sample format : 44.100 Hz; 16 Bit; Stereo


TOC of the extracted CD

Track | Start | Length | Start sector | End sector
––––––––––––––––––––––––––––-
1 | 0:00.00 | 3:04.02 | 0 | 13801
2 | 3:04.02 | 3:49.25 | 13802 | 31001
3 | 6:53.27 | 4:14.68 | 31002 | 50119
4 | 11:08.20 | 2:27.65 | 50120 | 61209
5 | 13:36.10 | 6:08.02 | 61210 | 88811
6 | 19:44.12 | 3:16.38 | 88812 | 103549
7 | 23:00.50 | 2:45.52 | 103550 | 115976
8 | 25:46.27 | 5:36.10 | 115977 | 141186
9 | 31:22.37 | 3:45.13 | 141187 | 158074
10 | 35:07.50 | 4:21.55 | 158075 | 177704


Range status and errors

Selected range

Filename F:\Music Lossless\John Lennon - Imagine (1971) (Japan EMI TOCP-70392)\John Lennon - Imagine.wav

Peak level 98.8 %
Range quality 100.0 %
Test CRC 1A7C9ED6
Copy CRC 1A7C9ED6
Copy OK

No errors occurred


AccurateRip summary

Track 1 accurately ripped (confidence 2) [5077875B]
Track 2 accurately ripped (confidence 2) [3EE561B8]
Track 3 accurately ripped (confidence 2) [E5DFE408]
Track 4 accurately ripped (confidence 2) [CBBA9669]
Track 5 accurately ripped (confidence 2) [06548D2C]
Track 6 accurately ripped (confidence 2) [E18D3C02]
Track 7 accurately ripped (confidence 2) [2DB74F13]
Track 8 accurately ripped (confidence 2) [0DEF1A91]
Track 9 accurately ripped (confidence 2) [DA5AA4D4]
Track 10 accurately ripped (confidence 2) [85DAA8E1]

All tracks accurately ripped

End of status report


[CUETools log; Date: 07.02.2018 8:21:53; Version: 2.1.5]
[CTDB TOCID: pTI658hNVBf0x8SiXHKPOgJBsoQ-] found.
Track | CTDB Status
1 | (487/492) Accurately ripped
2 | (490/492) Accurately ripped
3 | (489/492) Accurately ripped
4 | (488/492) Accurately ripped
5 | (485/492) Accurately ripped
6 | (486/492) Accurately ripped
7 | (489/492) Accurately ripped
8 | (479/492) Accurately ripped, or (3/492) differs in 3399 samples @05:36:06-05:36:13
9 | (481/492) Accurately ripped, or (3/492) differs in 4075 samples @00:00:00-00:00:03
10 | (488/492) Accurately ripped
[AccurateRip ID: 000e5d80-00744133-8a09410a] found.
Track [ CRC | V2 ] Status
01 [5077875b|e11ba548] (010+008/620) Accurately ripped
02 [3ee561b8|a16e995b] (009+008/614) Accurately ripped
03 [e5dfe408|70b02a4a] (009+008/614) Accurately ripped
04 [cbba9669|aa11e9a9] (009+008/614) Accurately ripped
05 [06548d2c|e76a108a] (009+008/609) Accurately ripped
06 [e18d3c02|8b650332] (009+008/613) Accurately ripped
07 [2db74f13|399d14b3] (009+008/613) Accurately ripped
08 [0def1a91|05f8bd64] (009+008/603) Accurately ripped
09 [da5aa4d4|b44bc563] (009+008/605) Accurately ripped
10 [85daa8e1|a5fad878] (009+008/607) Accurately ripped
Offsetted by -1443:
01 [72ac5af5] (002/620) Accurately ripped
02 [19d60181] (002/614) Accurately ripped
03 [92ff63ea] (002/614) Accurately ripped
04 [a5bd973e] (002/614) Accurately ripped
05 [d047dc7d] (002/609) Accurately ripped
06 [6c737c13] (002/613) Accurately ripped
07 [9c61fced] (002/613) Accurately ripped
08 [4fd96a84] (002/603) Accurately ripped
09 [da81b69b] (002/605) Accurately ripped
10 [cd390728] (002/607) Accurately ripped
Offsetted by -779:
01 [ae277925] (053/620) Accurately ripped
02 [1f5b92b9] (053/614) Accurately ripped
03 [d0ba9bda] (051/614) Accurately ripped
04 [833d8a16] (053/614) Accurately ripped
05 [17fccd75] (051/609) Accurately ripped
06 [7877870b] (053/613) Accurately ripped
07 [53fe291d] (051/613) Accurately ripped
08 [b6a92275] (052/603) Accurately ripped
09 [0b0ef47a] (052/605) Accurately ripped
10 [34a1bd70] (051/607) Accurately ripped
Offsetted by -156:
01 [3f687ba3] (004/620) Accurately ripped
02 [b76e190c] (004/614) Accurately ripped
03 [0d58eaf0] (004/614) Accurately ripped
04 [f122b22d] (004/614) Accurately ripped
05 [45ad2020] (004/609) Accurately ripped
06 [132995f6] (004/613) Accurately ripped
07 [af4d385b] (004/613) Accurately ripped
08 [9b01552d] (004/603) Accurately ripped
09 [e1ae6ab0] (004/605) Accurately ripped
10 [110774cd] (004/607) Accurately ripped
Offsetted by -115:
01 [e9a29755] (042/620) Accurately ripped
02 [24e123f1] (043/614) Accurately ripped
03 [0e75d3ca] (042/614) Accurately ripped
04 [60bd7cee] (043/614) Accurately ripped
05 [5fb1be6d] (042/609) Accurately ripped
06 [847b9203] (043/613) Accurately ripped
07 [0b9a554d] (043/613) Accurately ripped
08 [cffad527] (039/603) Accurately ripped
09 [18e00760] (041/605) Accurately ripped
10 [9c0a73b8] (038/607) Accurately ripped
Offsetted by -30:
01 [570853df] (003/620) Accurately ripped
02 [91270ed2] (003/614) Accurately ripped
03 [8128655c] (003/614) Accurately ripped
04 [35624cfb] (003/614) Accurately ripped
05 [12831f96] (002/609) Accurately ripped
06 [43b525ec] (002/613) Accurately ripped
07 [9f407217] (002/613) Accurately ripped
08 [85e4c4a8] (003/603) Accurately ripped
09 [09f0d521] (002/605) Accurately ripped
10 [96c5bc67] (002/607) Accurately ripped
Offsetted by 655:
01 [411e1619] (004/620) Accurately ripped
02 [904b73ab] (004/614) Accurately ripped
03 [d230dc5e] (004/614) Accurately ripped
04 [c8ecd9a0] (004/614) Accurately ripped
05 [d1b11077] (004/609) Accurately ripped
06 [57d0738d] (004/613) Accurately ripped
07 [542fd291] (004/613) Accurately ripped
08 [8bf6ef47] (004/603) Accurately ripped
09 [c481c2e4] (004/605) Accurately ripped
10 [3f237e9e] (004/607) Accurately ripped
Offsetted by 791:
01 [568daa29] (054/620) Accurately ripped
02 [a3ee8513] (051/614) Accurately ripped
03 [bce82bae] (053/614) Accurately ripped
04 [e9f48ce8] (051/614) Accurately ripped
05 [efccdf1f] (051/609) Accurately ripped
06 [bcf96035] (053/613) Accurately ripped
07 [73a000a1] (051/613) Accurately ripped
08 [4faca83e] (051/603) Accurately ripped
09 [902060e5] (051/605) Accurately ripped
10 [69e8bfb6] (052/607) Accurately ripped
Offsetted by 801:
01 [545d65fd] (015/620) Accurately ripped
02 [ddd8a0b5] (016/614) Accurately ripped
03 [33d00092] (016/614) Accurately ripped
04 [c6bca562] (015/614) Accurately ripped
05 [4112ae51] (014/609) Accurately ripped
06 [f196bce7] (015/613) Accurately ripped
07 [a31cf4f5] (015/613) Accurately ripped
08 [59fd80fc] (013/603) Accurately ripped
09 [8d61a4c3] (014/605) Accurately ripped
10 [0eefb934] (016/607) Accurately ripped
Offsetted by 825:
01 [1be98f2d] (010/620) Accurately ripped
02 [68d7496d] (012/614) Accurately ripped
03 [b795ff82] (012/614) Accurately ripped
04 [723679ba] (012/614) Accurately ripped
05 [3753d2c9] (012/609) Accurately ripped
06 [d6439b5f] (012/613) Accurately ripped
07 [7b7c0c25] (012/613) Accurately ripped
08 [eb32a283] (012/603) Accurately ripped
09 [8751478c] (012/605) Accurately ripped
10 [349a0ffc] (012/607) Accurately ripped
Offsetted by 1183:
01 [6729a039] (005/620) Accurately ripped
02 [822df37b] (005/614) Accurately ripped
03 [2534c4fe] (005/614) Accurately ripped
04 [85651930] (005/614) Accurately ripped
05 [fb4a32c7] (005/609) Accurately ripped
06 [feab91dd] (005/613) Accurately ripped
07 [ec5bd0b1] (005/613) Accurately ripped
08 [abf934fd] (005/603) Accurately ripped
09 [9bdbbb96] (005/605) Accurately ripped
10 [7bc6f3ce] (005/607) Accurately ripped
Offsetted by 1319:
01 [7c993449] (128/620) Accurately ripped
02 [95d104e3] (125/614) Accurately ripped
03 [0fec144e] (126/614) Accurately ripped
04 [a66ccc78] (126/614) Accurately ripped
05 [1966016f] (125/609) Accurately ripped
06 [63d47e85] (125/613) Accurately ripped
07 [0bcbfec1] (126/613) Accurately ripped
08 [7c22285a] (126/603) Accurately ripped
09 [da294f69] (125/605) Accurately ripped
10 [a68c34e6] (127/607) Accurately ripped
Offsetted by 1497:
01 [ef3e106d] (008/620) Accurately ripped
02 [9cb1bd8d] (008/614) Accurately ripped
03 [213de1c2] (008/614) Accurately ripped
04 [3389b35a] (008/614) Accurately ripped
05 [2673cfe9] (008/609) Accurately ripped
06 [d92bf07f] (008/613) Accurately ripped
07 [25e29565] (008/613) Accurately ripped
08 [eacd8d52] (008/603) Accurately ripped
09 [58daf965] (008/605) Accurately ripped
10 [533b8ddc] (008/607) Accurately ripped
Offsetted by 6:
01 [825a91a7] (000/620) No match (V2 was not tested)
02 [61a50be6] (000/614) No match (V2 was not tested)
03 [c6d163c4] (000/614) No match (V2 was not tested)
04 [b6990b7f] (000/614) No match (V2 was not tested)
05 [03e4d64a] (000/609) No match (V2 was not tested)
06 [9ab873a0] (000/613) No match (V2 was not tested)
07 [e3cf14df] (000/613) No match (V2 was not tested)
08 [930a5259] (000/603) No match (V2 was not tested)
09 [d106ce58] (000/605) No match (V2 was not tested)
10 [4f453e93] (000/607) No match (V2 was not tested)
Offsetted by 785:
01 [24aa9fdd] (000/620) No match (V2 was not tested)
02 [812edae5] (000/614) No match (V2 was not tested)
03 [dbf6abf2] (000/614) No match (V2 was not tested)
04 [ff1617d2] (000/614) No match (V2 was not tested)
05 [f23c9601] (000/609) No match (V2 was not tested)
06 [03ce2897] (000/613) No match (V2 was not tested)
07 [bd883ad5] (000/613) No match (V2 was not tested)
08 [a0310f3e] (002/603) Accurately ripped
09 [91d83829] (000/605) No match (V2 was not tested)
10 [a07e2a04] (000/607) No match (V2 was not tested)
Offsetted by 797:
01 [8870b475] (000/620) No match
02 [c6ae2f41] (000/614) No match
03 [9dd9ab6a] (000/614) No match
04 [d4d301fe] (000/614) No match
05 [ed5d283d] (000/609) No match (V2 was not tested)
06 [762497d3] (000/613) No match (V2 was not tested)
07 [29b7c66d] (000/613) No match (V2 was not tested)
08 [6d90110a] (000/603) No match
09 [8e76899d] (000/605) No match
10 [33535568] (000/607) No match (V2 was not tested)

Track Peak [ CRC32 ] [W/O NULL] [ LOG ]
– 98,8 [1A7C9ED6] [2DF6000F] CRC32
01 98,8 [8968F767] [4B0FC898]
02 98,0 [8089D52E] [49415AFA]
03 98,3 [657C54E8] [E8742942]
04 98,1 [93525D68] [B75B6EE6]
05 98,2 [F51E0658] [3858843D]
06 98,0 [0EDCADBD] [325E3207]
07 81,3 [E007E625] [430D8403]
08 98,4 [360D377D] [0EB8FA2D]
09 90,6 [9B01A36B] [7F1A73BB]
10 95,4 [0E140386] [27767D2F]


John Lennon: Japanese Mini LP Collection (1969-1984)

Tracklist CD4 - 1972 - John & Yoko Plastic Ono Band - Sometime In New York City CD1:
EMI TOCP-70393

01. Woman Is The Nigger Of The World (5:18)
02. Sisters, O Sisters (3:49)
03. Attica State (2:57)
04. Born In A Prison (4:06)
05. New York City (4:33)
06. Sunday Bloody Sunday (5:03)
07. The Luck Of The Irish (2:59)
08. John Sinclair (3:31)
09. Angela (4:09)
10. We're All Water (7:14)

Exact Audio Copy V0.99 prebeta 4 from 23. January 2008

EAC extraction logfile from 29. January 2009, 23:35

John & Yoko Plastic Ono Band / Sometime in New York City Disc 1

Used drive : _NEC DVD_RW ND-3520AW Adapter: 0 ID: 0

Read mode : Secure
Utilize accurate stream : Yes
Defeat audio cache : Yes
Make use of C2 pointers : No

Read offset correction : 48
Overread into Lead-In and Lead-Out : No
Fill up missing offset samples with silence : Yes
Delete leading and trailing silent blocks : No
Null samples used in CRC calculations : Yes
Used interface : Native Win32 interface for Win NT & 2000

Used output format : Internal WAV Routines
Sample format : 44.100 Hz; 16 Bit; Stereo


TOC of the extracted CD

Track | Start | Length | Start sector | End sector
––––––––––––––––––––––––––––-
1 | 0:00.32 | 5:17.53 | 32 | 23859
2 | 5:18.10 | 3:48.65 | 23860 | 41024
3 | 9:07.00 | 2:57.17 | 41025 | 54316
4 | 12:04.17 | 4:05.58 | 54317 | 72749
5 | 16:10.00 | 4:32.72 | 72750 | 93221
6 | 20:42.72 | 5:03.05 | 93222 | 115951
7 | 25:46.02 | 2:59.08 | 115952 | 129384
8 | 28:45.10 | 3:30.72 | 129385 | 145206
9 | 32:16.07 | 4:08.50 | 145207 | 163856
10 | 36:24.57 | 7:13.45 | 163857 | 196376


Range status and errors

Selected range

Filename F:\Music Lossless\John & Yoko Plastic Ono Band - Sometime in New York City (1972) (Japan EMI TOCP- 70393-94)\John & Yoko Plastic Ono Band - Sometime in New York City. Disc 1.wav

Peak level 92.4 %
Range quality 100.0 %
Test CRC 0A68A75C
Copy CRC 0A68A75C
Copy OK

No errors occurred


AccurateRip summary

Track 1 accurately ripped (confidence 3) [B7696AEB]
Track 2 accurately ripped (confidence 3) [55D3C889]
Track 3 accurately ripped (confidence 3) [F607E3A0]
Track 4 accurately ripped (confidence 3) [7D2CB337]
Track 5 accurately ripped (confidence 3) [37BAF3E2]
Track 6 accurately ripped (confidence 3) [48B6944B]
Track 7 accurately ripped (confidence 3) [563CF42F]
Track 8 accurately ripped (confidence 3) [CA984AB0]
Track 9 accurately ripped (confidence 3) [9B37B366]
Track 10 accurately ripped (confidence 3) [14F405D9]

All tracks accurately ripped

End of status report


[CUETools log; Date: 07.02.2018 8:22:24; Version: 2.1.5]
Pregap length 00:00:32.
[CTDB TOCID: Oa_j218Y5.hk8OGmqrRYDT_8ELc-] found.
Track | CTDB Status
1 | (20/23) Accurately ripped
2 | (20/23) Accurately ripped
3 | (20/23) Accurately ripped
4 | (20/23) Accurately ripped
5 | (20/23) Accurately ripped
6 | (20/23) Accurately ripped
7 | (20/23) Accurately ripped
8 | (20/23) Accurately ripped
9 | (20/23) Accurately ripped
10 | (17/23) Accurately ripped
[AccurateRip ID: 000fced0-007e174d-8e0a3a0a] found.
Track [ CRC | V2 ] Status
01 [b7696aeb|8085032d] (06+05/31) Accurately ripped
02 [55d3c889|45b3ceaf] (06+05/30) Accurately ripped
03 [f607e3a0|360b91d8] (06+05/30) Accurately ripped
04 [7d2cb337|be8a2b67] (06+05/30) Accurately ripped
05 [37baf3e2|07425d80] (06+05/30) Accurately ripped
06 [48b6944b|6b4530a8] (06+05/30) Accurately ripped
07 [563cf42f|bd61692e] (07+05/31) Accurately ripped
08 [ca984ab0|ba8992ce] (06+05/30) Accurately ripped
09 [9b37b366|77ac988e] (06+05/30) Accurately ripped
10 [14f405d9|9d8bad26] (06+05/29) Accurately ripped
Offsetted by 104:
01 [3be189db] (02/31) Accurately ripped
02 [a1c7b071] (02/30) Accurately ripped
03 [0e6c8fe0] (02/30) Accurately ripped
04 [6d9d1e4f] (02/30) Accurately ripped
05 [73372d52] (02/30) Accurately ripped
06 [66ff5ba3] (02/30) Accurately ripped
07 [658f038f] (02/31) Accurately ripped
08 [9606f670] (02/30) Accurately ripped
09 [d99ee75e] (02/30) Accurately ripped
10 [5d799969] (02/29) Accurately ripped
Offsetted by -962:
01 [ee124cbf] (00/31) No match (V2 was not tested)
02 [9743a767] (00/30) No match
03 [5464aa50] (00/30) No match
04 [0d1cd499] (00/30) No match
05 [517de096] (00/30) No match
06 [b095605d] (00/30) No match
07 [4885e5f7] (00/31) No match
08 [b0d89600] (00/30) No match
09 [19fd12b0] (00/30) No match
10 [362070e5] (00/29) No match
Offsetted by -205:
01 [3c24068d] (00/31) No match (V2 was not tested)
02 [0ee1c6cc] (00/30) No match (V2 was not tested)
03 [dc1a1018] (00/30) No match (V2 was not tested)
04 [60c54294] (00/30) No match (V2 was not tested)
05 [0003a034] (00/30) No match (V2 was not tested)
06 [88185a20] (00/30) No match (V2 was not tested)
07 [e458bd43] (00/31) No match (V2 was not tested)
08 [6d4a7338] (00/30) No match (V2 was not tested)
09 [765d80a7] (00/30) No match (V2 was not tested)
10 [6fd907e7] (00/29) No match (V2 was not tested)
Offsetted by -68:
01 [d6f37e13] (00/31) No match (V2 was not tested)
02 [d5658985] (00/30) No match (V2 was not tested)
03 [efed7300] (00/30) No match (V2 was not tested)
04 [c26d0abb] (00/30) No match (V2 was not tested)
05 [f34c30ca] (00/30) No match (V2 was not tested)
06 [f9d5c32f] (00/30) No match (V2 was not tested)
07 [5fe9c2bf] (00/31) No match (V2 was not tested)
08 [b1e39f50] (00/30) No match (V2 was not tested)
09 [7c42fdba] (00/30) No match (V2 was not tested)
10 [dbb06071] (00/29) No match (V2 was not tested)
Offsetted by 6:
01 [d2bf1def] (00/31) No match (V2 was not tested)
02 [f7bf64af] (00/30) No match (V2 was not tested)
03 [23beed90] (00/30) No match (V2 was not tested)
04 [061f7e51] (00/30) No match (V2 was not tested)
05 [b63d3246] (00/30) No match (V2 was not tested)
06 [409d3d55] (00/30) No match (V2 was not tested)
07 [afbcc3d7] (00/31) No match (V2 was not tested)
08 [3db74ac0] (00/30) No match (V2 was not tested)
09 [4b201dc8] (00/30) No match (V2 was not tested)
10 [ecd45835] (00/29) No match (V2 was not tested)
Offsetted by 79:
01 [f4a71ff5] (02/31) Accurately ripped
02 [5471fb28] (00/30) No match (V2 was not tested)
03 [4ff1e678] (00/30) No match (V2 was not tested)
04 [5da97ab8] (00/30) No match (V2 was not tested)
05 [0ec3295c] (00/30) No match (V2 was not tested)
06 [b368f0a4] (00/30) No match (V2 was not tested)
07 [70a52253] (00/31) No match (V2 was not tested)
08 [b65b20d8] (00/30) No match (V2 was not tested)
09 [52012c1b] (00/30) No match (V2 was not tested)
10 [04a8423f] (00/29) No match (V2 was not tested)

Track Peak [ CRC32 ] [W/O NULL] [ LOG ]
– 92,4 [0A68A75C] [EE94D0BF] CRC32
01 80,5 [CB8BF1FF] [70A0720C]
02 92,4 [72F8C6AD] [87FCC977]
03 88,3 [42DCB507] [4BC58515]
04 72,1 [682035E1] [93BAB940]
05 76,5 [3A2A0E56] [C5E9E75D]
06 78,0 [48B9B726] [89990703]
07 67,7 [957A9CBB] [704A5D90]
08 78,4 [83782764] [7DC69924]
09 79,8 [876882C3] [7255A012]
10 88,1 [E19C0272] [CE01F88B]


Tracklist CD5 - 1972 - John & Yoko Plastic Ono Band - Sometime In New York City CD2:
EMI TOCP-70394

01. Cold Turkey (Mono) (8:36)
02. Don't Worry Kyoko (Mono) (16:00)
03. Well (Baby Please Don't Go) (4:41)
04. Jamrag (5:37)
05. Scumbag (4:28)
06. Au (8:04)

Exact Audio Copy V0.99 prebeta 4 from 23. January 2008

EAC extraction logfile from 30. January 2009, 0:01

John & Yoko Plastic Ono Band / Sometime In New York City. Disc 2 . Live Jam

Used drive : _NEC DVD_RW ND-3520AW Adapter: 0 ID: 0

Read mode : Secure
Utilize accurate stream : Yes
Defeat audio cache : Yes
Make use of C2 pointers : No

Read offset correction : 48
Overread into Lead-In and Lead-Out : No
Fill up missing offset samples with silence : Yes
Delete leading and trailing silent blocks : No
Null samples used in CRC calculations : Yes
Used interface : Native Win32 interface for Win NT & 2000

Used output format : Internal WAV Routines
Sample format : 44.100 Hz; 16 Bit; Stereo


TOC of the extracted CD

Track | Start | Length | Start sector | End sector
––––––––––––––––––––––––––––-
1 | 0:00.00 | 8:35.65 | 0 | 38689
2 | 8:35.65 | 16:00.32 | 38690 | 110721
3 | 24:36.22 | 4:41.05 | 110722 | 131801
4 | 29:17.27 | 5:36.38 | 131802 | 157039
5 | 34:53.65 | 4:27.55 | 157040 | 177119
6 | 39:21.45 | 8:04.35 | 177120 | 213454


Range status and errors

Selected range

Filename F:\Music Lossless\John & Yoko Plastic Ono Band - Sometime in New York City (1972) (Japan EMI TOCP- 70393-94)\John & Yoko Plastic Ono Band - Sometime In New York City. Disc 2 . Live Jam.wav

Peak level 97.7 %
Range quality 100.0 %
Test CRC D443B081
Copy CRC D443B081
Copy OK

No errors occurred


AccurateRip summary

Track 1 accurately ripped (confidence 3) [5F218816]
Track 2 accurately ripped (confidence 3) [52491A49]
Track 3 accurately ripped (confidence 3) [71EADFF6]
Track 4 accurately ripped (confidence 3) [D9FD018F]
Track 5 accurately ripped (confidence 3) [85D34BF0]
Track 6 accurately ripped (confidence 3) [77621B9A]

All tracks accurately ripped

End of status report


[CUETools log; Date: 07.02.2018 8:23:05; Version: 2.1.5]
[CTDB TOCID: zWzurxPITYOCdi7fMh3SFeJyNH0-] found.
Track | CTDB Status
1 | (26/26) Accurately ripped
2 | (26/26) Accurately ripped
3 | (26/26) Accurately ripped
4 | (25/26) Accurately ripped
5 | (25/26) Accurately ripped
6 | (26/26) Accurately ripped
[AccurateRip ID: 000ca59d-00414a4c-570b1e06] found.
Track [ CRC | V2 ] Status
01 [5f218816|7dbbfd9b] (05+04/20) Accurately ripped
02 [52491a49|bb322131] (05+04/20) Accurately ripped
03 [71eadff6|51e84d75] (05+04/20) Accurately ripped
04 [d9fd018f|b66726ea] (05+04/20) Accurately ripped
05 [85d34bf0|3d9a90ad] (05+04/20) Accurately ripped
06 [77621b9a|e90256fd] (05+04/20) Accurately ripped
Offsetted by -205:
01 [31f576c9] (03/20) Accurately ripped
02 [d1c73fea] (03/20) Accurately ripped
03 [a32dd874] (03/20) Accurately ripped
04 [5854e184] (03/20) Accurately ripped
05 [57584c4d] (03/20) Accurately ripped
06 [062d058b] (03/20) Accurately ripped
Offsetted by 668:
01 [9e620451] (02/20) Accurately ripped
02 [1245f579] (02/20) Accurately ripped
03 [954ada5d] (02/20) Accurately ripped
04 [75d3e94c] (02/20) Accurately ripped
05 [2a27915d] (02/20) Accurately ripped
06 [57895382] (02/20) Accurately ripped
Offsetted by 6:
01 [48db41e3] (00/20) No match (V2 was not tested)
02 [4973ca2d] (00/20) No match (V2 was not tested)
03 [2612ffe6] (00/20) No match (V2 was not tested)
04 [2e14bd40] (00/20) No match (V2 was not tested)
05 [dc274bf9] (00/20) No match (V2 was not tested)
06 [9a874cd1] (00/20) No match (V2 was not tested)
Offsetted by 337:
01 [d27c9641] (00/20) No match (V2 was not tested)
02 [3a7880f0] (00/20) No match (V2 was not tested)
03 [07668a0f] (00/20) No match (V2 was not tested)
04 [fab212ac] (00/20) No match (V2 was not tested)
05 [8abedafb] (00/20) No match (V2 was not tested)
06 [7b7cf776] (00/20) No match (V2 was not tested)
Offsetted by 368:
01 [57d0a3ac] (00/20) No match (V2 was not tested)
02 [919bc618] (00/20) No match (V2 was not tested)
03 [ba37fa23] (00/20) No match (V2 was not tested)
04 [c276f078] (00/20) No match (V2 was not tested)
05 [102ebc2e] (00/20) No match (V2 was not tested)
06 [b9a9d2c9] (00/20) No match (V2 was not tested)

Track Peak [ CRC32 ] [W/O NULL] [ LOG ]
– 97,7 [D443B081] [E81E6924] CRC32
01 97,7 [7BEA5D9F] [552ED53D]
02 95,5 [49067F27] [1F7E67B3]
03 84,5 [D9E3AF1A] [5A4D8769]
04 78,5 [DD4F5ADC] [51BD8B14]
05 83,7 [3A684848] [1C78676F]
06 73,2 [C4E207C3] [FF21DE28]


John Lennon: Japanese Mini LP Collection (1969-1984)

Tracklist CD6 - 1973 - John Lennon - Mind Games:
EMI TOCP-70395

01. Mind Games (4:15)
02. Tight A$ (3:37)
03. Aisumasen (I'm Sorry) (4:44)
04. One Day (At A Time) (3:09)
05. Bring On The Lucie (Freda Peeple) (4:12)
06. Nutopian International Anthem (0:06)
07. Intuition (3:09)
08. Out The Blue (3:22)
09. Only People (3:23)
10. I Know (I Know) (3:49)
11. You Are Here (4:09)
12. Meat City (2:48)
13. Aisumasen (I'm Sorry) (Home Version) (3:36)
14. Bring On The Lucie (Freda Peeple) (Home Version) (1:03)
15. Meat City (Home Version) (2:38)

Exact Audio Copy V0.99 prebeta 4 from 23. January 2008

EAC extraction logfile from 1. February 2009, 19:53

John Lennon / Mind Games

Used drive : _NEC DVD_RW ND-3520AW Adapter: 0 ID: 0

Read mode : Secure
Utilize accurate stream : Yes
Defeat audio cache : Yes
Make use of C2 pointers : No

Read offset correction : 48
Overread into Lead-In and Lead-Out : No
Fill up missing offset samples with silence : Yes
Delete leading and trailing silent blocks : No
Null samples used in CRC calculations : Yes
Used interface : Native Win32 interface for Win NT & 2000

Used output format : Internal WAV Routines
Sample format : 44.100 Hz; 16 Bit; Stereo


TOC of the extracted CD

Track | Start | Length | Start sector | End sector
––––––––––––––––––––––––––––-
1 | 0:00.00 | 4:14.57 | 0 | 19106
2 | 4:14.57 | 3:36.70 | 19107 | 35376
3 | 7:51.52 | 4:44.10 | 35377 | 56686
4 | 12:35.62 | 3:09.03 | 56687 | 70864
5 | 15:44.65 | 4:12.05 | 70865 | 89769
6 | 19:56.70 | 0:06.12 | 89770 | 90231
7 | 20:03.07 | 3:09.28 | 90232 | 104434
8 | 23:12.35 | 3:22.37 | 104435 | 119621
9 | 26:34.72 | 3:23.13 | 119622 | 134859
10 | 29:58.10 | 3:49.10 | 134860 | 152044
11 | 33:47.20 | 4:08.60 | 152045 | 170704
12 | 37:56.05 | 2:47.57 | 170705 | 183286
13 | 40:43.62 | 3:35.73 | 183287 | 199484
14 | 44:19.60 | 1:02.40 | 199485 | 204174
15 | 45:22.25 | 2:37.50 | 204175 | 215999


Range status and errors

Selected range

Filename F:\Music Lossless\John Lennon - Mind Games (1973) (Japan EMI TOCP- 70395)\John Lennon - Mind Games.wav

Peak level 99.2 %
Range quality 99.9 %
Test CRC D0554F72
Copy CRC D0554F72
Copy OK

No errors occurred


AccurateRip summary

Track 1 accurately ripped (confidence 3) [5A57BEC5]
Track 2 accurately ripped (confidence 3) [25431DAF]
Track 3 accurately ripped (confidence 3) [966484B4]
Track 4 accurately ripped (confidence 3) [F0242D6F]
Track 5 accurately ripped (confidence 3) [5240DEE0]
Track 6 accurately ripped (confidence 3) [9217CE8E]
Track 7 accurately ripped (confidence 3) [DCD6756D]
Track 8 accurately ripped (confidence 3) [F46B4FFC]
Track 9 accurately ripped (confidence 3) [92033255]
Track 10 accurately ripped (confidence 3) [0F6406A3]
Track 11 accurately ripped (confidence 3) [7F06F9BD]
Track 12 accurately ripped (confidence 3) [20E958D0]
Track 13 accurately ripped (confidence 3) [0AFCCB99]
Track 14 accurately ripped (confidence 3) [15F06CD3]
Track 15 accurately ripped (confidence 3) [A1ABA2EA]

All tracks accurately ripped

End of status report


[CUETools log; Date: 07.02.2018 8:23:36; Version: 2.1.5]
[CTDB TOCID: 8.aGlTtpP7pCi6l5vOqjwjR7X3U-] found.
Track | CTDB Status
1 | (84/85) Accurately ripped
2 | (84/85) Accurately ripped
3 | (84/85) Accurately ripped
4 | (85/85) Accurately ripped
5 | (85/85) Accurately ripped
6 | (85/85) Accurately ripped
7 | (85/85) Accurately ripped
8 | (85/85) Accurately ripped
9 | (85/85) Accurately ripped
10 | (85/85) Accurately ripped
11 | (85/85) Accurately ripped
12 | (85/85) Accurately ripped
13 | (85/85) Accurately ripped
14 | (85/85) Accurately ripped
15 | (85/85) Accurately ripped
[AccurateRip ID: 001c2d7c-0139e532-da0b400f] found.
Track [ CRC | V2 ] Status
01 [5a57bec5|222dcf6f] (10+20/94) Accurately ripped
02 [25431daf|5eb71f6d] (10+20/92) Accurately ripped
03 [966484b4|b6316365] (10+20/93) Accurately ripped
04 [f0242d6f|d2f8a5bf] (10+20/93) Accurately ripped
05 [5240dee0|f5619242] (09+20/92) Accurately ripped
06 [9217ce8e|da1d1806] (10+20/93) Accurately ripped
07 [dcd6756d|5f6ed9cc] (10+20/93) Accurately ripped
08 [f46b4ffc|f609d8e3] (10+20/93) Accurately ripped
09 [92033255|e451b797] (10+20/92) Accurately ripped
10 [0f6406a3|34a5ed6f] (10+20/92) Accurately ripped
11 [7f06f9bd|1e2b212a] (10+20/93) Accurately ripped
12 [20e958d0|ad825d09] (10+19/92) Accurately ripped
13 [0afccb99|db852aba] (10+20/91) Accurately ripped
14 [15f06cd3|c892bf8a] (10+19/90) Accurately ripped
15 [a1aba2ea|e27a325f] (10+20/90) Accurately ripped
Offsetted by -15:
01 [4d8284c1] (03/94) Accurately ripped
02 [1e76fb41] (03/92) Accurately ripped
03 [4656a71d] (03/93) Accurately ripped
04 [b5c93af1] (03/93) Accurately ripped
05 [dd865ee5] (03/92) Accurately ripped
06 [c061405c] (03/93) Accurately ripped
07 [7f8897e0] (03/93) Accurately ripped
08 [7cf3b8b1] (03/93) Accurately ripped
09 [10e67f8e] (03/92) Accurately ripped
10 [75767eb5] (03/92) Accurately ripped
11 [090ec7d1] (03/93) Accurately ripped
12 [990b11c1] (03/92) Accurately ripped
13 [1348d5ee] (03/91) Accurately ripped
14 [e958e653] (03/90) Accurately ripped
15 [34ccf677] (03/90) Accurately ripped
Offsetted by -14:
01 [d04ce48d] (02/94) Accurately ripped
02 [86bf42f0] (02/92) Accurately ripped
03 [4bd70b69] (02/93) Accurately ripped
04 [5346c293] (02/93) Accurately ripped
05 [6f127a11] (02/92) Accurately ripped
06 [9b2738bb] (02/93) Accurately ripped
07 [0e498483] (02/93) Accurately ripped
08 [0138bb26] (02/93) Accurately ripped
09 [7fe1250f] (02/92) Accurately ripped
10 [a1dba9e7] (02/92) Accurately ripped
11 [bb96cb25] (02/93) Accurately ripped
12 [438f991e] (02/92) Accurately ripped
13 [15fe9a5d] (02/91) Accurately ripped
14 [44240bc8] (02/90) Accurately ripped
15 [91601309] (02/90) Accurately ripped
Offsetted by 649:
01 [a0befcc1] (32/94) Accurately ripped
02 [ae5be5ae] (31/92) Accurately ripped
03 [76b4c750] (31/93) Accurately ripped
04 [33610721] (31/93) Accurately ripped
05 [9446bbd8] (31/92) Accurately ripped
06 [1fdee749] (31/93) Accurately ripped
07 [c3ee5ea8] (31/93) Accurately ripped
08 [e698fe0f] (30/93) Accurately ripped
09 [bcc4cab4] (31/92) Accurately ripped
10 [9bde8865] (29/92) Accurately ripped
11 [19d769b1] (31/93) Accurately ripped
12 [d18c68b8] (31/92) Accurately ripped
13 [7a32fd30] (29/91) Accurately ripped
14 [16a1d17e] (29/90) Accurately ripped
15 [3f364fb3] (29/90) Accurately ripped
Offsetted by 6:
01 [60391282] (00/94) No match (V2 was not tested)
02 [982aea71] (00/92) No match (V2 was not tested)
03 [b53fdbfb] (00/93) No match (V2 was not tested)
04 [a1155b3b] (00/93) No match (V2 was not tested)
05 [2fd38e01] (00/92) No match (V2 was not tested)
06 [b2d4a14f] (00/93) No match
07 [355c013f] (00/93) No match (V2 was not tested)
08 [265e37a6] (00/93) No match (V2 was not tested)
09 [2c501373] (00/92) No match (V2 was not tested)
10 [19c309cf] (00/92) No match (V2 was not tested)
11 [ae370db5] (00/93) No match (V2 was not tested)
12 [8dd7c0e3] (00/92) No match (V2 was not tested)
13 [2c764f22] (00/91) No match (V2 was not tested)
14 [4b97aad6] (00/90) No match (V2 was not tested)
15 [cd354e35] (00/90) No match (V2 was not tested)

Track Peak [ CRC32 ] [W/O NULL] [ LOG ]
– 99,2 [D0554F72] [C7DDAFC3] CRC32
01 98,0 [F62B3DFA] [43AD11CE]
02 98,7 [750182EC] [F00A7ECA]
03 98,0 [C462E2DB] [6CE0ABDA]
04 99,1 [694C2A15] [AF077460]
05 98,7 [C5A4A090] [EA311B16]
06 1,7 [55D7627B] [825AF005]
07 99,1 [586F42F5] [611C863B]
08 99,2 [B8AF4BAE] [FA02E938]
09 98,8 [2770017C] [A4FAA990]
10 99,2 [73DBBCDB] [E8A0C0B9]
11 98,6 [3816CB44] [DC54A2F3]
12 98,6 [2A7FD92D] [A121DF4B]
13 98,0 [7274B3A5] [3CDD7A9B]
14 78,7 [E8C97E54] [AC6C1E1D]
15 98,2 [4CEAFED3] [905621C0]


John Lennon: Japanese Mini LP Collection (1969-1984)

Tracklist CD7 - 1974 - John Lennon - Walls And Bridges:
EMI TOCP-70396

01. Going Down On Love (3:56)
02. Whatever Gets You Thru The Night (3:28)
03. Old Dirt Road (4:11)
04. What You Got (3:10)
05. Bless You (4:38)
06. Scared (4:37)
07. #9 Dream (4:47)
08. Surprise, Surprise (Sweet Bird Of Paradox) (2:56)
09. Steel And Glass (4:36)
10. Beef Jerky (3:27)
11. Nobody Loves You (When You're Down And Out) (5:09)
12. Ya Ya (1:12)
13. Whatever Gets You Thru The Night (Live) (4:23)
14. Nobody Loves You (When You're Down And Out) (Alternative Version) (5:07)
15. John Interview (Mono) (3:49)

Exact Audio Copy V0.99 prebeta 4 from 23. January 2008

EAC extraction logfile from 2. February 2009, 16:35

John Lennon / Walls And Bridges

Used drive : _NEC DVD_RW ND-3520AW Adapter: 0 ID: 0

Read mode : Secure
Utilize accurate stream : Yes
Defeat audio cache : Yes
Make use of C2 pointers : No

Read offset correction : 48
Overread into Lead-In and Lead-Out : No
Fill up missing offset samples with silence : Yes
Delete leading and trailing silent blocks : No
Null samples used in CRC calculations : Yes
Used interface : Native Win32 interface for Win NT & 2000

Used output format : Internal WAV Routines
Sample format : 44.100 Hz; 16 Bit; Stereo


TOC of the extracted CD

Track | Start | Length | Start sector | End sector
––––––––––––––––––––––––––––-
1 | 0:00.00 | 3:56.05 | 0 | 17704
2 | 3:56.05 | 3:27.48 | 17705 | 33277
3 | 7:23.53 | 4:11.32 | 33278 | 52134
4 | 11:35.10 | 3:10.37 | 52135 | 66421
5 | 14:45.47 | 4:37.40 | 66422 | 87236
6 | 19:23.12 | 4:37.12 | 87237 | 108023
7 | 24:00.24 | 4:47.00 | 108024 | 129548
8 | 28:47.24 | 2:56.17 | 129549 | 142765
9 | 31:43.41 | 4:35.67 | 142766 | 163457
10 | 36:19.33 | 3:27.23 | 163458 | 179005
11 | 39:46.56 | 5:08.48 | 179006 | 202153
12 | 44:55.29 | 1:11.41 | 202154 | 207519
13 | 46:06.70 | 4:23.15 | 207520 | 227259
14 | 50:30.10 | 5:07.12 | 227260 | 250296
15 | 55:37.22 | 3:48.73 | 250297 | 267469


Range status and errors

Selected range

Filename F:\Music Lossless\John Lennon - Walls And Bridges (1974) (Japan EMI TOCP- 70396)\John Lennon - Walls And Bridges.wav

Peak level 99.2 %
Range quality 100.0 %
Test CRC CB2D5A51
Copy CRC CB2D5A51
Copy OK

No errors occurred


AccurateRip summary

Track 1 accurately ripped (confidence 17) [D28BB39C]
Track 2 accurately ripped (confidence 17) [4AC71556]
Track 3 accurately ripped (confidence 17) [C198FFAC]
Track 4 accurately ripped (confidence 17) [50B41449]
Track 5 accurately ripped (confidence 17) [27203804]
Track 6 accurately ripped (confidence 17) [ACC2371B]
Track 7 accurately ripped (confidence 17) [774242E9]
Track 8 accurately ripped (confidence 17) [873374EF]
Track 9 accurately ripped (confidence 17) [58D31167]
Track 10 accurately ripped (confidence 17) [7A2725F6]
Track 11 accurately ripped (confidence 17) [B6EFFDD4]
Track 12 accurately ripped (confidence 17) [A728A72F]
Track 13 accurately ripped (confidence 16) [528FCA7E]
Track 14 accurately ripped (confidence 16) [26E518A2]
Track 15 accurately ripped (confidence 15) [EAA5CE37]

All tracks accurately ripped

End of status report


[CUETools log; Date: 07.02.2018 8:24:06; Version: 2.1.5]
[CTDB TOCID: 7kGUNs9PWVRtqpg3wp1EOqsOxLs-] found.
Track | CTDB Status
1 | (49/51) Accurately ripped
2 | (49/51) Accurately ripped
3 | (49/51) Accurately ripped
4 | (49/51) Accurately ripped
5 | (49/51) Accurately ripped
6 | (49/51) Accurately ripped
7 | (49/51) Accurately ripped
8 | (49/51) Accurately ripped
9 | (48/51) Accurately ripped
10 | (49/51) Accurately ripped
11 | (49/51) Accurately ripped
12 | (49/51) Accurately ripped
13 | (49/51) Accurately ripped
14 | (46/51) Accurately ripped
15 | (48/51) Accurately ripped
[AccurateRip ID: 00209109-01718ff8-ed0dee0f] found.
Track [ CRC | V2 ] Status
01 [d28bb39c|80c96908] (045+041/107) Accurately ripped
02 [4ac71556|7aae3a9a] (044+041/106) Accurately ripped
03 [c198ffac|12f75689] (044+041/106) Accurately ripped
04 [50b41449|065a11a3] (044+041/107) Accurately ripped
05 [27203804|2335df1d] (046+041/107) Accurately ripped
06 [acc2371b|b15b70ca] (044+041/106) Accurately ripped
07 [774242e9|0e9dc4cb] (047+041/110) Accurately ripped
08 [873374ef|be3c02b7] (044+040/105) Accurately ripped
09 [58d31167|1b07e5a7] (045+041/108) Accurately ripped
10 [7a2725f6|2504f841] (044+041/106) Accurately ripped
11 [b6effdd4|b8ad3a7d] (043+041/107) Accurately ripped
12 [a728a72f|c0585fb4] (044+042/107) Accurately ripped
13 [528fca7e|cc5193a1] (041+041/103) Accurately ripped
14 [26e518a2|f655c6cd] (041+041/103) Accurately ripped
15 [eaa5ce37|a3ac6b06] (037+040/098) Accurately ripped
Offsetted by -664:
01 [73ee2104] (004/107) Accurately ripped
02 [5510512e] (004/106) Accurately ripped
03 [701eed54] (004/106) Accurately ripped
04 [b3e49881] (004/107) Accurately ripped
05 [ce66627e] (004/107) Accurately ripped
06 [c9ddeb59] (004/106) Accurately ripped
07 [af40b019] (004/110) Accurately ripped
08 [98cd2fff] (004/105) Accurately ripped
09 [c934fc0f] (004/108) Accurately ripped
10 [5c3121b6] (004/106) Accurately ripped
11 [4a88d67c] (004/107) Accurately ripped
12 [b9cfaadf] (004/107) Accurately ripped
13 [4f3d51ae] (004/103) Accurately ripped
14 [89af4012] (004/103) Accurately ripped
15 [695b36b7] (004/098) Accurately ripped
Offsetted by -86:
01 [c1aa2f46] (006/107) Accurately ripped
02 [8c1c227c] (006/106) Accurately ripped
03 [b1a5b7e6] (006/106) Accurately ripped
04 [41ca8e47] (006/107) Accurately ripped
05 [1494154e] (005/107) Accurately ripped
06 [bfaabf7b] (006/106) Accurately ripped
07 [4eb42d95] (006/110) Accurately ripped
08 [e227c0d3] (006/105) Accurately ripped
09 [754272e1] (006/108) Accurately ripped
10 [83618066] (006/106) Accurately ripped
11 [316116ce] (006/107) Accurately ripped
12 [ff2a3c7b] (006/107) Accurately ripped
13 [cb310faa] (006/103) Accurately ripped
14 [d1c3225e] (006/103) Accurately ripped
15 [48f03157] (006/098) Accurately ripped
Offsetted by -18:
01 [3438c78a] (003/107) Accurately ripped
02 [0b0e7758] (003/106) Accurately ripped
03 [5f00deca] (003/106) Accurately ripped
04 [acd68d13] (004/107) Accurately ripped
05 [13276a9a] (003/107) Accurately ripped
06 [656cfbcf] (003/106) Accurately ripped
07 [d9eef10d] (004/110) Accurately ripped
08 [dbb9effb] (003/105) Accurately ripped
09 [2f25ea45] (004/108) Accurately ripped
10 [87fdc7c6] (003/106) Accurately ripped
11 [a6e3f132] (003/107) Accurately ripped
12 [e934e433] (003/107) Accurately ripped
13 [e8d54422] (003/103) Accurately ripped
14 [9e01b576] (003/103) Accurately ripped
15 [815c1297] (003/098) Accurately ripped
Offsetted by 6:
01 [5ca757a2] (000/107) No match (V2 was not tested)
02 [0aaf4a00] (000/106) No match (V2 was not tested)
03 [8d210aa2] (000/106) No match (V2 was not tested)
04 [8753415b] (000/107) No match (V2 was not tested)
05 [b278d1be] (000/107) No match (V2 was not tested)
06 [8beea133] (000/106) No match (V2 was not tested)
07 [565e08dd] (000/110) No match (V2 was not tested)
08 [15b14beb] (000/105) No match (V2 was not tested)
09 [bc0cc91d] (000/108) No match (V2 was not tested)
10 [2034f006] (000/106) No match (V2 was not tested)
11 [66f4020a] (002/107) Accurately ripped
12 [3bcf3d83] (000/107) No match (V2 was not tested)
13 [2078a1f2] (000/103) No match (V2 was not tested)
14 [a9db8f06] (000/103) No match (V2 was not tested)
15 [0dbe6217] (000/098) No match (V2 was not tested)

Track Peak [ CRC32 ] [W/O NULL] [ LOG ]
– 99,2 [CB2D5A51] [A4D3A3A3] CRC32
01 98,9 [910D551B] [EB0244AF]
02 98,5 [17107544] [CB6DF481]
03 98,9 [89A841B2] [BDB9665F]
04 98,7 [2F1E6BD3] [A4EC7229]
05 98,3 [9B75B008] [2EF68DEE]
06 98,8 [D07F1D00] [8878AF2A]
07 99,2 [88F4B5D1] [E9646050]
08 99,1 [46B2CB12] [A567C327]
09 99,0 [3F90BB71] [A3AD09AA]
10 99,0 [40044EA3] [593A4F12]
11 98,9 [A30220DC] [16F37E28]
12 96,1 [015CC449] [CE71C231]
13 98,0 [35616860] [66609483]
14 78,5 [4DCE372C] [435FDD19]
15 73,6 [E107E6C5] [297DE962]


John Lennon: Japanese Mini LP Collection (1969-1984)

Tracklist CD8 - 1975 - John Lennon - Rock 'N' Roll:
EMI TOCP-70397

01. Be-Bop-A-Lula (2:40)
02. Stand By Me (3:26)
03. Medley: A) Rip It Up - B) Ready Teddy (1:35)
04. You Can't Catch Me (4:51)
05. Ain't That A Shame (2:38)
06. Do You Want To Dance (3:16)
07. Sweet Little Sixteen (3:01)
08. Slippin' And Slidin' (2:17)
09. Peggy Sue (2:05)
10. Medley: A) Bring It On Home To Me - B) Send Me Some Lovin' (3:42)
11. Bony Moronie (3:47)
12. Ya Ya (2:17)
13. Just Because (4:26)
14. Angel Baby (3:44)
15. To Know Her Is To Love Her (4:31)
16. Since My Baby Left Me (4:40)
17. Just Because (Reprise) (1:25)

Exact Audio Copy V0.99 prebeta 4 from 23. January 2008

EAC extraction logfile from 4. February 2009, 12:02

John Lennon / Rock 'N' Roll

Used drive : _NEC DVD_RW ND-3520AW Adapter: 0 ID: 0

Read mode : Secure
Utilize accurate stream : Yes
Defeat audio cache : Yes
Make use of C2 pointers : No

Read offset correction : 48
Overread into Lead-In and Lead-Out : No
Fill up missing offset samples with silence : Yes
Delete leading and trailing silent blocks : No
Null samples used in CRC calculations : Yes
Used interface : Native Win32 interface for Win NT & 2000

Used output format : Internal WAV Routines
Sample format : 44.100 Hz; 16 Bit; Stereo


TOC of the extracted CD

Track | Start | Length | Start sector | End sector
––––––––––––––––––––––––––––-
1 | 0:00.00 | 2:40.05 | 0 | 12004
2 | 2:40.05 | 3:26.17 | 12005 | 27471
3 | 6:06.22 | 1:34.68 | 27472 | 34589
4 | 7:41.15 | 4:51.27 | 34590 | 56441
5 | 12:32.42 | 2:38.28 | 56442 | 68319
6 | 15:10.70 | 3:15.67 | 68320 | 83011
7 | 18:26.62 | 3:00.70 | 83012 | 96581
8 | 21:27.57 | 2:16.73 | 96582 | 106854
9 | 23:44.55 | 2:05.32 | 106855 | 116261
10 | 25:50.12 | 3:41.73 | 116262 | 132909
11 | 29:32.10 | 3:47.00 | 132910 | 149934
12 | 33:19.10 | 2:17.12 | 149935 | 160221
13 | 35:36.22 | 4:25.68 | 160222 | 180164
14 | 40:02.15 | 3:43.67 | 180165 | 196956
15 | 43:46.07 | 4:31.05 | 196957 | 217286
16 | 48:17.12 | 4:40.23 | 217287 | 238309
17 | 52:57.35 | 1:25.30 | 238310 | 244714


Range status and errors

Selected range

Filename F:\Music Lossless\John Lennon - Rock 'N' Roll (1975) (Japan EMI TOCP- 70397)\John Lennon - Rock 'N' Roll.wav

Peak level 99.0 %
Range quality 99.9 %
Test CRC 1AE5CBCB
Copy CRC 1AE5CBCB
Copy OK

No errors occurred


AccurateRip summary

Track 1 accurately ripped (confidence 5) [A95C5094]
Track 2 accurately ripped (confidence 5) [4D89D66F]
Track 3 accurately ripped (confidence 5) [AB646E44]
Track 4 accurately ripped (confidence 5) [DDBE7B04]
Track 5 accurately ripped (confidence 5) [4196721C]
Track 6 accurately ripped (confidence 5) [3C58B80D]
Track 7 accurately ripped (confidence 5) [CA5A6537]
Track 8 accurately ripped (confidence 5) [D8E5405A]
Track 9 accurately ripped (confidence 5) [3E32E46D]
Track 10 accurately ripped (confidence 5) [904F05E0]
Track 11 accurately ripped (confidence 5) [DAB62169]
Track 12 accurately ripped (confidence 5) [22ADB1CA]
Track 13 accurately ripped (confidence 5) [61A6A9D3]
Track 14 accurately ripped (confidence 5) [A4CCCF05]
Track 15 accurately ripped (confidence 5) [83CFD41C]
Track 16 accurately ripped (confidence 5) [643687D0]
Track 17 accurately ripped (confidence 5) [6A1F6F21]

All tracks accurately ripped

End of status report


[CUETools log; Date: 07.02.2018 8:24:34; Version: 2.1.5]
[CTDB TOCID: CoZbihtEXUKocbCvWs4v.jGM5n4-] found.
Track | CTDB Status
1 | (108/118) Accurately ripped
2 | (108/118) Accurately ripped
3 | (110/118) Accurately ripped
4 | (110/118) Accurately ripped
5 | (109/118) Accurately ripped
6 | (108/118) Accurately ripped
7 | (109/118) Accurately ripped
8 | (110/118) Accurately ripped
9 | (110/118) Accurately ripped
10 | (110/118) Accurately ripped
11 | (110/118) Accurately ripped
12 | (109/118) Accurately ripped
13 | (107/118) Accurately ripped
14 | (109/118) Accurately ripped
15 | (107/118) Accurately ripped
16 | (107/118) Accurately ripped
17 | (109/118) Accurately ripped
[AccurateRip ID: 00206139-019e8ee5-ed0cbe11] found.
Track [ CRC | V2 ] Status
01 [a95c5094|21aa4740] (023+032/131) Accurately ripped
02 [4d89d66f|c9f11d0b] (023+032/132) Accurately ripped
03 [ab646e44|06cf6638] (022+032/130) Accurately ripped
04 [ddbe7b04|69f9dcfb] (023+032/131) Accurately ripped
05 [4196721c|210fbdb0] (022+032/129) Accurately ripped
06 [3c58b80d|bda2a520] (024+032/132) Accurately ripped
07 [ca5a6537|122c5e9f] (024+032/132) Accurately ripped
08 [d8e5405a|c226d8db] (024+032/132) Accurately ripped
09 [3e32e46d|e3dccf37] (024+032/132) Accurately ripped
10 [904f05e0|ace11831] (024+032/132) Accurately ripped
11 [dab62169|fcea99fd] (024+032/132) Accurately ripped
12 [22adb1ca|66067d98] (024+032/132) Accurately ripped
13 [61a6a9d3|1ccd57ea] (024+031/132) Accurately ripped
14 [a4cccf05|bff7f307] (024+030/131) Accurately ripped
15 [83cfd41c|75ee8c7f] (024+031/131) Accurately ripped
16 [643687d0|a88c98ab] (024+030/126) Accurately ripped
17 [6a1f6f21|eb71a21c] (022+030/125) Accurately ripped
Offsetted by -649:
01 [29d1b916] (004/131) Accurately ripped
02 [9f2fe494] (005/132) Accurately ripped
03 [4fbc14b3] (004/130) Accurately ripped
04 [bac5c28c] (004/131) Accurately ripped
05 [ad94d7d7] (004/129) Accurately ripped
06 [d61f4233] (004/132) Accurately ripped
07 [cd836cdd] (004/132) Accurately ripped
08 [7a4cab83] (004/132) Accurately ripped
09 [bcfd00a1] (004/132) Accurately ripped
10 [ff626706] (004/132) Accurately ripped
11 [9aa12f22] (004/132) Accurately ripped
12 [f7ab7731] (004/132) Accurately ripped
13 [d8693679] (005/132) Accurately ripped
14 [e39da1fd] (005/131) Accurately ripped
15 [00a40f15] (004/131) Accurately ripped
16 [463a51f4] (004/126) Accurately ripped
17 [f7b6f8e7] (003/125) Accurately ripped
Offsetted by -646:
01 [46cf3540] (028/131) Accurately ripped
02 [cbc6fd5d] (027/132) Accurately ripped
03 [63e18b0e] (027/130) Accurately ripped
04 [dd4066b4] (027/131) Accurately ripped
05 [2ae9a86e] (027/129) Accurately ripped
06 [5f134bd1] (027/132) Accurately ripped
07 [f0ffe1fb] (027/132) Accurately ripped
08 [f89138a0] (027/132) Accurately ripped
09 [f14247e5] (027/132) Accurately ripped
10 [a8e153a4] (027/132) Accurately ripped
11 [47b23e0f] (027/132) Accurately ripped
12 [a2e325f4] (027/132) Accurately ripped
13 [937ac693] (027/132) Accurately ripped
14 [d4bb0a55] (027/131) Accurately ripped
15 [db69f5a8] (027/131) Accurately ripped
16 [acaa869d] (027/126) Accurately ripped
17 [43c528c1] (028/125) Accurately ripped
Offsetted by -30:
01 [877576f0] (000/131) No match (V2 was not tested)
02 [8fa2de95] (000/132) No match (V2 was not tested)
03 [e1edceb6] (000/130) No match (V2 was not tested)
04 [84f41174] (000/131) No match (V2 was not tested)
05 [5c464c36] (000/129) No match (V2 was not tested)
06 [e2d057e1] (000/132) No match (V2 was not tested)
07 [677dd20b] (000/132) No match (V2 was not tested)
08 [ea37bd38] (000/132) No match (V2 was not tested)
09 [337e1bc5] (000/132) No match (V2 was not tested)
10 [f159c7b4] (000/132) No match (V2 was not tested)
11 [180b8c27] (000/132) No match (V2 was not tested)
12 [99484647] (000/132) No match (V2 was not tested)
13 [f13308cc] (000/132) No match (V2 was not tested)
14 [39a6bb95] (000/131) No match (V2 was not tested)
15 [33d7f3bc] (000/131) No match (V2 was not tested)
16 [ccb3f3ce] (000/126) No match (V2 was not tested)
17 [d9f8442f] (000/125) No match (V2 was not tested)
Offsetted by -12:
01 [35665fec] (000/131) No match (V2 was not tested)
02 [9b2d734b] (000/132) No match
03 [5ace94d8] (000/130) No match (V2 was not tested)
04 [53d3ea64] (000/131) No match
05 [4c432fc0] (000/129) No match
06 [18889195] (000/132) No match
07 [3c6890bf] (000/132) No match
08 [dfd30be6] (000/132) No match (V2 was not tested)
09 [6d1dc75d] (000/132) No match
10 [ea535368] (000/132) No match
11 [2671e5b5] (000/132) No match
12 [a6b0c6e9] (000/132) No match
13 [67a96970] (000/132) No match
14 [e0572da5] (000/131) No match
15 [a6626cb0] (000/131) No match
16 [e6dbb00c] (000/126) No match
17 [cffcd870] (000/125) No match
Offsetted by 6:
01 [e35748e8] (000/131) No match (V2 was not tested)
02 [a6b80801] (000/132) No match (V2 was not tested)
03 [d3af5afa] (000/130) No match (V2 was not tested)
04 [22b3c354] (000/131) No match (V2 was not tested)
05 [3c40134a] (000/129) No match (V2 was not tested)
06 [4e40cb49] (000/132) No match (V2 was not tested)
07 [11534f73] (000/132) No match (V2 was not tested)
08 [d56e5a94] (000/132) No match (V2 was not tested)
09 [a6bd72f5] (000/132) No match (V2 was not tested)
10 [e34cdf1c] (000/132) No match (V2 was not tested)
11 [34d83f43] (000/132) No match (V2 was not tested)
12 [ee455b46] (000/132) No match (V2 was not tested)
13 [dec1ca05] (000/132) No match (V2 was not tested)
14 [87079fb5] (000/131) No match (V2 was not tested)
15 [9a7a5e99] (000/131) No match (V2 was not tested)
16 [75420845] (000/126) No match (V2 was not tested)
17 [684aa077] (002/125) Accurately ripped

Track Peak [ CRC32 ] [W/O NULL] [ LOG ]
– 99,0 [1AE5CBCB] [13629AA7] CRC32
01 98,6 [86D2B491] [85A84E43]
02 98,7 [01C50B88] [6AFB2236]
03 98,7 [7184322C] [C174C7BE]
04 98,9 [771636B0] [A43E009C]
05 98,6 [FF1A38A6] [C34E2C04]
06 98,9 [3B3DDC57] [FD7913B0]
07 98,6 [12F7ECAC] [061F6A8A]
08 98,7 [A4E0917A] [25DB0581]
09 99,0 [4C0E345D] [F3DAC402]
10 98,9 [DAFE82ED] [94D9EBC6]
11 98,9 [7640D0BB] [ABC029CC]
12 98,6 [5CED0FC0] [9609E567]
13 98,3 [7240352E] [CD07213C]
14 98,2 [46282AF7] [3166FC82]
15 98,5 [916B9EF0] [B263BBCD]
16 96,4 [265F8A03] [EE0E8BAB]
17 98,0 [81453498] [9123E3B3]


John Lennon: Japanese Mini LP Collection (1969-1984)

Tracklist CD9 - 1975 - Lennon Plastic Ono Band - Shaved Fish:
EMI TOCP-70398

01. Give Peace A Chance (Edited Version) (0:59)
02. Cold Turkey (5:03)
03. Instant Karma! (3:15)
04. Power To The People (3:06)
05. Mother (5:09)
06. Woman Is The Nigger Of The World (4:38)
07. Imagine (3:04)
08. Whatever Gets You Thru The Night (3:07)
09. Mind Games (4:13)
10. #9 Dream (4:49)
11. Happy Xmas (War Is Over) / Give Peace A Chance : Reprise (4:16)

Exact Audio Copy V0.99 prebeta 4 from 23. January 2008

EAC extraction logfile from 6. February 2009, 22:25

Lennon Plastic Ono Band / Shaved Fish

Used drive : _NEC DVD_RW ND-3520AW Adapter: 0 ID: 0

Read mode : Secure
Utilize accurate stream : Yes
Defeat audio cache : Yes
Make use of C2 pointers : No

Read offset correction : 48
Overread into Lead-In and Lead-Out : No
Fill up missing offset samples with silence : Yes
Delete leading and trailing silent blocks : No
Null samples used in CRC calculations : Yes
Used interface : Native Win32 interface for Win NT & 2000

Used output format : Internal WAV Routines
Sample format : 44.100 Hz; 16 Bit; Stereo


TOC of the extracted CD

Track | Start | Length | Start sector | End sector
––––––––––––––––––––––––––––-
1 | 0:00.00 | 0:59.07 | 0 | 4431
2 | 0:59.07 | 5:03.28 | 4432 | 27184
3 | 6:02.35 | 3:15.22 | 27185 | 41831
4 | 9:17.57 | 3:06.20 | 41832 | 55801
5 | 12:24.02 | 5:08.60 | 55802 | 78961
6 | 17:32.62 | 4:38.13 | 78962 | 99824
7 | 22:11.00 | 3:04.27 | 99825 | 113651
8 | 25:15.27 | 3:06.38 | 113652 | 127639
9 | 28:21.65 | 4:12.70 | 127640 | 146609
10 | 32:34.60 | 4:48.55 | 146610 | 168264
11 | 37:23.40 | 4:16.12 | 168265 | 187476


Range status and errors

Selected range

Filename F:\Music Lossless\Lennon Plastic Ono Band - Shaved Fish (1975) (Japan EMI TOCP- 70398)\Lennon Plastic Ono Band - Shaved Fish.wav

Peak level 97.7 %
Range quality 100.0 %
Test CRC 327FD6C7
Copy CRC 327FD6C7
Copy OK

No errors occurred


AccurateRip summary

Track 1 accurately ripped (confidence 2) [4AFCF55D]
Track 2 accurately ripped (confidence 2) [0E3B1698]
Track 3 accurately ripped (confidence 2) [5359951D]
Track 4 accurately ripped (confidence 2) [CF17B7D8]
Track 5 accurately ripped (confidence 2) [B4ADB5C0]
Track 6 accurately ripped (confidence 2) [60331A0D]
Track 7 accurately ripped (confidence 2) [8F93D349]
Track 8 accurately ripped (confidence 2) [96D05EF6]
Track 9 accurately ripped (confidence 2) [9A41D83E]
Track 10 accurately ripped (confidence 2) [0EBFE930]
Track 11 accurately ripped (confidence 2) [4A3BF411]

All tracks accurately ripped

End of status report


[CUETools log; Date: 07.02.2018 8:24:59; Version: 2.1.5]
[CTDB TOCID: tla7_tfKmt5.IzcTfUICKBfddtI-] found.
Track | CTDB Status
1 | (49/50) Accurately ripped
2 | (49/50) Accurately ripped
3 | (49/50) Accurately ripped
4 | (50/50) Accurately ripped
5 | (50/50) Accurately ripped
6 | (50/50) Accurately ripped
7 | (48/50) Accurately ripped
8 | (49/50) Accurately ripped
9 | (49/50) Accurately ripped
10 | (50/50) Accurately ripped
11 | (50/50) Accurately ripped
[AccurateRip ID: 00100c22-008e6d04-8909c30b] found.
Track [ CRC | V2 ] Status
01 [4afcf55d|68355335] (12+12/44) Accurately ripped
02 [0e3b1698|bbde9a61] (12+12/44) Accurately ripped
03 [5359951d|af1284e9] (12+12/44) Accurately ripped
04 [cf17b7d8|e66ec048] (12+12/44) Accurately ripped
05 [b4adb5c0|0cc321f5] (12+12/44) Accurately ripped
06 [60331a0d|f9cb690a] (12+12/44) Accurately ripped
07 [8f93d349|7db8632d] (12+12/44) Accurately ripped
08 [96d05ef6|eee689fc] (12+12/44) Accurately ripped
09 [9a41d83e|703e5ce3] (12+12/44) Accurately ripped
10 [0ebfe930|d0fc50fb] (12+12/44) Accurately ripped
11 [4a3bf411|1175c6c7] (12+12/44) Accurately ripped
Offsetted by -30:
01 [9dccbb0d] (02/44) Accurately ripped
02 [dd933300] (02/44) Accurately ripped
03 [77e6862b] (02/44) Accurately ripped
04 [79f2ba6c] (02/44) Accurately ripped
05 [8fae0682] (02/44) Accurately ripped
06 [ffc07283] (02/44) Accurately ripped
07 [261d7477] (02/44) Accurately ripped
08 [c71f32f8] (02/44) Accurately ripped
09 [6341c134] (02/44) Accurately ripped
10 [6ba6a86e] (02/44) Accurately ripped
11 [aa199141] (02/44) Accurately ripped
Offsetted by 168:
01 [11d1b859] (02/44) Accurately ripped
02 [a7c2177c] (02/44) Accurately ripped
03 [20444f35] (02/44) Accurately ripped
04 [78b3a968] (02/44) Accurately ripped
05 [b71257e8] (02/44) Accurately ripped
06 [7c4ec445] (02/44) Accurately ripped
07 [aaf77fe1] (02/44) Accurately ripped
08 [884a221e] (02/44) Accurately ripped
09 [01758c76] (02/44) Accurately ripped
10 [06808708] (02/44) Accurately ripped
11 [cafc83d1] (02/44) Accurately ripped
Offsetted by 6:
01 [8bb1c46e] (00/44) No match (V2 was not tested)
02 [e4f2de0f] (00/44) No match (V2 was not tested)
03 [7f3d64e7] (00/44) No match (V2 was not tested)
04 [79b8b754] (00/44) No match (V2 was not tested)
05 [227a7266] (00/44) No match (V2 was not tested)
06 [737d3b8f] (00/44) No match (V2 was not tested)
07 [3e451973] (00/44) No match (V2 was not tested)
08 [8d27015c] (00/44) No match (V2 was not tested)
09 [0ba84340] (00/44) No match (V2 was not tested)
10 [fc2b5c8a] (00/44) No match (V2 was not tested)
11 [6a42d4a1] (00/44) No match (V2 was not tested)
Offsetted by 445:
01 [88ae6d01] (00/44) No match (V2 was not tested)
02 [d6497330] (00/44) No match (V2 was not tested)
03 [dfd99d78] (00/44) No match (V2 was not tested)
04 [1367119a] (00/44) No match (V2 was not tested)
05 [d97e5d2d] (00/44) No match (V2 was not tested)
06 [4c2d248c] (00/44) No match (V2 was not tested)
07 [0144fc74] (00/44) No match (V2 was not tested)
08 [9f946b83] (00/44) No match (V2 was not tested)
09 [74c32dfd] (00/44) No match (V2 was not tested)
10 [d76129c3] (00/44) No match (V2 was not tested)
11 [e6e4adc9] (00/44) No match (V2 was not tested)
Offsetted by 505:
01 [0c03ab43] (00/44) No match (V2 was not tested)
02 [6138717e] (00/44) No match (V2 was not tested)
03 [96bfbb5c] (00/44) No match (V2 was not tested)
04 [bdb10c72] (00/44) No match (V2 was not tested)
05 [237dbba9] (00/44) No match (V2 was not tested)
06 [0d1273a0] (00/44) No match (V2 was not tested)
07 [d431ba18] (00/44) No match (V2 was not tested)
08 [3ef6c37f] (00/44) No match (V2 was not tested)
09 [e2c35c11] (00/44) No match (V2 was not tested)
10 [1d93ab47] (00/44) No match (V2 was not tested)
11 [27297369] (00/44) No match (V2 was not tested)

Track Peak [ CRC32 ] [W/O NULL] [ LOG ]
– 97,7 [327FD6C7] [A99A94A6] CRC32
01 61,6 [96433C4A] [9F51C17D]
02 83,5 [EC421552] [DD8EDCCA]
03 97,7 [549EA5E1] [6E54DF6C]
04 83,4 [271EF638] [DD0CFD97]
05 82,5 [A0372CDE] [8999FED4]
06 79,5 [797CDE75] [AEC0FAC3]
07 86,4 [5600105E] [417EB94A]
08 94,4 [09043A25] [AA66AF0C]
09 97,7 [7C66C874] [42072DE7]
10 85,3 [86D10848] [D294F3B1]
11 71,5 [6757AE71] [693CCDFC]


John Lennon: Japanese Mini LP Collection (1969-1984)

Tracklist CD10 - 1980 - John Lennon & Yoko Ono - Double Fantasy:
EMI TOCP-70399

01. (Just Like) Starting Over (3:57)
02. Kiss Kiss Kiss (2:41)
03. Cleanup Time (2:58)
04. Give Me Something (1:36)
05. I'm Losing You (3:57)
06. I'm Moving On (2:20)
07. Beautiful Boy (Darling Boy) (4:04)
08. Watching The Wheels (3:59)
09. Yes I'm Your Angel (3:10)
10. Woman (3:32)
11. Beautiful Boys (2:55)
12. Dear Yoko (2:35)
13. Every Man Has A Woman Who Loves Him (4:02)
14. Hard Times Are Over (3:22)
15. Help Me To Help Myself (2:38)
16. Walking On Thin Ice (6:01)
17. Central Park Stroll (Dialogue) (0:17)

Exact Audio Copy V0.99 prebeta 4 from 23. January 2008

EAC extraction logfile from 11. February 2009, 9:46

John Lennon & Yoko Ono / Double Fantasy

Used drive : _NEC DVD_RW ND-3520AW Adapter: 0 ID: 0

Read mode : Secure
Utilize accurate stream : Yes
Defeat audio cache : Yes
Make use of C2 pointers : No

Read offset correction : 48
Overread into Lead-In and Lead-Out : No
Fill up missing offset samples with silence : Yes
Delete leading and trailing silent blocks : No
Null samples used in CRC calculations : Yes
Used interface : Native Win32 interface for Win NT & 2000

Used output format : Internal WAV Routines
Sample format : 44.100 Hz; 16 Bit; Stereo


TOC of the extracted CD

Track | Start | Length | Start sector | End sector
––––––––––––––––––––––––––––-
1 | 0:00.00 | 3:56.47 | 0 | 17746
2 | 3:56.47 | 2:41.15 | 17747 | 29836
3 | 6:37.62 | 2:58.35 | 29837 | 43221
4 | 9:36.22 | 1:35.48 | 43222 | 50394
5 | 11:11.70 | 3:57.00 | 50395 | 68169
6 | 15:08.70 | 2:19.72 | 68170 | 78666
7 | 17:28.67 | 4:04.05 | 78667 | 96971
8 | 21:32.72 | 3:59.28 | 96972 | 114924
9 | 25:32.25 | 3:09.47 | 114925 | 129146
10 | 28:41.72 | 3:31.65 | 129147 | 145036
11 | 32:13.62 | 2:55.13 | 145037 | 158174
12 | 35:09.00 | 2:34.40 | 158175 | 169764
13 | 37:43.40 | 4:02.12 | 169765 | 187926
14 | 41:45.52 | 3:22.05 | 187927 | 203081
15 | 45:07.57 | 2:37.55 | 203082 | 214911
16 | 47:45.37 | 6:00.45 | 214912 | 241956
17 | 53:46.07 | 0:17.00 | 241957 | 243231


Range status and errors

Selected range

Filename F:\Music Lossless\John Lennon & Yoko Ono - Double Fantasy (1980) (Japan EMI TOCP- 70399)\John Lennon & Yoko Ono - Double Fantasy.wav

Peak level 100.0 %
Range quality 100.0 %
Test CRC 77199A97
Copy CRC 77199A97
Copy OK

No errors occurred


AccurateRip summary

Track 1 accurately ripped (confidence 2) [B348E42B]
Track 2 accurately ripped (confidence 2) [F8191CCE]
Track 3 accurately ripped (confidence 2) [847A9389]
Track 4 accurately ripped (confidence 2) [713D0C65]
Track 5 accurately ripped (confidence 2) [B313E2E7]
Track 6 accurately ripped (confidence 2) [71A30D57]
Track 7 accurately ripped (confidence 2) [7D699828]
Track 8 accurately ripped (confidence 2) [57B09A5C]
Track 9 accurately ripped (confidence 2) [246C3382]
Track 10 accurately ripped (confidence 2) [3A08CECA]
Track 11 accurately ripped (confidence 2) [8E4F4CBD]
Track 12 accurately ripped (confidence 2) [6974AF52]
Track 13 accurately ripped (confidence 2) [5AF0F519]
Track 14 accurately ripped (confidence 2) [0A118747]
Track 15 accurately ripped (confidence 2) [89FF8C77]
Track 16 accurately ripped (confidence 2) [FF4A2812]
Track 17 accurately ripped (confidence 2) [8A4AD4EE]

All tracks accurately ripped

End of status report


[CUETools log; Date: 07.02.2018 8:25:23; Version: 2.1.5]
[CTDB TOCID: TnDK.7dUL32UAhYkUtnKIzKGgfY-] found.
Track | CTDB Status
1 | (62/64) Accurately ripped
2 | (62/64) Accurately ripped
3 | (64/64) Accurately ripped
4 | (64/64) Accurately ripped
5 | (63/64) Accurately ripped
6 | (63/64) Accurately ripped
7 | (64/64) Accurately ripped
8 | (60/64) Accurately ripped
9 | (62/64) Accurately ripped
10 | (63/64) Accurately ripped
11 | (64/64) Accurately ripped
12 | (60/64) Accurately ripped
13 | (62/64) Accurately ripped
14 | (64/64) Accurately ripped
15 | (63/64) Accurately ripped
16 | (61/64) Accurately ripped
17 | (64/64) Accurately ripped
[AccurateRip ID: 00217711-01aa01ea-ee0cab11] found.
Track [ CRC | V2 ] Status
01 [b348e42b|c35b0c72] (07+20/54) Accurately ripped
02 [f8191cce|1a5e46ca] (07+19/52) Accurately ripped
03 [847a9389|bb69bcaa] (07+20/53) Accurately ripped
04 [713d0c65|bcf0b6f2] (07+20/54) Accurately ripped
05 [b313e2e7|1519ad48] (07+20/54) Accurately ripped
06 [71a30d57|a533ff44] (07+20/54) Accurately ripped
07 [7d699828|7d2e662d] (07+20/53) Accurately ripped
08 [57b09a5c|6a303028] (07+20/52) Accurately ripped
09 [246c3382|7406241b] (07+20/53) Accurately ripped
10 [3a08ceca|2f297b13] (07+21/54) Accurately ripped
11 [8e4f4cbd|87e5162c] (07+20/53) Accurately ripped
12 [6974af52|15377f4c] (07+20/53) Accurately ripped
13 [5af0f519|6c6ead6d] (07+20/53) Accurately ripped
14 [0a118747|f2b6025e] (07+20/53) Accurately ripped
15 [89ff8c77|2c2e67b0] (07+20/53) Accurately ripped
16 [ff4a2812|82f28757] (07+20/52) Accurately ripped
17 [8a4ad4ee|2477a43f] (07+20/53) Accurately ripped
Offsetted by -30:
01 [64e0974b] (03/54) Accurately ripped
02 [2eb5109a] (03/52) Accurately ripped
03 [9760c83d] (03/53) Accurately ripped
04 [8e1f96d1] (03/54) Accurately ripped
05 [582826c9] (03/54) Accurately ripped
06 [f398e22a] (03/54) Accurately ripped
07 [98866a15] (03/53) Accurately ripped
08 [721bd1ab] (03/52) Accurately ripped
09 [e0fa72ab] (03/53) Accurately ripped
10 [5dea968a] (03/54) Accurately ripped
11 [bdfd204f] (03/53) Accurately ripped
12 [294ce2c2] (03/53) Accurately ripped
13 [cdc9e89e] (03/53) Accurately ripped
14 [eb6173e4] (03/53) Accurately ripped
15 [af4288b3] (03/53) Accurately ripped
16 [97b610e6] (03/52) Accurately ripped
17 [91bb77e8] (03/53) Accurately ripped
Offsetted by 1352:
01 [5eb66cab] (08/54) Accurately ripped
02 [88545d82] (08/52) Accurately ripped
03 [465e7ddd] (08/53) Accurately ripped
04 [b0d31495] (08/54) Accurately ripped
05 [040cd3b8] (08/54) Accurately ripped
06 [1c31b122] (08/54) Accurately ripped
07 [fb4e3510] (08/53) Accurately ripped
08 [6caed705] (06/52) Accurately ripped
09 [7ad8da79] (07/53) Accurately ripped
10 [975ea014] (07/54) Accurately ripped
11 [3a07877b] (07/53) Accurately ripped
12 [a3a97f12] (07/53) Accurately ripped
13 [8d859a68] (07/53) Accurately ripped
14 [a8ab9418] (07/53) Accurately ripped
15 [eb7aeb88] (07/53) Accurately ripped
16 [ab03274d] (06/52) Accurately ripped
17 [44746872] (07/53) Accurately ripped
Offsetted by 6:
01 [5c90f38b] (00/54) No match (V2 was not tested)
02 [736f36f1] (00/52) No match (V2 was not tested)
03 [817a22ce] (00/53) No match (V2 was not tested)
04 [6b7623e9] (00/54) No match (V2 was not tested)
05 [e35b16b4] (00/54) No match (V2 was not tested)
06 [84a4a0bd] (00/54) No match (V2 was not tested)
07 [aa1471fb] (00/53) No match (V2 was not tested)
08 [3f58b5ca] (00/52) No match (V2 was not tested)
09 [c08c91b8] (00/53) No match (V2 was not tested)
10 [45620f63] (00/54) No match (V2 was not tested)
11 [1ca12342] (00/53) No match (V2 was not tested)
12 [43163ea2] (00/53) No match (V2 was not tested)
13 [607e110d] (00/53) No match (V2 was not tested)
14 [dfc8b2e9] (00/53) No match (V2 was not tested)
15 [047761fa] (00/53) No match (V2 was not tested)
16 [5cd92619] (00/52) No match (V2 was not tested)
17 [bc21811e] (00/53) No match (V2 was not tested)

Track Peak [ CRC32 ] [W/O NULL] [ LOG ]
– 99,9 [77199A97] [0448CCC3] CRC32
01 99,9 [D35A41F5] [73EA65D8]
02 99,9 [8B1CBF76] [26B48881]
03 99,9 [828D27E2] [4A2A86E1]
04 99,9 [761F2345] [26F852BD]
05 99,9 [EB589CA0] [1AB9FE9A]
06 99,9 [34C08C9C] [1788C597]
07 99,9 [CD8B3511] [BC22BE63]
08 99,9 [3EEC6ECB] [F71DCEDC]
09 99,9 [FF5AE674] [4DBF72E3]
10 99,9 [6726DB24] [AD6DFEA9]
11 99,9 [8E992288] [A7CBA7E2]
12 99,9 [505AD8E2] [A0C1EAA7]
13 99,9 [2F0BE891] [6020AFF7]
14 99,9 [A6F07A3A] [1BDCEFA6]
15 80,7 [D3E41D13] [75CB86B0]
16 99,9 [F5977100] [A0CAAB6B]
17 70,7 [62C3823B] [40A91A92]


John Lennon: Japanese Mini LP Collection (1969-1984)

Tracklist CD11 - 1984 - John Lennon & Yoko Ono - Milk And Hone:
EMI TOCP-70400

01. I'm Stepping Out (4:07)
02. Sleepless Night (2:34)
03. I Don't Wanna Face It (3:22)
04. Don't Be Scared (2:45)
05. Nobody Told Me (3:34)
06. O' Sanity (1:06)
07. Borrowed Time (4:29)
08. Your Hands (3:04)
09. (Forgive Me) My Little Flower Princess (2:28)
10. Let Me Count The Ways (2:17)
11. Glow Old With Me (3:09)
12. You're The One (3:56)
13. Every Man Has A Woman Who Loves Him (3:19)
14. Stepping Out (Home Version) (2:58)
15. I'm Moving On (Home Demo) (1:20)
16. Interview With J & Y, December 8Th, 1980 (21:55)

Exact Audio Copy V0.99 prebeta 4 from 23. January 2008

EAC extraction logfile from 11. February 2009, 11:07

John Lennon & Yoko Ono / Milk And Honey

Used drive : _NEC DVD_RW ND-3520AW Adapter: 0 ID: 0

Read mode : Secure
Utilize accurate stream : Yes
Defeat audio cache : Yes
Make use of C2 pointers : No

Read offset correction : 48
Overread into Lead-In and Lead-Out : No
Fill up missing offset samples with silence : Yes
Delete leading and trailing silent blocks : No
Null samples used in CRC calculations : Yes
Used interface : Native Win32 interface for Win NT & 2000

Used output format : Internal WAV Routines
Sample format : 44.100 Hz; 16 Bit; Stereo


TOC of the extracted CD

Track | Start | Length | Start sector | End sector
––––––––––––––––––––––––––––-
1 | 0:00.00 | 4:06.45 | 0 | 18494
2 | 4:06.45 | 2:33.50 | 18495 | 30019
3 | 6:40.20 | 3:21.72 | 30020 | 45166
4 | 10:02.17 | 2:44.48 | 45167 | 57514
5 | 12:46.65 | 3:34.07 | 57515 | 73571
6 | 16:20.72 | 1:06.28 | 73572 | 78549
7 | 17:27.25 | 4:28.67 | 78550 | 98716
8 | 21:56.17 | 3:04.03 | 98717 | 112519
9 | 25:00.20 | 2:28.12 | 112520 | 123631
10 | 27:28.32 | 2:16.60 | 123632 | 133891
11 | 29:45.17 | 3:09.18 | 133892 | 148084
12 | 32:54.35 | 3:55.47 | 148085 | 165756
13 | 36:50.07 | 3:19.13 | 165757 | 180694
14 | 40:09.20 | 2:57.52 | 180695 | 194021
15 | 43:06.72 | 1:20.28 | 194022 | 200049
16 | 44:27.25 | 21:55.22 | 200050 | 298696


Range status and errors

Selected range

Filename F:\Music Lossless\John Lennon & Yoko Ono - Milk And Honey (1984) (Japan EMI TOCP- 70400)\John Lennon & Yoko Ono - Milk And Honey.wav

Peak level 100.0 %
Range quality 100.0 %
Test CRC 34A619C2
Copy CRC 34A619C2
Copy OK

No errors occurred


AccurateRip summary

Track 1 not present in database
Track 2 not present in database
Track 3 not present in database
Track 4 not present in database
Track 5 not present in database
Track 6 not present in database
Track 7 not present in database
Track 8 not present in database
Track 9 not present in database
Track 10 not present in database
Track 11 not present in database
Track 12 not present in database
Track 13 not present in database
Track 14 not present in database
Track 15 not present in database
Track 16 not present in database

None of the tracks are present in the AccurateRip database

End of status report


[CUETools log; Date: 07.02.2018 8:25:54; Version: 2.1.5]
[CTDB TOCID: upP1aznT8yn8k5VS9gPx7NQYFqU-] found.
Track | CTDB Status
1 | (23/23) Accurately ripped
2 | (23/23) Accurately ripped
3 | (23/23) Accurately ripped
4 | (23/23) Accurately ripped
5 | (23/23) Accurately ripped
6 | (23/23) Accurately ripped
7 | (23/23) Accurately ripped
8 | (23/23) Accurately ripped
9 | (23/23) Accurately ripped
10 | (23/23) Accurately ripped
11 | (23/23) Accurately ripped
12 | (23/23) Accurately ripped
13 | (22/23) Accurately ripped
14 | (23/23) Accurately ripped
15 | (23/23) Accurately ripped
16 | (23/23) Accurately ripped
[AccurateRip ID: 001de5da-016a6056-e20f8e10] found.
Track [ CRC | V2 ] Status
01 [ec518c0b|044e6cd9] (05+08/29) Accurately ripped
02 [ab2eceac|1426d480] (05+08/29) Accurately ripped
03 [5572e2a0|3731dafe] (05+08/29) Accurately ripped
04 [45f6175c|79d8b8b5] (05+08/29) Accurately ripped
05 [d1e80526|e5e73b77] (05+08/29) Accurately ripped
06 [04abfeed|6effa4ee] (05+08/29) Accurately ripped
07 [a7ab700a|8d1b4ce2] (05+08/29) Accurately ripped
08 [03b1adaf|7293bb12] (05+08/29) Accurately ripped
09 [58cb86e0|c286736d] (05+08/29) Accurately ripped
10 [8cad8a14|e258ca7e] (05+08/29) Accurately ripped
11 [656857d8|87e27651] (05+08/29) Accurately ripped
12 [dd3971b4|3bbdfe49] (05+08/29) Accurately ripped
13 [5bc53a58|64575d44] (05+08/29) Accurately ripped
14 [1d91ea5e|ba05fa8e] (05+08/29) Accurately ripped
15 [742f0cf6|a847d614] (05+08/29) Accurately ripped
16 [9c957904|100e27ec] (04+08/27) Accurately ripped
Offsetted by 794:
01 [132902e2] (04/29) Accurately ripped
02 [a6019c87] (04/29) Accurately ripped
03 [2e3e67c0] (04/29) Accurately ripped
04 [6ce30262] (04/29) Accurately ripped
05 [cf499984] (04/29) Accurately ripped
06 [63fd0037] (04/29) Accurately ripped
07 [85c8d42b] (04/29) Accurately ripped
08 [7c31dbf4] (04/29) Accurately ripped
09 [33942dfa] (04/29) Accurately ripped
10 [e00aa0fe] (04/29) Accurately ripped
11 [9371e934] (04/29) Accurately ripped
12 [06e071e0] (04/29) Accurately ripped
13 [74393fea] (04/29) Accurately ripped
14 [f1e58294] (04/29) Accurately ripped
15 [94c58c06] (04/29) Accurately ripped
16 [df401644] (04/27) Accurately ripped
Offsetted by 6:
01 [855bddfd] (00/29) No match (V2 was not tested)
02 [9f8c62e6] (00/29) No match (V2 was not tested)
03 [55e406d6] (00/29) No match (V2 was not tested)
04 [9df40336] (00/29) No match (V2 was not tested)
05 [15982728] (00/29) No match (V2 was not tested)
06 [cd4a97c3] (00/29) No match (V2 was not tested)
07 [ee491275] (00/29) No match (V2 was not tested)
08 [53588c47] (00/29) No match (V2 was not tested)
09 [84ac01a1] (00/29) No match (V2 was not tested)
10 [b5248d44] (00/29) No match (V2 was not tested)
11 [c4602582] (00/29) No match (V2 was not tested)
12 [e357b948] (00/29) No match (V2 was not tested)
13 [1cc2e166] (00/29) No match (V2 was not tested)
14 [6afe9849] (00/29) No match (V2 was not tested)
15 [d90a1add] (00/29) No match (V2 was not tested)
16 [ce185fc4] (00/27) No match (V2 was not tested)

Track Peak [ CRC32 ] [W/O NULL] [ LOG ]
– 99,9 [34A619C2] [E5BC9F9F] CRC32
01 99,9 [E94A4511] [2C3EF55F]
02 99,9 [7A23E078] [8809219B]
03 99,9 [25F847A0] [8D5B6CDC]
04 99,9 [C0A80FC8] [A729DDD7]
05 99,9 [54DEE8D2] [FDBA5652]
06 99,9 [A6F9DCA0] [649B152B]
07 99,9 [C0DDB2B4] [867F8E30]
08 99,9 [6F696278] [21D688C1]
09 99,9 [533C5D53] [023AD053]
10 99,9 [EF140AAE] [694930CC]
11 99,9 [1E967703] [033E2E7F]
12 99,9 [37A78C53] [FD046FF8]
13 99,9 [D65376E2] [D996B01F]
14 78,8 [DE5D4E78] [5A610785]
15 91,1 [9CDE2D51] [B4B5CA87]
16 80,3 [DCB64FED] [51E0731C]


All thanks go to Axelgahan

John Lennon or John Lennon in my Blog

Download John Lennon: Japanese Mini LP Collection (1969-1984):