Subcategories

Johnny Cash - Johnny Cash The Rebel (2013)

Posted By: ciklon5
Johnny Cash - Johnny Cash The Rebel (2013)

Johnny Cash - Johnny Cash The Rebel (2013)
FLAC (track+cue) | 2:55:52 | 595 Mb
Genre: Folk, Country, Rock / Label: Kensington - Delta

UK three CD colleciton. The Man in Black is being discovered by a new audience every day, helped along by the Hollywood blockbuster I Walk the Line. Johnny Cash's songs have seldom been more relevant and here we present 75 of his best to be rediscovered all over again. Music Digital.

Track List:

Disc: 1
1. I Walk The Line
2. I Got Stripes
3. In The Jailhouse Now
4. Oh Lonesome Me
5. Bonanza
6. I Love You Because
7. Get Rhythm
8. These Hands
9. Hey Good Lookin
10. Big River
11. Luther Played The Boogie
12. Bandana
13. Smiling Bill McCall
14. The Story Of A Broken Heart
15. Down The Street To 301
16. Second Honeymoon
17. Mean Eyed Cat
18. Goodbye Little Darlin
19. You Tell Me
20. Wabash Blues
21. Straight As In Love
22. Rock Island Line
23. The Troubadour
24. Little Drummer Boy
25. The Rebel - Johnny Yuma

Disc: 2
1. Ring Of Fire (live)
2. Dont Take Your Guns To Town
3. Ballad Of A Teenage Queen
4. Cottonfields
5. Im So Lonesome I Could Cry
6. Tennessee Flat Top Box
7. The Big Battle
8. Cry Cry Cry
9. Thanks A Lot
10. You Dreamer You
11. Frankies Man, Johnny
12. Katy Too
13. I Forgot To Remember To Forget
14. There You Go
15. Train Of Love
16. Next In Line
17. Dont Make Me Go
18. Home Of The Blues
19. Give My Love To Rose
20. One More Ride
21. Thats Enough
22. Id Rather Die Young
23. Pickin Time
24. So Doggone Lonesome
25. Five Feet And Rising

Disc: 3
1. Folsom Prison Blues
2. Guess Things Happen That Way
3. Busted
4. Girl In Saskatoon
5. Seasons Of My Heart
6. You Win Again
7. Run Softly, Blue River
8. Hey Porter
9. Ill Remember You
10. Come In Stranger
11. The Ways Of A Woman In Love
12. Youre The Nearest Thing To Heaven
13. All Over Again
14. What Do I Care?
15. I Still Miss Someone
16. Its Just About Time
17. I Just Thought Youd Like To Know
18. Delias Gone
19. I Forgot More Than Youll Ever Know
20. You Remembered Me 2
21. Im Free From The Chain Gang Now
22. Let Me Down Easy
23. Sing It Pretty Sue
24. Lost On The Desert
25. A Boy Named Sue (live)

Information ripping to FLAC, 'Track 1' to 'Johnny Cash\The Rebel [Music Digital CD-1]\01 Johnny Cash - I Walk the Line.flac'
Track 1: Ripped LBA 0 to 12507 (2:46) in 0:24. Filename: Johnny Cash\The Rebel [Music Digital CD-1]\01 Johnny Cash - I Walk the Line._
AccurateRip: Accurate (confidence 7) [Pass 1]
CRC32: FBF004E6 AccurateRip CRC: 0D22F8D4 [DiscID: 025-0032c961-038a62bb-660d1019-1]
AccurateRip Verified Confidence 7 [CRCv2 d22f8d4], Using Pressing Offset +42

Information ripping to FLAC, 'Track 2' to 'Johnny Cash\The Rebel [Music Digital CD-1]\02 Johnny Cash - I Got Stripes.flac'
Track 2: Ripped LBA 12507 to 21898 (2:05) in 0:17. Filename: Johnny Cash\The Rebel [Music Digital CD-1]\02 Johnny Cash - I Got Stripes._
AccurateRip: Accurate (confidence 7) [Pass 1]
CRC32: D01F6E0F AccurateRip CRC: 839D71E6 [DiscID: 025-0032c961-038a62bb-660d1019-2]
AccurateRip Verified Confidence 7 [CRCv2 839d71e6], Using Pressing Offset +42

Information ripping to FLAC, 'Track 3' to 'Johnny Cash\The Rebel [Music Digital CD-1]\03 Johnny Cash - In the Jailhouse Now.flac'
Track 3: Ripped LBA 21898 to 32748 (2:24) in 0:18. Filename: Johnny Cash\The Rebel [Music Digital CD-1]\03 Johnny Cash - In the Jailhouse Now._
AccurateRip: Accurate (confidence 7) [Pass 1]
CRC32: C9083E78 AccurateRip CRC: 36C85565 [DiscID: 025-0032c961-038a62bb-660d1019-3]
AccurateRip Verified Confidence 7 [CRCv2 36c85565], Using Pressing Offset +42

Information ripping to FLAC, 'Track 4' to 'Johnny Cash\The Rebel [Music Digital CD-1]\04 Johnny Cash - Oh Lonesome Me.flac'
Track 4: Ripped LBA 32748 to 44081 (2:31) in 0:18. Filename: Johnny Cash\The Rebel [Music Digital CD-1]\04 Johnny Cash - Oh Lonesome Me._
AccurateRip: Accurate (confidence 7) [Pass 1]
CRC32: FCACC834 AccurateRip CRC: 33F4E9E2 [DiscID: 025-0032c961-038a62bb-660d1019-4]
AccurateRip Verified Confidence 7 [CRCv2 33f4e9e2], Using Pressing Offset +42

Information ripping to FLAC, 'Track 5' to 'Johnny Cash\The Rebel [Music Digital CD-1]\05 Johnny Cash - Bonanza.flac'
Track 5: Ripped LBA 44081 to 54691 (2:21) in 0:16. Filename: Johnny Cash\The Rebel [Music Digital CD-1]\05 Johnny Cash - Bonanza._
AccurateRip: Accurate (confidence 7) [Pass 1]
CRC32: 2729E6CF AccurateRip CRC: 65EF6270 [DiscID: 025-0032c961-038a62bb-660d1019-5]
AccurateRip Verified Confidence 7 [CRCv2 65ef6270], Using Pressing Offset +42

Information ripping to FLAC, 'Track 6' to 'Johnny Cash\The Rebel [Music Digital CD-1]\06 Johnny Cash - I Love You Because.flac'
Track 6: Ripped LBA 54691 to 65800 (2:28) in 0:16. Filename: Johnny Cash\The Rebel [Music Digital CD-1]\06 Johnny Cash - I Love You Because._
AccurateRip: Accurate (confidence 7) [Pass 1]
CRC32: 86B67A68 AccurateRip CRC: 0A671F2E [DiscID: 025-0032c961-038a62bb-660d1019-6]
AccurateRip Verified Confidence 7 [CRCv2 a671f2e], Using Pressing Offset +42

Information ripping to FLAC, 'Track 7' to 'Johnny Cash\The Rebel [Music Digital CD-1]\07 Johnny Cash - Get Rhythm.flac'
Track 7: Ripped LBA 65800 to 75981 (2:15) in 0:14. Filename: Johnny Cash\The Rebel [Music Digital CD-1]\07 Johnny Cash - Get Rhythm._
AccurateRip: Accurate (confidence 7) [Pass 1]
CRC32: 88F9BD86 AccurateRip CRC: CC5B12DC [DiscID: 025-0032c961-038a62bb-660d1019-7]
AccurateRip Verified Confidence 7 [CRCv2 cc5b12dc], Using Pressing Offset +42

Information ripping to FLAC, 'Track 8' to 'Johnny Cash\The Rebel [Music Digital CD-1]\08 Johnny Cash - These Hands.flac'
Track 8: Ripped LBA 75981 to 86029 (2:13) in 0:13. Filename: Johnny Cash\The Rebel [Music Digital CD-1]\08 Johnny Cash - These Hands._
AccurateRip: Accurate (confidence 7) [Pass 1]
CRC32: D7B6F57A AccurateRip CRC: 5FB68FFC [DiscID: 025-0032c961-038a62bb-660d1019-8]
AccurateRip Verified Confidence 7 [CRCv2 5fb68ffc], Using Pressing Offset +42

Information ripping to FLAC, 'Track 9' to 'Johnny Cash\The Rebel [Music Digital CD-1]\09 Johnny Cash - Hey Good Lookin'.flac'
Track 9: Ripped LBA 86029 to 93627 (1:41) in 0:10. Filename: Johnny Cash\The Rebel [Music Digital CD-1]\09 Johnny Cash - Hey Good Lookin'._
AccurateRip: Accurate (confidence 7) [Pass 1]
CRC32: 8795B2EB AccurateRip CRC: 81501BA1 [DiscID: 025-0032c961-038a62bb-660d1019-9]
AccurateRip Verified Confidence 7 [CRCv2 81501ba1], Using Pressing Offset +42

Information ripping to FLAC, 'Track 10' to 'Johnny Cash\The Rebel [Music Digital CD-1]\10 Johnny Cash - Big River.flac'
Track 10: Ripped LBA 93627 to 105053 (2:32) in 0:14. Filename: Johnny Cash\The Rebel [Music Digital CD-1]\10 Johnny Cash - Big River._
AccurateRip: Accurate (confidence 7) [Pass 1]
CRC32: E709C9AF AccurateRip CRC: CF00EC55 [DiscID: 025-0032c961-038a62bb-660d1019-10]
AccurateRip Verified Confidence 7 [CRCv2 cf00ec55], Using Pressing Offset +42

Information ripping to FLAC, 'Track 11' to 'Johnny Cash\The Rebel [Music Digital CD-1]\11 Johnny Cash - Luther Played the Boogie.flac'
Track 11: Ripped LBA 105053 to 114466 (2:05) in 0:11. Filename: Johnny Cash\The Rebel [Music Digital CD-1]\11 Johnny Cash - Luther Played the Boogie._
AccurateRip: Accurate (confidence 7) [Pass 1]
CRC32: 0504A17A AccurateRip CRC: 6A172B49 [DiscID: 025-0032c961-038a62bb-660d1019-11]
AccurateRip Verified Confidence 7 [CRCv2 6a172b49], Using Pressing Offset +42

Information ripping to FLAC, 'Track 12' to 'Johnny Cash\The Rebel [Music Digital CD-1]\12 Johnny Cash - Bandana.flac'
Track 12: Ripped LBA 114466 to 124628 (2:15) in 0:12. Filename: Johnny Cash\The Rebel [Music Digital CD-1]\12 Johnny Cash - Bandana._
AccurateRip: Accurate (confidence 6) [Pass 1]
CRC32: D9375BF2 AccurateRip CRC: CF81175C [DiscID: 025-0032c961-038a62bb-660d1019-12]
AccurateRip Verified Confidence 6 [CRCv2 cf81175c], Using Pressing Offset +42

Information ripping to FLAC, 'Track 13' to 'Johnny Cash\The Rebel [Music Digital CD-1]\13 Johnny Cash - Smiling Bill McCall.flac'
Track 13: Ripped LBA 124628 to 134108 (2:06) in 0:11. Filename: Johnny Cash\The Rebel [Music Digital CD-1]\13 Johnny Cash - Smiling Bill McCall._
AccurateRip: Accurate (confidence 7) [Pass 1]
CRC32: 2B75F782 AccurateRip CRC: 1D81539A [DiscID: 025-0032c961-038a62bb-660d1019-13]
AccurateRip Verified Confidence 7 [CRCv2 1d81539a], Using Pressing Offset +42

Information ripping to FLAC, 'Track 14' to 'Johnny Cash\The Rebel [Music Digital CD-1]\14 Johnny Cash - The Story of a Broken Heart.flac'
Track 14: Ripped LBA 134108 to 144026 (2:12) in 0:11. Filename: Johnny Cash\The Rebel [Music Digital CD-1]\14 Johnny Cash - The Story of a Broken Heart._
AccurateRip: Accurate (confidence 7) [Pass 1]
CRC32: E104E264 AccurateRip CRC: 432CBB04 [DiscID: 025-0032c961-038a62bb-660d1019-14]
AccurateRip Verified Confidence 7 [CRCv2 432cbb04], Using Pressing Offset +42

Information ripping to FLAC, 'Track 15' to 'Johnny Cash\The Rebel [Music Digital CD-1]\15 Johnny Cash - Down the Street to 301.flac'
Track 15: Ripped LBA 144026 to 153486 (2:06) in 0:10. Filename: Johnny Cash\The Rebel [Music Digital CD-1]\15 Johnny Cash - Down the Street to 301._
AccurateRip: Accurate (confidence 7) [Pass 1]
CRC32: 433545A7 AccurateRip CRC: B173CFAF [DiscID: 025-0032c961-038a62bb-660d1019-15]
AccurateRip Verified Confidence 7 [CRCv2 b173cfaf], Using Pressing Offset +42

Information ripping to FLAC, 'Track 16' to 'Johnny Cash\The Rebel [Music Digital CD-1]\16 Johnny Cash - Second Honeymoon.flac'
Track 16: Ripped LBA 153486 to 162248 (1:56) in 0:09. Filename: Johnny Cash\The Rebel [Music Digital CD-1]\16 Johnny Cash - Second Honeymoon._
AccurateRip: Accurate (confidence 7) [Pass 1]
CRC32: 5D12DCC4 AccurateRip CRC: 6FC9B999 [DiscID: 025-0032c961-038a62bb-660d1019-16]
AccurateRip Verified Confidence 7 [CRCv2 6fc9b999], Using Pressing Offset +42

Information ripping to FLAC, 'Track 17' to 'Johnny Cash\The Rebel [Music Digital CD-1]\17 Johnny Cash - Mean Eyed Cat.flac'
Track 17: Ripped LBA 162248 to 173775 (2:33) in 0:12. Filename: Johnny Cash\The Rebel [Music Digital CD-1]\17 Johnny Cash - Mean Eyed Cat._
AccurateRip: Accurate (confidence 7) [Pass 1]
CRC32: 5DE52B2C AccurateRip CRC: ECDFF4F1 [DiscID: 025-0032c961-038a62bb-660d1019-17]
AccurateRip Verified Confidence 7 [CRCv2 ecdff4f1], Using Pressing Offset +42

Information ripping to FLAC, 'Track 18' to 'Johnny Cash\The Rebel [Music Digital CD-1]\18 Johnny Cash - Goodbye Little Darlin.flac'
Track 18: Ripped LBA 173775 to 183969 (2:15) in 0:10. Filename: Johnny Cash\The Rebel [Music Digital CD-1]\18 Johnny Cash - Goodbye Little Darlin._
AccurateRip: Accurate (confidence 7) [Pass 1]
CRC32: 25B275CA AccurateRip CRC: 6DE1BE6B [DiscID: 025-0032c961-038a62bb-660d1019-18]
AccurateRip Verified Confidence 7 [CRCv2 6de1be6b], Using Pressing Offset +42

Information ripping to FLAC, 'Track 19' to 'Johnny Cash\The Rebel [Music Digital CD-1]\19 Johnny Cash - You Tell Me.flac'
Track 19: Ripped LBA 183969 to 189926 (1:19) in 0:06. Filename: Johnny Cash\The Rebel [Music Digital CD-1]\19 Johnny Cash - You Tell Me._
AccurateRip: Accurate (confidence 7) [Pass 1]
CRC32: E9712BB5 AccurateRip CRC: 81EEA55B [DiscID: 025-0032c961-038a62bb-660d1019-19]
AccurateRip Verified Confidence 7 [CRCv2 81eea55b], Using Pressing Offset +42

Information ripping to FLAC, 'Track 20' to 'Johnny Cash\The Rebel [Music Digital CD-1]\20 Johnny Cash - Wabash Blues.flac'
Track 20: Ripped LBA 189926 to 200353 (2:19) in 0:10. Filename: Johnny Cash\The Rebel [Music Digital CD-1]\20 Johnny Cash - Wabash Blues._
AccurateRip: Accurate (confidence 7) [Pass 1]
CRC32: D97FBC34 AccurateRip CRC: 8F76307E [DiscID: 025-0032c961-038a62bb-660d1019-20]
AccurateRip Verified Confidence 7 [CRCv2 8f76307e], Using Pressing Offset +42

Information ripping to FLAC, 'Track 21' to 'Johnny Cash\The Rebel [Music Digital CD-1]\21 Johnny Cash - Straight as in Love.flac'
Track 21: Ripped LBA 200353 to 210583 (2:16) in 0:10. Filename: Johnny Cash\The Rebel [Music Digital CD-1]\21 Johnny Cash - Straight as in Love._
AccurateRip: Accurate (confidence 7) [Pass 1]
CRC32: 6F2EE2A9 AccurateRip CRC: 853D8DF6 [DiscID: 025-0032c961-038a62bb-660d1019-21]
AccurateRip Verified Confidence 7 [CRCv2 853d8df6], Using Pressing Offset +42

Information ripping to FLAC, 'Track 22' to 'Johnny Cash\The Rebel [Music Digital CD-1]\22 Johnny Cash - Rock Island Line.flac'
Track 22: Ripped LBA 210583 to 220490 (2:12) in 0:09. Filename: Johnny Cash\The Rebel [Music Digital CD-1]\22 Johnny Cash - Rock Island Line._
AccurateRip: Accurate (confidence 7) [Pass 1]
CRC32: 162CA2A0 AccurateRip CRC: AA2F3701 [DiscID: 025-0032c961-038a62bb-660d1019-22]
AccurateRip Verified Confidence 7 [CRCv2 aa2f3701], Using Pressing Offset +42

Information ripping to FLAC, 'Track 23' to 'Johnny Cash\The Rebel [Music Digital CD-1]\23 Johnny Cash - The Troubadour.flac'
Track 23: Ripped LBA 220490 to 230775 (2:17) in 0:10. Filename: Johnny Cash\The Rebel [Music Digital CD-1]\23 Johnny Cash - The Troubadour._
AccurateRip: Accurate (confidence 6) [Pass 1]
CRC32: 46197CC8 AccurateRip CRC: B850B102 [DiscID: 025-0032c961-038a62bb-660d1019-23]
AccurateRip Verified Confidence 6 [CRCv2 b850b102], Using Pressing Offset +42

Information ripping to FLAC, 'Track 24' to 'Johnny Cash\The Rebel [Music Digital CD-1]\24 Johnny Cash - Little Drummer Boy.flac'
Track 24: Ripped LBA 230775 to 242293 (2:33) in 0:11. Filename: Johnny Cash\The Rebel [Music Digital CD-1]\24 Johnny Cash - Little Drummer Boy._
AccurateRip: Accurate (confidence 7) [Pass 1]
CRC32: 3200C8C3 AccurateRip CRC: FDD00DC1 [DiscID: 025-0032c961-038a62bb-660d1019-24]
AccurateRip Verified Confidence 7 [CRCv2 fdd00dc1], Using Pressing Offset +42

Information ripping to FLAC, 'Track 25' to 'Johnny Cash\The Rebel [Music Digital CD-1]\25 Johnny Cash - The Rebel Johnny Yuma.flac'
Track 25: Ripped LBA 242293 to 250812 (1:53) in 0:08. Filename: Johnny Cash\The Rebel [Music Digital CD-1]\25 Johnny Cash - The Rebel Johnny Yuma._
AccurateRip: Accurate (confidence 7) [Pass 1]
CRC32: 25D926CC AccurateRip CRC: A3D773EB [DiscID: 025-0032c961-038a62bb-660d1019-25]
AccurateRip Verified Confidence 7 [CRCv2 a3d773eb], Using Pressing Offset +42

Information ripping to FLAC, 'Track 1' to 'Johnny Cash\The Rebel [Music Digital CD-2]\01 Johnny Cash - Ring of Fire [Live].flac'
Track 1: Ripped LBA 0 to 12744 (2:49) in 0:23. Filename: Johnny Cash\The Rebel [Music Digital CD-2]\01 Johnny Cash - Ring of Fire [Live]._
AccurateRip: Accurate (confidence 7) [Pass 1]
CRC32: 63BCBDE9 AccurateRip CRC: 1C8C4166 [DiscID: 025-003a4ff2-040f62b7-720ec919-1]
AccurateRip Verified Confidence 7 [CRCv2 1c8c4166], Using Pressing Offset +42

Information ripping to FLAC, 'Track 2' to 'Johnny Cash\The Rebel [Music Digital CD-2]\02 Johnny Cash - Don't Take Your Guns to Town.flac'
Track 2: Ripped LBA 12744 to 26487 (3:03) in 0:23. Filename: Johnny Cash\The Rebel [Music Digital CD-2]\02 Johnny Cash - Don't Take Your Guns to Town._
AccurateRip: Accurate (confidence 7) [Pass 1]
CRC32: B14D6C8D AccurateRip CRC: F5F5E6CE [DiscID: 025-003a4ff2-040f62b7-720ec919-2]
AccurateRip Verified Confidence 7 [CRCv2 f5f5e6ce], Using Pressing Offset +42

Information ripping to FLAC, 'Track 3' to 'Johnny Cash\The Rebel [Music Digital CD-2]\03 Johnny Cash - Ballad of a Teenage Queen.flac'
Track 3: Ripped LBA 26487 to 36515 (2:13) in 0:16. Filename: Johnny Cash\The Rebel [Music Digital CD-2]\03 Johnny Cash - Ballad of a Teenage Queen._
AccurateRip: Accurate (confidence 7) [Pass 1]
CRC32: 6D99F500 AccurateRip CRC: 2BE53B18 [DiscID: 025-003a4ff2-040f62b7-720ec919-3]
AccurateRip Verified Confidence 7 [CRCv2 2be53b18], Using Pressing Offset +42

Information ripping to FLAC, 'Track 4' to 'Johnny Cash\The Rebel [Music Digital CD-2]\04 Johnny Cash - Cottonfields.flac'
Track 4: Ripped LBA 36515 to 48106 (2:34) in 0:17. Filename: Johnny Cash\The Rebel [Music Digital CD-2]\04 Johnny Cash - Cottonfields._
AccurateRip: Accurate (confidence 7) [Pass 1]
CRC32: B3BF1C88 AccurateRip CRC: A69CA481 [DiscID: 025-003a4ff2-040f62b7-720ec919-4]
AccurateRip Verified Confidence 7 [CRCv2 a69ca481], Using Pressing Offset +42

Information ripping to FLAC, 'Track 5' to 'Johnny Cash\The Rebel [Music Digital CD-2]\05 Johnny Cash - I'm So Lonesome I Could Cry.flac'
Track 5: Ripped LBA 48106 to 60106 (2:40) in 0:17. Filename: Johnny Cash\The Rebel [Music Digital CD-2]\05 Johnny Cash - I'm So Lonesome I Could Cry._
AccurateRip: Accurate (confidence 7) [Pass 1]
CRC32: 0FCE4539 AccurateRip CRC: 6FF9617F [DiscID: 025-003a4ff2-040f62b7-720ec919-5]
AccurateRip Verified Confidence 7 [CRCv2 6ff9617f], Using Pressing Offset +42

Information ripping to FLAC, 'Track 6' to 'Johnny Cash\The Rebel [Music Digital CD-2]\06 Johnny Cash - Tennessee Flat Top Box.flac'
Track 6: Ripped LBA 60106 to 73718 (3:01) in 0:18. Filename: Johnny Cash\The Rebel [Music Digital CD-2]\06 Johnny Cash - Tennessee Flat Top Box._
AccurateRip: Accurate (confidence 7) [Pass 1]
CRC32: 4C2DD3BC AccurateRip CRC: E121C823 [DiscID: 025-003a4ff2-040f62b7-720ec919-6]
AccurateRip Verified Confidence 7 [CRCv2 e121c823], Using Pressing Offset +42

Information ripping to FLAC, 'Track 7' to 'Johnny Cash\The Rebel [Music Digital CD-2]\07 Johnny Cash - The Big Battle.flac'
Track 7: Ripped LBA 73718 to 92119 (4:05) in 0:24. Filename: Johnny Cash\The Rebel [Music Digital CD-2]\07 Johnny Cash - The Big Battle._
AccurateRip: Accurate (confidence 7) [Pass 1]
CRC32: F5D656AD AccurateRip CRC: 6196A446 [DiscID: 025-003a4ff2-040f62b7-720ec919-7]
AccurateRip Verified Confidence 7 [CRCv2 6196a446], Using Pressing Offset +42

Information ripping to FLAC, 'Track 8' to 'Johnny Cash\The Rebel [Music Digital CD-2]\08 Johnny Cash - Cry Cry Cry.flac'
Track 8: Ripped LBA 92119 to 103344 (2:29) in 0:14. Filename: Johnny Cash\The Rebel [Music Digital CD-2]\08 Johnny Cash - Cry Cry Cry._
AccurateRip: Accurate (confidence 7) [Pass 1]
CRC32: 39462350 AccurateRip CRC: 03BD41D9 [DiscID: 025-003a4ff2-040f62b7-720ec919-8]
AccurateRip Verified Confidence 7 [CRCv2 3bd41d9], Using Pressing Offset +42

Information ripping to FLAC, 'Track 9' to 'Johnny Cash\The Rebel [Music Digital CD-2]\09 Johnny Cash - Thanks a Lot.flac'
Track 9: Ripped LBA 103344 to 115256 (2:38) in 0:14. Filename: Johnny Cash\The Rebel [Music Digital CD-2]\09 Johnny Cash - Thanks a Lot._
AccurateRip: Accurate (confidence 7) [Pass 1]
CRC32: B546F54C AccurateRip CRC: A49C0752 [DiscID: 025-003a4ff2-040f62b7-720ec919-9]
AccurateRip Verified Confidence 7 [CRCv2 a49c0752], Using Pressing Offset +42

Information ripping to FLAC, 'Track 10' to 'Johnny Cash\The Rebel [Music Digital CD-2]\10 Johnny Cash - You Dreamer You.flac'
Track 10: Ripped LBA 115256 to 123603 (1:51) in 0:09. Filename: Johnny Cash\The Rebel [Music Digital CD-2]\10 Johnny Cash - You Dreamer You._
AccurateRip: Accurate (confidence 7) [Pass 1]
CRC32: C34F4458 AccurateRip CRC: 95F7C3FB [DiscID: 025-003a4ff2-040f62b7-720ec919-10]
AccurateRip Verified Confidence 7 [CRCv2 95f7c3fb], Using Pressing Offset +42

Information ripping to FLAC, 'Track 11' to 'Johnny Cash\The Rebel [Music Digital CD-2]\11 Johnny Cash - Frankie's Man, Johnny.flac'
Track 11: Ripped LBA 123603 to 134000 (2:18) in 0:11. Filename: Johnny Cash\The Rebel [Music Digital CD-2]\11 Johnny Cash - Frankie's Man, Johnny._
AccurateRip: Accurate (confidence 7) [Pass 1]
CRC32: 949373C2 AccurateRip CRC: 71723B59 [DiscID: 025-003a4ff2-040f62b7-720ec919-11]
AccurateRip Verified Confidence 7 [CRCv2 71723b59], Using Pressing Offset +42

Information ripping to FLAC, 'Track 12' to 'Johnny Cash\The Rebel [Music Digital CD-2]\12 Johnny Cash - Katy Too.flac'
Track 12: Ripped LBA 134000 to 142863 (1:58) in 0:09. Filename: Johnny Cash\The Rebel [Music Digital CD-2]\12 Johnny Cash - Katy Too._
AccurateRip: Accurate (confidence 7) [Pass 1]
CRC32: F8B42715 AccurateRip CRC: 866FB4E2 [DiscID: 025-003a4ff2-040f62b7-720ec919-12]
AccurateRip Verified Confidence 7 [CRCv2 866fb4e2], Using Pressing Offset +42

Information ripping to FLAC, 'Track 13' to 'Johnny Cash\The Rebel [Music Digital CD-2]\13 Johnny Cash - I Forgot to Remember to Forget.flac'
Track 13: Ripped LBA 142863 to 151494 (1:55) in 0:09. Filename: Johnny Cash\The Rebel [Music Digital CD-2]\13 Johnny Cash - I Forgot to Remember to Forget._
AccurateRip: Accurate (confidence 7) [Pass 1]
CRC32: 2A7FA723 AccurateRip CRC: 684CDB0E [DiscID: 025-003a4ff2-040f62b7-720ec919-13]
AccurateRip Verified Confidence 7 [CRCv2 684cdb0e], Using Pressing Offset +42

Information ripping to FLAC, 'Track 14' to 'Johnny Cash\The Rebel [Music Digital CD-2]\14 Johnny Cash - There You Go.flac'
Track 14: Ripped LBA 151494 to 161982 (2:19) in 0:11. Filename: Johnny Cash\The Rebel [Music Digital CD-2]\14 Johnny Cash - There You Go._
AccurateRip: Accurate (confidence 6) [Pass 1]
CRC32: 6B798B50 AccurateRip CRC: 5D924611 [DiscID: 025-003a4ff2-040f62b7-720ec919-14]
AccurateRip Verified Confidence 6 [CRCv2 5d924611], Using Pressing Offset +42

Information ripping to FLAC, 'Track 15' to 'Johnny Cash\The Rebel [Music Digital CD-2]\15 Johnny Cash - Train of Love.flac'
Track 15: Ripped LBA 161982 to 172880 (2:25) in 0:11. Filename: Johnny Cash\The Rebel [Music Digital CD-2]\15 Johnny Cash - Train of Love._
AccurateRip: Accurate (confidence 7) [Pass 1]
CRC32: 62C8CBAB AccurateRip CRC: DEFA5565 [DiscID: 025-003a4ff2-040f62b7-720ec919-15]
AccurateRip Verified Confidence 7 [CRCv2 defa5565], Using Pressing Offset +42

Information ripping to FLAC, 'Track 16' to 'Johnny Cash\The Rebel [Music Digital CD-2]\16 Johnny Cash - Next in Line.flac'
Track 16: Ripped LBA 172880 to 185532 (2:48) in 0:13. Filename: Johnny Cash\The Rebel [Music Digital CD-2]\16 Johnny Cash - Next in Line._
AccurateRip: Accurate (confidence 7) [Pass 1]
CRC32: 3718B22A AccurateRip CRC: A05EB626 [DiscID: 025-003a4ff2-040f62b7-720ec919-16]
AccurateRip Verified Confidence 7 [CRCv2 a05eb626], Using Pressing Offset +42

Information ripping to FLAC, 'Track 17' to 'Johnny Cash\The Rebel [Music Digital CD-2]\17 Johnny Cash - Don't Make Me Go.flac'
Track 17: Ripped LBA 185532 to 196963 (2:32) in 0:11. Filename: Johnny Cash\The Rebel [Music Digital CD-2]\17 Johnny Cash - Don't Make Me Go._
AccurateRip: Accurate (confidence 7) [Pass 1]
CRC32: 41823A23 AccurateRip CRC: 4C0BF7BA [DiscID: 025-003a4ff2-040f62b7-720ec919-17]
AccurateRip Verified Confidence 7 [CRCv2 4c0bf7ba], Using Pressing Offset +42

Information ripping to FLAC, 'Track 18' to 'Johnny Cash\The Rebel [Music Digital CD-2]\18 Johnny Cash - Home of the Blues.flac'
Track 18: Ripped LBA 196963 to 209148 (2:42) in 0:11. Filename: Johnny Cash\The Rebel [Music Digital CD-2]\18 Johnny Cash - Home of the Blues._
AccurateRip: Accurate (confidence 7) [Pass 1]
CRC32: 225A7179 AccurateRip CRC: E0CA6F4E [DiscID: 025-003a4ff2-040f62b7-720ec919-18]
AccurateRip Verified Confidence 7 [CRCv2 e0ca6f4e], Using Pressing Offset +42

Information ripping to FLAC, 'Track 19' to 'Johnny Cash\The Rebel [Music Digital CD-2]\19 Johnny Cash - Give My Love to Rose.flac'
Track 19: Ripped LBA 209148 to 221791 (2:48) in 0:12. Filename: Johnny Cash\The Rebel [Music Digital CD-2]\19 Johnny Cash - Give My Love to Rose._
AccurateRip: Accurate (confidence 7) [Pass 1]
CRC32: 64EDA004 AccurateRip CRC: A820C0E8 [DiscID: 025-003a4ff2-040f62b7-720ec919-19]
AccurateRip Verified Confidence 7 [CRCv2 a820c0e8], Using Pressing Offset +42

Information ripping to FLAC, 'Track 20' to 'Johnny Cash\The Rebel [Music Digital CD-2]\20 Johnny Cash - One More Ride.flac'
Track 20: Ripped LBA 221791 to 231038 (2:03) in 0:08. Filename: Johnny Cash\The Rebel [Music Digital CD-2]\20 Johnny Cash - One More Ride._
AccurateRip: Accurate (confidence 7) [Pass 1]
CRC32: 0285F9C0 AccurateRip CRC: 5EAC71B9 [DiscID: 025-003a4ff2-040f62b7-720ec919-20]
AccurateRip Verified Confidence 7 [CRCv2 5eac71b9], Using Pressing Offset +42

Information ripping to FLAC, 'Track 21' to 'Johnny Cash\The Rebel [Music Digital CD-2]\21 Johnny Cash - That's Enough.flac'
Track 21: Ripped LBA 231038 to 243351 (2:44) in 0:11. Filename: Johnny Cash\The Rebel [Music Digital CD-2]\21 Johnny Cash - That's Enough._
AccurateRip: Accurate (confidence 7) [Pass 1]
CRC32: C65A2F6B AccurateRip CRC: 50960274 [DiscID: 025-003a4ff2-040f62b7-720ec919-21]
AccurateRip Verified Confidence 7 [CRCv2 50960274], Using Pressing Offset +42

Information ripping to FLAC, 'Track 22' to 'Johnny Cash\The Rebel [Music Digital CD-2]\22 Johnny Cash - I'd Rather Die Young.flac'
Track 22: Ripped LBA 243351 to 254797 (2:32) in 0:10. Filename: Johnny Cash\The Rebel [Music Digital CD-2]\22 Johnny Cash - I'd Rather Die Young._
AccurateRip: Accurate (confidence 7) [Pass 1]
CRC32: 46BB8DE8 AccurateRip CRC: 0C109E63 [DiscID: 025-003a4ff2-040f62b7-720ec919-22]
AccurateRip Verified Confidence 7 [CRCv2 c109e63], Using Pressing Offset +42

Information ripping to FLAC, 'Track 23' to 'Johnny Cash\The Rebel [Music Digital CD-2]\23 Johnny Cash - Pickin' Time.flac'
Track 23: Ripped LBA 254797 to 263914 (2:01) in 0:08. Filename: Johnny Cash\The Rebel [Music Digital CD-2]\23 Johnny Cash - Pickin' Time._
AccurateRip: Accurate (confidence 7) [Pass 1]
CRC32: 49BCF098 AccurateRip CRC: 26901152 [DiscID: 025-003a4ff2-040f62b7-720ec919-23]
AccurateRip Verified Confidence 7 [CRCv2 26901152], Using Pressing Offset +42

Information ripping to FLAC, 'Track 24' to 'Johnny Cash\The Rebel [Music Digital CD-2]\24 Johnny Cash - So Doggone Lonesome.flac'
Track 24: Ripped LBA 263914 to 275888 (2:39) in 0:10. Filename: Johnny Cash\The Rebel [Music Digital CD-2]\24 Johnny Cash - So Doggone Lonesome._
AccurateRip: Accurate (confidence 7) [Pass 1]
CRC32: 7156FB87 AccurateRip CRC: B9D8CA68 [DiscID: 025-003a4ff2-040f62b7-720ec919-24]
AccurateRip Verified Confidence 7 [CRCv2 b9d8ca68], Using Pressing Offset +42

Information ripping to FLAC, 'Track 25' to 'Johnny Cash\The Rebel [Music Digital CD-2]\25 Johnny Cash - Five Feet and Rising.flac'
Track 25: Ripped LBA 275888 to 283915 (1:47) in 0:06. Filename: Johnny Cash\The Rebel [Music Digital CD-2]\25 Johnny Cash - Five Feet and Rising._
AccurateRip: Accurate (confidence 6) [Pass 1]
CRC32: 967A6CBC AccurateRip CRC: F5A989AF [DiscID: 025-003a4ff2-040f62b7-720ec919-25]
AccurateRip Verified Confidence 6 [CRCv2 f5a989af], Using Pressing Offset +42


Information ripping to FLAC, 'Track 1' to 'Johnny Cash\The Rebel [Music Digital CD-3]\01 Johnny Cash - Folsom Prison Blues.flac'
Track 1: Ripped LBA 0 to 12858 (2:51) in 0:24. Filename: Johnny Cash\The Rebel [Music Digital CD-3]\01 Johnny Cash - Folsom Prison Blues._
AccurateRip: Accurate (confidence 4) [Pass 1]
CRC32: 03654EDA AccurateRip CRC: 1ABD5BB9 [DiscID: 025-0032f337-03914755-650d5f19-1]
AccurateRip Verified Confidence 4 [CRCv2 1abd5bb9], Using Pressing Offset +42
AccurateRip Verified Confidence 3 [CRCv2 49290f0a], Using Pressing Offset -628

Information ripping to FLAC, 'Track 2' to 'Johnny Cash\The Rebel [Music Digital CD-3]\02 Johnny Cash - Guess Things Happen That Way.flac'
Track 2: Ripped LBA 12858 to 21407 (1:53) in 0:15. Filename: Johnny Cash\The Rebel [Music Digital CD-3]\02 Johnny Cash - Guess Things Happen That Way._
AccurateRip: Accurate (confidence 4) [Pass 1]
CRC32: 0D427B93 AccurateRip CRC: 9833941E [DiscID: 025-0032f337-03914755-650d5f19-2]
AccurateRip Verified Confidence 4 [CRCv2 9833941e], Using Pressing Offset +42
AccurateRip Verified Confidence 3 [CRCv2 baf2aa21], Using Pressing Offset -628

Information ripping to FLAC, 'Track 3' to 'Johnny Cash\The Rebel [Music Digital CD-3]\03 Johnny Cash - Busted.flac'
Track 3: Ripped LBA 21407 to 31735 (2:17) in 0:17. Filename: Johnny Cash\The Rebel [Music Digital CD-3]\03 Johnny Cash - Busted._
AccurateRip: Accurate (confidence 4) [Pass 1]
CRC32: C81C66BA AccurateRip CRC: 64846F83 [DiscID: 025-0032f337-03914755-650d5f19-3]
AccurateRip Verified Confidence 4 [CRCv2 64846f83], Using Pressing Offset +42
AccurateRip Verified Confidence 3 [CRCv2 ad126834], Using Pressing Offset -628

Information ripping to FLAC, 'Track 4' to 'Johnny Cash\The Rebel [Music Digital CD-3]\04 Johnny Cash - Girl in Saskatoon.flac'
Track 4: Ripped LBA 31735 to 41845 (2:14) in 0:16. Filename: Johnny Cash\The Rebel [Music Digital CD-3]\04 Johnny Cash - Girl in Saskatoon._
AccurateRip: Accurate (confidence 4) [Pass 1]
CRC32: FF872DEA AccurateRip CRC: 945A7AAC [DiscID: 025-0032f337-03914755-650d5f19-4]
AccurateRip Verified Confidence 4 [CRCv2 945a7aac], Using Pressing Offset +42
AccurateRip Verified Confidence 3 [CRCv2 2b4605b1], Using Pressing Offset -628

Information ripping to FLAC, 'Track 5' to 'Johnny Cash\The Rebel [Music Digital CD-3]\05 Johnny Cash - Seasons of My Heart.flac'
Track 5: Ripped LBA 41845 to 53249 (2:32) in 0:17. Filename: Johnny Cash\The Rebel [Music Digital CD-3]\05 Johnny Cash - Seasons of My Heart._
AccurateRip: Accurate (confidence 4) [Pass 1]
CRC32: 669DFF8D AccurateRip CRC: 5F56F929 [DiscID: 025-0032f337-03914755-650d5f19-5]
AccurateRip Verified Confidence 4 [CRCv2 5f56f929], Using Pressing Offset +42
AccurateRip Verified Confidence 3 [CRCv2 3a2e9791], Using Pressing Offset -628

Information ripping to FLAC, 'Track 6' to 'Johnny Cash\The Rebel [Music Digital CD-3]\06 Johnny Cash - You Win Again.flac'
Track 6: Ripped LBA 53249 to 63677 (2:19) in 0:15. Filename: Johnny Cash\The Rebel [Music Digital CD-3]\06 Johnny Cash - You Win Again._
AccurateRip: Accurate (confidence 4) [Pass 1]
CRC32: 35B3BF0D AccurateRip CRC: EF28EE8C [DiscID: 025-0032f337-03914755-650d5f19-6]
AccurateRip Verified Confidence 4 [CRCv2 ef28ee8c], Using Pressing Offset +42
AccurateRip Verified Confidence 3 [CRCv2 f887c18e], Using Pressing Offset -628

Information ripping to FLAC, 'Track 7' to 'Johnny Cash\The Rebel [Music Digital CD-3]\07 Johnny Cash - Run Softly, Blue River.flac'
Track 7: Ripped LBA 63677 to 74447 (2:23) in 0:15. Filename: Johnny Cash\The Rebel [Music Digital CD-3]\07 Johnny Cash - Run Softly, Blue River._
AccurateRip: Accurate (confidence 4) [Pass 1]
CRC32: 699D6140 AccurateRip CRC: 4F2E9752 [DiscID: 025-0032f337-03914755-650d5f19-7]
AccurateRip Verified Confidence 4 [CRCv2 4f2e9752], Using Pressing Offset +42
AccurateRip Verified Confidence 3 [CRCv2 cfbc69ab], Using Pressing Offset -628

Information ripping to FLAC, 'Track 8' to 'Johnny Cash\The Rebel [Music Digital CD-3]\08 Johnny Cash - Hey Porter.flac'
Track 8: Ripped LBA 74447 to 84633 (2:15) in 0:13. Filename: Johnny Cash\The Rebel [Music Digital CD-3]\08 Johnny Cash - Hey Porter._
AccurateRip: Accurate (confidence 4) [Pass 1]
CRC32: 7CC88FC5 AccurateRip CRC: 4EB036B4 [DiscID: 025-0032f337-03914755-650d5f19-8]
AccurateRip Verified Confidence 4 [CRCv2 4eb036b4], Using Pressing Offset +42
AccurateRip Verified Confidence 3 [CRCv2 5c7a5975], Using Pressing Offset -628

Information ripping to FLAC, 'Track 9' to 'Johnny Cash\The Rebel [Music Digital CD-3]\09 Johnny Cash - I'll Remember You.flac'
Track 9: Ripped LBA 84633 to 93180 (1:53) in 0:11. Filename: Johnny Cash\The Rebel [Music Digital CD-3]\09 Johnny Cash - I'll Remember You._
AccurateRip: Accurate (confidence 4) [Pass 1]
CRC32: ADB62F0A AccurateRip CRC: CCC4F9E5 [DiscID: 025-0032f337-03914755-650d5f19-9]
AccurateRip Verified Confidence 4 [CRCv2 ccc4f9e5], Using Pressing Offset +42
AccurateRip Verified Confidence 3 [CRCv2 ff1c9e72], Using Pressing Offset -628

Information ripping to FLAC, 'Track 10' to 'Johnny Cash\The Rebel [Music Digital CD-3]\10 Johnny Cash - Come in Stranger.flac'
Track 10: Ripped LBA 93180 to 100959 (1:43) in 0:10. Filename: Johnny Cash\The Rebel [Music Digital CD-3]\10 Johnny Cash - Come in Stranger._
AccurateRip: Accurate (confidence 4) [Pass 1]
CRC32: F1F29BB7 AccurateRip CRC: AEA6D69E [DiscID: 025-0032f337-03914755-650d5f19-10]
AccurateRip Verified Confidence 4 [CRCv2 aea6d69e], Using Pressing Offset +42
AccurateRip Verified Confidence 3 [CRCv2 99ecd155], Using Pressing Offset -628

Information ripping to FLAC, 'Track 11' to 'Johnny Cash\The Rebel [Music Digital CD-3]\11 Johnny Cash - The Ways of a Woman in Love.flac'
Track 11: Ripped LBA 100959 to 111310 (2:18) in 0:13. Filename: Johnny Cash\The Rebel [Music Digital CD-3]\11 Johnny Cash - The Ways of a Woman in Love._
AccurateRip: Accurate (confidence 3) [Pass 1]
CRC32: 204D420E AccurateRip CRC: 5063EDDB [DiscID: 025-0032f337-03914755-650d5f19-11]
AccurateRip Verified Confidence 3 [CRCv2 5063eddb], Using Pressing Offset +42
AccurateRip Verified Confidence 3 [CRCv2 f1be2385], Using Pressing Offset -628

Information ripping to FLAC, 'Track 12' to 'Johnny Cash\The Rebel [Music Digital CD-3]\12 Johnny Cash - You're the Nearest Thing to Heaven.flac'
Track 12: Ripped LBA 111310 to 123429 (2:41) in 0:14. Filename: Johnny Cash\The Rebel [Music Digital CD-3]\12 Johnny Cash - You're the Nearest Thing to Heaven._
AccurateRip: Accurate (confidence 4) [Pass 1]
CRC32: E90482FB AccurateRip CRC: AEAEB7DC [DiscID: 025-0032f337-03914755-650d5f19-12]
AccurateRip Verified Confidence 4 [CRCv2 aeaeb7dc], Using Pressing Offset +42
AccurateRip Verified Confidence 3 [CRCv2 93b8a6f9], Using Pressing Offset -628

Information ripping to FLAC, 'Track 13' to 'Johnny Cash\The Rebel [Music Digital CD-3]\13 Johnny Cash - All Over Again.flac'
Track 13: Ripped LBA 123429 to 133698 (2:16) in 0:12. Filename: Johnny Cash\The Rebel [Music Digital CD-3]\13 Johnny Cash - All Over Again._
AccurateRip: Accurate (confidence 4) [Pass 1]
CRC32: A82521D1 AccurateRip CRC: 1E5E85A7 [DiscID: 025-0032f337-03914755-650d5f19-13]
AccurateRip Verified Confidence 4 [CRCv2 1e5e85a7], Using Pressing Offset +42
AccurateRip Verified Confidence 3 [CRCv2 f6783cda], Using Pressing Offset -628

Information ripping to FLAC, 'Track 14' to 'Johnny Cash\The Rebel [Music Digital CD-3]\14 Johnny Cash - What Do I Care¿.flac'
Track 14: Ripped LBA 133698 to 143456 (2:10) in 0:11. Filename: Johnny Cash\The Rebel [Music Digital CD-3]\14 Johnny Cash - What Do I Care¿._
AccurateRip: Accurate (confidence 4) [Pass 1]
CRC32: DF5BA302 AccurateRip CRC: 29D8C92D [DiscID: 025-0032f337-03914755-650d5f19-14]
AccurateRip Verified Confidence 4 [CRCv2 29d8c92d], Using Pressing Offset +42
AccurateRip Verified Confidence 3 [CRCv2 aadae7f1], Using Pressing Offset -628

Information ripping to FLAC, 'Track 15' to 'Johnny Cash\The Rebel [Music Digital CD-3]\15 Johnny Cash - I Still Miss Someone.flac'
Track 15: Ripped LBA 143456 to 155322 (2:38) in 0:13. Filename: Johnny Cash\The Rebel [Music Digital CD-3]\15 Johnny Cash - I Still Miss Someone._
AccurateRip: Accurate (confidence 4) [Pass 1]
CRC32: 0F186E3C AccurateRip CRC: DA6800CB [DiscID: 025-0032f337-03914755-650d5f19-15]
AccurateRip Verified Confidence 4 [CRCv2 da6800cb], Using Pressing Offset +42
AccurateRip Verified Confidence 3 [CRCv2 d79ae410], Using Pressing Offset -628

Information ripping to FLAC, 'Track 16' to 'Johnny Cash\The Rebel [Music Digital CD-3]\16 Johnny Cash - It's Just About Time.flac'
Track 16: Ripped LBA 155322 to 165205 (2:11) in 0:10. Filename: Johnny Cash\The Rebel [Music Digital CD-3]\16 Johnny Cash - It's Just About Time._
AccurateRip: Accurate (confidence 4) [Pass 1]
CRC32: 4A590498 AccurateRip CRC: D0F18B97 [DiscID: 025-0032f337-03914755-650d5f19-16]
AccurateRip Verified Confidence 4 [CRCv2 d0f18b97], Using Pressing Offset +42
AccurateRip Verified Confidence 3 [CRCv2 9e48a750], Using Pressing Offset -628

Information ripping to FLAC, 'Track 17' to 'Johnny Cash\The Rebel [Music Digital CD-3]\17 Johnny Cash - I Just Thought Youd Like to Know.flac'
Track 17: Ripped LBA 165205 to 176196 (2:26) in 0:11. Filename: Johnny Cash\The Rebel [Music Digital CD-3]\17 Johnny Cash - I Just Thought Youd Like to Know._
AccurateRip: Accurate (confidence 4) [Pass 1]
CRC32: C3DE5BF5 AccurateRip CRC: 123D8CB7 [DiscID: 025-0032f337-03914755-650d5f19-17]
AccurateRip Verified Confidence 4 [CRCv2 123d8cb7], Using Pressing Offset +42
AccurateRip Verified Confidence 3 [CRCv2 6e81a894], Using Pressing Offset -628

Information ripping to FLAC, 'Track 18' to 'Johnny Cash\The Rebel [Music Digital CD-3]\18 Johnny Cash - Delia's Gone.flac'
Track 18: Ripped LBA 176196 to 185382 (2:02) in 0:09. Filename: Johnny Cash\The Rebel [Music Digital CD-3]\18 Johnny Cash - Delia's Gone._
AccurateRip: Accurate (confidence 4) [Pass 1]
CRC32: 43653883 AccurateRip CRC: 207E5656 [DiscID: 025-0032f337-03914755-650d5f19-18]
AccurateRip Verified Confidence 4 [CRCv2 207e5656], Using Pressing Offset +42
AccurateRip Verified Confidence 3 [CRCv2 3144f527], Using Pressing Offset -628

Information ripping to FLAC, 'Track 19' to 'Johnny Cash\The Rebel [Music Digital CD-3]\19 Johnny Cash - I Forgot More Than You'll Ever Know.flac'
Track 19: Ripped LBA 185382 to 196402 (2:26) in 0:11. Filename: Johnny Cash\The Rebel [Music Digital CD-3]\19 Johnny Cash - I Forgot More Than You'll Ever Know._
AccurateRip: Accurate (confidence 4) [Pass 1]
CRC32: 94330B0F AccurateRip CRC: 1AC7D7DD [DiscID: 025-0032f337-03914755-650d5f19-19]
AccurateRip Verified Confidence 4 [CRCv2 1ac7d7dd], Using Pressing Offset +42
AccurateRip Verified Confidence 3 [CRCv2 6e5ec52d], Using Pressing Offset -628

Information ripping to FLAC, 'Track 20' to 'Johnny Cash\The Rebel [Music Digital CD-3]\20 Johnny Cash - You Remembered Me.flac'
Track 20: Ripped LBA 196402 to 205754 (2:04) in 0:09. Filename: Johnny Cash\The Rebel [Music Digital CD-3]\20 Johnny Cash - You Remembered Me._
AccurateRip: Accurate (confidence 4) [Pass 1]
CRC32: BBCFB600 AccurateRip CRC: B7CD9F33 [DiscID: 025-0032f337-03914755-650d5f19-20]
AccurateRip Verified Confidence 4 [CRCv2 b7cd9f33], Using Pressing Offset +42
AccurateRip Verified Confidence 3 [CRCv2 cb3cc416], Using Pressing Offset -628

Information ripping to FLAC, 'Track 21' to 'Johnny Cash\The Rebel [Music Digital CD-3]\21 Johnny Cash - I'm Free from the Chain Gang Now.flac'
Track 21: Ripped LBA 205754 to 214156 (1:52) in 0:08. Filename: Johnny Cash\The Rebel [Music Digital CD-3]\21 Johnny Cash - I'm Free from the Chain Gang Now._
AccurateRip: Accurate (confidence 4) [Pass 1]
CRC32: 289C3B98 AccurateRip CRC: 294D18A0 [DiscID: 025-0032f337-03914755-650d5f19-21]
AccurateRip Verified Confidence 4 [CRCv2 294d18a0], Using Pressing Offset +42
AccurateRip Verified Confidence 3 [CRCv2 9afbfd27], Using Pressing Offset -628

Information ripping to FLAC, 'Track 22' to 'Johnny Cash\The Rebel [Music Digital CD-3]\22 Johnny Cash - Let Me Down Easy.flac'
Track 22: Ripped LBA 214156 to 222211 (1:47) in 0:07. Filename: Johnny Cash\The Rebel [Music Digital CD-3]\22 Johnny Cash - Let Me Down Easy._
AccurateRip: Accurate (confidence 3) [Pass 1]
CRC32: 8E55E102 AccurateRip CRC: 6DCBD310 [DiscID: 025-0032f337-03914755-650d5f19-22]
AccurateRip Verified Confidence 3 [CRCv2 6dcbd310], Using Pressing Offset +42
AccurateRip Verified Confidence 3 [CRCv2 465a9db7], Using Pressing Offset -628

Information ripping to FLAC, 'Track 23' to 'Johnny Cash\The Rebel [Music Digital CD-3]\23 Johnny Cash - Sing It Pretty Sue.flac'
Track 23: Ripped LBA 222211 to 231345 (2:01) in 0:08. Filename: Johnny Cash\The Rebel [Music Digital CD-3]\23 Johnny Cash - Sing It Pretty Sue._
AccurateRip: Accurate (confidence 4) [Pass 1]
CRC32: 7E61BD89 AccurateRip CRC: 33752694 [DiscID: 025-0032f337-03914755-650d5f19-23]
AccurateRip Verified Confidence 4 [CRCv2 33752694], Using Pressing Offset +42
AccurateRip Verified Confidence 3 [CRCv2 1050ce16], Using Pressing Offset -628

Information ripping to FLAC, 'Track 24' to 'Johnny Cash\The Rebel [Music Digital CD-3]\24 Johnny Cash - Lost on the Desert.flac'
Track 24: Ripped LBA 231345 to 240482 (2:01) in 0:08. Filename: Johnny Cash\The Rebel [Music Digital CD-3]\24 Johnny Cash - Lost on the Desert._
AccurateRip: Accurate (confidence 4) [Pass 1]
CRC32: 5FA8E619 AccurateRip CRC: A7A18DB2 [DiscID: 025-0032f337-03914755-650d5f19-24]
AccurateRip Verified Confidence 4 [CRCv2 a7a18db2], Using Pressing Offset +42
AccurateRip Verified Confidence 3 [CRCv2 d16a0103], Using Pressing Offset -628

Information ripping to FLAC, 'Track 25' to 'Johnny Cash\The Rebel [Music Digital CD-3]\25 Johnny Cash - A Boy Named Sue [Live].flac'
Track 25: Ripped LBA 240482 to 256725 (3:36) in 0:15. Filename: Johnny Cash\The Rebel [Music Digital CD-3]\25 Johnny Cash - A Boy Named Sue [Live]._
AccurateRip: Accurate (confidence 4) [Pass 1]
CRC32: 740604D3 AccurateRip CRC: 94F2DD78 [DiscID: 025-0032f337-03914755-650d5f19-25]
AccurateRip Verified Confidence 4 [CRCv2 94f2dd78], Using Pressing Offset +42
AccurateRip Verified Confidence 3 [CRCv2 5987b042], Using Pressing Offset -628