Jan Lehtola, Klemetti Institute Chamber Choir; Heikki Liimola - Joonas Kokkonen: Requiem; Complete Works for Organ (2017)

Posted By: Designol
Jan Lehtola, Klemetti Institute Chamber Choir; Heikki Liimola - Joonas Kokkonen: Requiem; Complete Works for Organ (2017)

Joonas Kokkonen - Requiem; Complete Works for Organ (2017)
Jan Lehtola (organ); Suvi Väyrynen (soprano); Joose Vähäsöyrinki (baritone)
Klemetti Institute Chamber Choir; Heikki Liimola, conductor

EAC | FLAC | Image (Cue&Log) ~ 195 Mb | Mp3 (CBR320) ~ 130 Mb | Artwork included
Genre: Classical | Label: Toccata Classics | # TOCC0434 | Time: 00:55:33

The music of Joonas Kokkonen (1921–96), one of the most important Finnish composers after Sibelius, radiates warmth and light. His limited output is largely introvert in character but also contains moments of grandeur and rhythmic energy. Kokkonen’s Requiem (1980–81), written in memory of his first wife, is both a powerful choral symphony and a tender, moving embodiment of consolation. Originally scored for large orchestra, the Requiem is heard here in a new version for organ intended to bring the work within the reach of smaller forces. This first recording is complemented by the first complete recording of Kokkonen’s four works for solo organ.

The predilection of Joonas Kokkonen in his later years to harmonize tonality with serialism – as is represented in the works on the current disc – somewhat reflects Arnold Schoenberg’s poignant concession from 1948, that “…a longing to return to the older [tonal] style was always vigorous in me, and from time to time I had to yield to that urge.” If anything, although emancipating from the strict tethers of serial techniques to incorporate scents of tonality is hardly original a notion, only few of the likes of Allan Pettersson or Egon Wellesz were able to demonstrate this convincingly, if not without the relaxing of a certain musical integrity as it were. Listening to the current disc, I am won over by Kokkonen’s towering originality and impact, especially in the powerful performance of the Requiem.

A Tristanian love-death communion can be said to surround the Requiem, for it is a work written in the memory of Kokkonen’s wife after her death in 1979 yet it was the composer’s future wife who was to tear down an extensive writer’s block, making the creation possible. Kokkonen was asked to produce the most beautiful thing he could, and the devised architecture is one that grows in optimism and brightness in its gentle consolation. That three motivic cells predominate the work outside of the various tone rows reflect Kokkonen’s economical poeticism. And while six out of the nine movements conclude in hopeful E major chords, these reappearances give an impression of organic unity rather than monotony.

The current disc presents a world premiere recording of the Requiem based on its recent organ transcript by Juoko Linjama. Undoubtedly, substituting a full orchestra for an organ diminishes the potency, colour and expressive clarity the work is capable of exploring. Compared to the orchestral rendition (Vänskä/Lahti SO, BIS), the Kyrie eleison and Tractus lack menace and the Sanctus wants in rhythmic drive. Nonetheless, the black-and-white organ sonority portrays – not unlike the impressions a Dürer woodcut print give – a spirit of serene sobriety, which befits the nature of the work to great extent. The expansively taken last movement, Lux aeterna, is especially elevating in its vast quietude. Where Väyrynen’s operatic singing sometimes overpowers the hollow non-orchestral backdrop, e.g. Sanctus, her tonal command and warmth are something to admire. The superb singing of the Klementti Institute Chamber Choir, who sing with clarity and sensitivity, should also not go unremarked.

The four works for solo organ present in the rest of the disc – which in fact cover the entirely of organ music Kokkonen ever published – do not live up to the scale nor originality of the Requiem, yet are interesting in their compositional contexts. Two of these works circle around the theme of death, with Surusoitto (‘Funeral Music’) composed in the wake of the death of Kokkonen’s mother – its hypnotic central motif forms the basis of the Adagio of the Cello Concerto. The intricately beautiful Lux aeterna derives its musical seed from the aria Before my death I must speak to the people of Finland from the opera, The Last Temptations. Works of uplifting natures flank the disc; the wedding of the composer’s daughter is behind the brightly contoured Hääsoitto (‘Wedding Music’). Written for the inauguration of a new organ in the Ristinkirkko in Lahti, Iuxta crucem is a busy work; the BACH motif opens up a canvas of toccatas and chorale-like outbursts – a fitting work to conclude this ambitious, albeit under 60 minutes, disc.

Review by Young-Jin Hur, MusicWeb-International.com

Jan Lehtola, Klemetti Institute Chamber Choir; Heikki Liimola - Joonas Kokkonen: Requiem; Complete Works for Organ (2017)



Suvi Väyrynen, soprano Tracks 3, 4, 6, 8-11
Joose Vähäsöyrinki, baritone Tracks 3, 4, 6, 8-11
Klemetti Institute Chamber Choir Tracks 3-11
Jan Lehtola, organ of Paavalinkirkko, Helsinki
Heikki Liimola, conductor Tracks 3-11

rec. 2013 (organ works), 2017 (Requiem), Paavalinkirkko, Helsinki

Tracklist:

01. Hääsoitto ("Wedding Music" 1968) (3:13)

02. Surusoitto ("Funeral Music" 1969) (3:27)

Requiem 'in memoriam Maija Kokkonen' (1980–81)
03. I. Requiem aeternam (7:02)
04. II. Kyrie eleison (3:04)
05. III. Tractus (5:27)
06. IV. Domine Iesu Christe (3:28)
07. V. Hostias et preces (2:35)
08. VI. Sanctus et Benedictus (3:58)
09. VII. Agnus Dei (3:48)
10. VIII. In paradisum (2:40)
11. IX. Lux aeterna (4:23)

12. Lux aeterna (1974)(5:15)

13. Iuxta crucem (1979) (7:13)


Exact Audio Copy V1.3 from 2. September 2016

EAC extraction logfile from 7. November 2017, 22:48

Suvi Väyrynen, Joose Vähäsöyrinki, Klemetti Institute Chamber Choir, Jan Lehtola, Heikki Liimola / Kokkonen - Requiem; Complete Works for Organ

Used drive : PLDS DVD-RW DU8A6SH Adapter: 1 ID: 0

Read mode : Secure
Utilize accurate stream : Yes
Defeat audio cache : Yes
Make use of C2 pointers : No

Read offset correction : 6
Overread into Lead-In and Lead-Out : No
Fill up missing offset samples with silence : Yes
Delete leading and trailing silent blocks : No
Null samples used in CRC calculations : Yes
Used interface : Native Win32 interface for Win NT & 2000

Used output format : User Defined Encoder
Selected bitrate : 128 kBit/s
Quality : High
Add ID3 tag : No
Command line compressor : C:\Program Files (x86)\Exact Audio Copy\Flac\flac.exe
Additional command line options : -V -8 -T "Date=%year%" -T "Genre=%genre%" %source%


TOC of the extracted CD

Track | Start | Length | Start sector | End sector
––––––––––––––––––––––––––––-
1 | 0:00.00 | 3:13.21 | 0 | 14495
2 | 3:13.21 | 3:26.74 | 14496 | 30019
3 | 6:40.20 | 7:02.30 | 30020 | 61699
4 | 13:42.50 | 3:03.68 | 61700 | 75492
5 | 16:46.43 | 5:27.14 | 75493 | 100031
6 | 22:13.57 | 3:27.73 | 100032 | 115629
7 | 25:41.55 | 2:34.54 | 115630 | 127233
8 | 28:16.34 | 3:58.03 | 127234 | 145086
9 | 32:14.37 | 3:48.37 | 145087 | 162223
10 | 36:02.74 | 2:39.48 | 162224 | 174196
11 | 38:42.47 | 4:22.71 | 174197 | 193917
12 | 43:05.43 | 5:14.57 | 193918 | 217524
13 | 48:20.25 | 7:12.53 | 217525 | 249977


Range status and errors

Selected range

Filename C:\temp\Kokkonen - Requiem; Complete Works for Organ\Kokkonen - Requiem; Complete Works for Organ.wav

Peak level 89.1 %
Extraction speed 3.4 X
Range quality 100.0 %
Test CRC C4B1B547
Copy CRC C4B1B547
Copy OK

No errors occurred


AccurateRip summary

Track 1 not present in database
Track 2 not present in database
Track 3 not present in database
Track 4 not present in database
Track 5 not present in database
Track 6 not present in database
Track 7 not present in database
Track 8 not present in database
Track 9 not present in database
Track 10 not present in database
Track 11 not present in database
Track 12 not present in database
Track 13 not present in database

None of the tracks are present in the AccurateRip database

End of status report

==== Log checksum 4AAC43731886D0449050AEA1FF8E82FEC32EE0DF1C28CED890EE16B1F4E43091 ====

foobar2000 1.2 / Dynamic Range Meter 1.1.1
log date: 2017-11-15 02:34:26

––––––––––––––––––––––––––––––––––––––––
Analyzed: Jan Lehtola / Kokkonen - Requiem; Complete Works for Organ
––––––––––––––––––––––––––––––––––––––––

DR Peak RMS Duration Track
––––––––––––––––––––––––––––––––––––––––
DR10 -1.00 dB -16.90 dB 3:13 01-Wedding Music
DR10 -15.60 dB -30.30 dB 3:27 02-Funeral Music
DR10 -2.06 dB -18.39 dB 5:15 12-Lux aeterna
DR12 -2.53 dB -21.14 dB 7:13 13-Iuxta crucem
––––––––––––––––––––––––––––––––––––––––

Number of tracks: 4
Official DR value: DR11

Samplerate: 44100 Hz
Channels: 2
Bits per sample: 16
Bitrate: 485 kbps
Codec: FLAC
================================================================================

––––––––––––––––––––––––––––––––––––––––
Analyzed: Klemetti Institute Chamber Choir, Jan Lehtola, Heikki Liimola / Kokkonen - Requiem; Complete Works for Organ
––––––––––––––––––––––––––––––––––––––––

DR Peak RMS Duration Track
––––––––––––––––––––––––––––––––––––––––
DR13 -3.64 dB -22.76 dB 5:27 05-Requiem - III. Tractus
DR13 -2.07 dB -21.43 dB 2:35 07-Requiem - V. Hostias et preces
––––––––––––––––––––––––––––––––––––––––

Number of tracks: 2
Official DR value: DR13

Samplerate: 44100 Hz
Channels: 2
Bits per sample: 16
Bitrate: 485 kbps
Codec: FLAC
================================================================================

––––––––––––––––––––––––––––––––––––––––
Analyzed: Suvi Väyrynen, Joose Vähäsöyrinki, Klemetti Institute Chamber Choir, Jan Lehtola, Heikki Liimola / Kokkonen - Requiem; Complete Works for Organ
––––––––––––––––––––––––––––––––––––––––

DR Peak RMS Duration Track
––––––––––––––––––––––––––––––––––––––––
DR13 -3.33 dB -21.74 dB 7:02 03-Requiem - I. Requiem aeternam
DR13 -1.33 dB -20.66 dB 3:04 04-Requiem - II. Kyrie eleison
DR12 -5.00 dB -22.71 dB 3:28 06-Requiem - IV. Domine Iesu Christe
DR12 -1.66 dB -19.39 dB 3:58 08-Requiem - VI. Sanctus et Benedictus
DR12 -5.98 dB -23.75 dB 3:48 09-Requiem - VII. Agnus Dei
DR13 -1.89 dB -22.52 dB 2:40 10-Requiem - VIII. In paradisum
DR12 -4.79 dB -24.74 dB 4:23 11-Requiem - IX. Lux aeterna
––––––––––––––––––––––––––––––––––––––––

Number of tracks: 7
Official DR value: DR12

Samplerate: 44100 Hz
Channels: 2
Bits per sample: 16
Bitrate: 485 kbps
Codec: FLAC
================================================================================

Jan Lehtola, Klemetti Institute Chamber Choir; Heikki Liimola - Joonas Kokkonen: Requiem; Complete Works for Organ (2017)

All thanks to original releaser - A-Z

More interesting music in My Blog