Subcategories

Judas Priest - Single Cuts (2011) [20CD Box Set] Repost

Posted By: v3122
Judas Priest - Single Cuts (2011) [20CD Box Set] Repost

Judas Priest - Single Cuts (2011)
EAC | Flac(Image) + Cue + Log & MP3 CBR 320Kbps
Sony Music Entertainment, 88697 968832 | ~ 1701 or 739 Mb | Scans(png) -> 450 Mb
Heavy Metal / Hard Rock

There have indeed been countless Judas Priest compilations issued over the years. But if you're a Priest collector, then the 2011 release Single Cuts has to be one of the most intriguing archival releases the group has ever issued. That said, this observation only pertains to the pricier 52-song/20-disc (!) box set version, not the lighter-on-the-wallet single-disc version, which serves as another Priest "best-of." The former version is comprised of the group's complete U.K. CBS/Columbia singles (from 1977-1992), and each CD single is an exact replica – cover and all – of the original vinyl single. And while there were plenty of throwaway B-sides (in other words, merely another studio track plucked from the single's respective album), there were also quite a few non-album/live versions of classics included as B-sides, which get their chance to shine once more. Tops of the list have to be "Starbreaker," "White Heat Red Hot," and "Beyond the Realms of Death," all of which were recorded in concert during the late '70s. Elsewhere, you'll also find great live readings of "Breaking the Law," "Freewheel Burning," and "You've Got Another Thing Comin'." And as far as the single-disc version of Single Cuts goes, it's certainly one of the more interesting Priest compilations from a track listing perspective, as such oft-overlooked tunes as "Before the Dawn," "Evening Star," "Don't Go," "(Take These) Chains," and "Some Heads Are Gonna Roll" are featured alongside the expected classics. Whether you're a longtime collector looking for a one-of-a-kind release, or a newcomer searching for a smartly assembled collection of Priest classics, both versions of Single Cuts are winners.

by Greg Prato, allmusic
Judas Priest - Single Cuts (2011) [20CD Box Set] Repost

Judas Priest - Single Cuts (2011):

Tracklist CD1: 1977 - Diamonds And Rust

01. Diamonds And Rust [3:26]
02. Dissident Aggressor [3:10]

Exact Audio Copy V1.0 beta 3 from 29. August 2011

EAC extraction logfile from 31. October 2011, 16:33

Judas Priest / Single Cuts CD01

Used drive : HL-DT-STDVDRAM GSA-H60N Adapter: 2 ID: 0

Read mode : Secure
Utilize accurate stream : Yes
Defeat audio cache : Yes
Make use of C2 pointers : No

Read offset correction : 667
Overread into Lead-In and Lead-Out : No
Fill up missing offset samples with silence : Yes
Delete leading and trailing silent blocks : No
Null samples used in CRC calculations : Yes
Used interface : Native Win32 interface for Win NT & 2000

Used output format : Internal WAV Routines
Sample format : 44.100 Hz; 16 Bit; Stereo


TOC of the extracted CD

Track | Start | Length | Start sector | End sector
––––––––––––––––––––––––––––-
1 | 0:00.00 | 3:25.42 | 0 | 15416
2 | 3:25.42 | 3:09.50 | 15417 | 29641


Range status and errors

Selected range

Filename C:\Documents and Settings\Admin\Рабочий стол\ALLexxess\2011 Judas Priest Single Cuts (20CD Singles Box Set Sony Music UK)\CD01\Judas Priest - Single Cuts CD01.wav

Peak level 97.0 %
Extraction speed 3.0 X
Range quality 99.9 %
Test CRC EFBE1D3F
Copy CRC EFBE1D3F
Copy OK

No errors occurred


AccurateRip summary

Track 1 not present in database
Track 2 not present in database

None of the tracks are present in the AccurateRip database

End of status report

==== Log checksum 8AA92679A6A28236AAA4EF34CB3EF867CF66A9E3C5B4B924EB76C1444FDA73D7 ====


Tracklist CD2: 1978 - Better By You, Better Than Me

01. Better By You, Better Than Me [3:25]
02. Invader [4:10]

Exact Audio Copy V1.0 beta 3 from 29. August 2011

EAC extraction logfile from 31. October 2011, 16:50

Judas Priest / Single Cuts CD02

Used drive : HL-DT-STDVDRAM GSA-H60N Adapter: 2 ID: 0

Read mode : Secure
Utilize accurate stream : Yes
Defeat audio cache : Yes
Make use of C2 pointers : No

Read offset correction : 667
Overread into Lead-In and Lead-Out : No
Fill up missing offset samples with silence : Yes
Delete leading and trailing silent blocks : No
Null samples used in CRC calculations : Yes
Used interface : Native Win32 interface for Win NT & 2000

Used output format : Internal WAV Routines
Sample format : 44.100 Hz; 16 Bit; Stereo


TOC of the extracted CD

Track | Start | Length | Start sector | End sector
––––––––––––––––––––––––––––-
1 | 0:00.00 | 3:25.06 | 0 | 15380
2 | 3:25.06 | 4:09.67 | 15381 | 34122


Range status and errors

Selected range

Filename C:\Documents and Settings\Admin\Рабочий стол\ALLexxess\2011 Judas Priest Single Cuts (20CD Singles Box Set Sony Music UK)\CD02\Judas Priest - Single Cuts CD02.wav

Peak level 97.0 %
Extraction speed 3.6 X
Range quality 100.0 %
Test CRC 5FCA7E6D
Copy CRC 5FCA7E6D
Copy OK

No errors occurred


AccurateRip summary

Track 1 not present in database
Track 2 not present in database

None of the tracks are present in the AccurateRip database

End of status report

==== Log checksum D438DFCD221BBDAABFD462376E73CBB9DBDA23B356770E6519A5DB5D1A9D64DC ====


Tracklist CD3: 1978 - Evening Star

01. Evening Star [2:54]
02. Starbreaker (Live) [7:21]

Exact Audio Copy V1.0 beta 3 from 29. August 2011

EAC extraction logfile from 31. October 2011, 17:06

Judas Priest / Single Cuts CD03

Used drive : HL-DT-STDVDRAM GSA-H60N Adapter: 2 ID: 0

Read mode : Secure
Utilize accurate stream : Yes
Defeat audio cache : Yes
Make use of C2 pointers : No

Read offset correction : 667
Overread into Lead-In and Lead-Out : No
Fill up missing offset samples with silence : Yes
Delete leading and trailing silent blocks : No
Null samples used in CRC calculations : Yes
Used interface : Native Win32 interface for Win NT & 2000

Used output format : Internal WAV Routines
Sample format : 44.100 Hz; 16 Bit; Stereo


TOC of the extracted CD

Track | Start | Length | Start sector | End sector
––––––––––––––––––––––––––––-
1 | 0:00.00 | 2:53.70 | 0 | 13044
2 | 2:53.70 | 7:20.42 | 13045 | 46086


Range status and errors

Selected range

Filename C:\Documents and Settings\Admin\Рабочий стол\ALLexxess\2011 Judas Priest Single Cuts (20CD Singles Box Set Sony Music UK)\CD03\Judas Priest - Single Cuts CD03.wav

Peak level 97.0 %
Extraction speed 4.3 X
Range quality 100.0 %
Test CRC ACACA4EA
Copy CRC ACACA4EA
Copy OK

No errors occurred


AccurateRip summary

Track 1 not present in database
Track 2 not present in database

None of the tracks are present in the AccurateRip database

End of status report

==== Log checksum 5B2E32BFF28F661799A04D53830592F3E4E9BC350CA5779377137E49B94A58E9 ====


Tracklist CD4: 1978 - Before The Dawn

01. Before The Dawn [3:25]
02. Rock Forever [3:21]

Exact Audio Copy V1.0 beta 3 from 29. August 2011

EAC extraction logfile from 31. October 2011, 17:19

Judas Priest / Single Cuts CD04

Used drive : HL-DT-STDVDRAM GSA-H60N Adapter: 2 ID: 0

Read mode : Secure
Utilize accurate stream : Yes
Defeat audio cache : Yes
Make use of C2 pointers : No

Read offset correction : 667
Overread into Lead-In and Lead-Out : No
Fill up missing offset samples with silence : Yes
Delete leading and trailing silent blocks : No
Null samples used in CRC calculations : Yes
Used interface : Native Win32 interface for Win NT & 2000

Used output format : Internal WAV Routines
Sample format : 44.100 Hz; 16 Bit; Stereo


TOC of the extracted CD

Track | Start | Length | Start sector | End sector
––––––––––––––––––––––––––––-
1 | 0:00.00 | 3:25.05 | 0 | 15379
2 | 3:25.05 | 3:21.10 | 15380 | 30464


Range status and errors

Selected range

Filename C:\Documents and Settings\Admin\Рабочий стол\ALLexxess\2011 Judas Priest Single Cuts (20CD Singles Box Set Sony Music UK)\CD04\Judas Priest - Single Cuts CD04.wav

Peak level 94.5 %
Extraction speed 4.0 X
Range quality 100.0 %
Test CRC D7BB8D68
Copy CRC D7BB8D68
Copy OK

No errors occurred


AccurateRip summary

Track 1 not present in database
Track 2 not present in database

None of the tracks are present in the AccurateRip database

End of status report

==== Log checksum 926BEBE6DA47388BC40CEA571809592E3043E31215BA0A71147ABD63AFE2FE65 ====


Tracklist CD5: 1978 - Take On The World

01. Take On The World [3:04]
02. White Heat, Red Hot (Live) [4:34]
03. Starbreaker (Live) [7:20]

Exact Audio Copy V1.0 beta 3 from 29. August 2011

EAC extraction logfile from 31. October 2011, 17:35

Judas Priest / Single Cuts CD05

Used drive : HL-DT-STDVDRAM GSA-H60N Adapter: 2 ID: 0

Read mode : Secure
Utilize accurate stream : Yes
Defeat audio cache : Yes
Make use of C2 pointers : No

Read offset correction : 667
Overread into Lead-In and Lead-Out : No
Fill up missing offset samples with silence : Yes
Delete leading and trailing silent blocks : No
Null samples used in CRC calculations : Yes
Used interface : Native Win32 interface for Win NT & 2000

Used output format : Internal WAV Routines
Sample format : 44.100 Hz; 16 Bit; Stereo


TOC of the extracted CD

Track | Start | Length | Start sector | End sector
––––––––––––––––––––––––––––-
1 | 0:00.00 | 3:03.51 | 0 | 13775
2 | 3:03.51 | 4:33.53 | 13776 | 34303
3 | 7:37.29 | 7:19.62 | 34304 | 67290


Range status and errors

Selected range

Filename C:\Documents and Settings\Admin\Рабочий стол\ALLexxess\2011 Judas Priest Single Cuts (20CD Singles Box Set Sony Music UK)\CD05\Judas Priest - Single Cuts CD05.wav

Peak level 97.0 %
Extraction speed 4.6 X
Range quality 100.0 %
Test CRC 80529FF9
Copy CRC 80529FF9
Copy OK

No errors occurred


AccurateRip summary

Track 1 not present in database
Track 2 not present in database
Track 3 not present in database

None of the tracks are present in the AccurateRip database

End of status report

==== Log checksum 7B4982FDBA370730A70171946EDA743B0D4363702515970A672853D40D0C96E6 ====


Tracklist CD6: 1979 - Evening Star

01. Evening Star [2:54]
02. Beyond The Realms Of Death (Live) [7:05]
03. The Green Manalishi (With The Two-Pronged Crown) [3:24]

Exact Audio Copy V1.0 beta 3 from 29. August 2011

EAC extraction logfile from 31. October 2011, 19:38

Judas Priest / Single Cuts CD06

Used drive : HL-DT-STDVDRAM GSA-H60N Adapter: 2 ID: 0

Read mode : Secure
Utilize accurate stream : Yes
Defeat audio cache : Yes
Make use of C2 pointers : No

Read offset correction : 667
Overread into Lead-In and Lead-Out : No
Fill up missing offset samples with silence : Yes
Delete leading and trailing silent blocks : No
Null samples used in CRC calculations : Yes
Used interface : Native Win32 interface for Win NT & 2000

Used output format : Internal WAV Routines
Sample format : 44.100 Hz; 16 Bit; Stereo


TOC of the extracted CD

Track | Start | Length | Start sector | End sector
––––––––––––––––––––––––––––-
1 | 0:00.00 | 2:53.70 | 0 | 13044
2 | 2:53.70 | 7:04.54 | 13045 | 44898
3 | 9:58.49 | 3:24.34 | 44899 | 60232


Range status and errors

Selected range

Filename C:\Documents and Settings\Admin\Рабочий стол\ALLexxess\2011 Judas Priest Single Cuts (20CD Singles Box Set Sony Music UK)\CD06\Judas Priest - Single Cuts CD06.wav

Peak level 97.0 %
Extraction speed 4.2 X
Range quality 99.9 %
Test CRC 4F0C2C3E
Copy CRC 4F0C2C3E
Copy OK

No errors occurred


AccurateRip summary

Track 1 not present in database
Track 2 not present in database
Track 3 not present in database

None of the tracks are present in the AccurateRip database

End of status report

==== Log checksum 7661C65BF86F663FEE03743A07CA106D24E79B39876E3FFC46E8C91FE781C7AF ====


Tracklist CD7: 1980 - Living After Midnight

01. Living After Midnight [3:14]
02. Delivering The Goods (Live) [4:09]
03. Evil Fantasies (Live In Tokyo) [4:28]

Exact Audio Copy V1.0 beta 3 from 29. August 2011

EAC extraction logfile from 31. October 2011, 19:56

Judas Priest / Single Cuts CD07

Used drive : HL-DT-STDVDRAM GSA-H60N Adapter: 2 ID: 0

Read mode : Secure
Utilize accurate stream : Yes
Defeat audio cache : Yes
Make use of C2 pointers : No

Read offset correction : 667
Overread into Lead-In and Lead-Out : No
Fill up missing offset samples with silence : Yes
Delete leading and trailing silent blocks : No
Null samples used in CRC calculations : Yes
Used interface : Native Win32 interface for Win NT & 2000

Used output format : Internal WAV Routines
Sample format : 44.100 Hz; 16 Bit; Stereo


TOC of the extracted CD

Track | Start | Length | Start sector | End sector
––––––––––––––––––––––––––––-
1 | 0:00.00 | 3:13.68 | 0 | 14542
2 | 3:13.68 | 4:09.04 | 14543 | 33221
3 | 7:22.72 | 4:27.66 | 33222 | 53312


Range status and errors

Selected range

Filename C:\Documents and Settings\Admin\Рабочий стол\ALLexxess\2011 Judas Priest Single Cuts (20CD Singles Box Set Sony Music UK)\CD07\Judas Priest - Single Cuts CD07.wav

Peak level 97.0 %
Extraction speed 4.1 X
Range quality 99.9 %
Test CRC 2D7BA249
Copy CRC 2D7BA249
Copy OK

No errors occurred


AccurateRip summary

Track 1 not present in database
Track 2 not present in database
Track 3 not present in database

None of the tracks are present in the AccurateRip database

End of status report

==== Log checksum B20D4C7FCCC41E9875404958112632D7817B746B7299B0C153E598C5213CC1F4 ====


Tracklist CD8: 1980 - Breaking The Law

01. Breaking The Law [2:37]
02. Metal Gods [4:01]

Exact Audio Copy V1.0 beta 3 from 29. August 2011

EAC extraction logfile from 31. October 2011, 20:19

Judas Priest / Single Cuts CD08

Used drive : HL-DT-STDVDRAM GSA-H60N Adapter: 2 ID: 0

Read mode : Secure
Utilize accurate stream : Yes
Defeat audio cache : Yes
Make use of C2 pointers : No

Read offset correction : 667
Overread into Lead-In and Lead-Out : No
Fill up missing offset samples with silence : Yes
Delete leading and trailing silent blocks : No
Null samples used in CRC calculations : Yes
Used interface : Native Win32 interface for Win NT & 2000

Used output format : Internal WAV Routines
Sample format : 44.100 Hz; 16 Bit; Stereo


TOC of the extracted CD

Track | Start | Length | Start sector | End sector
––––––––––––––––––––––––––––-
1 | 0:00.00 | 2:36.68 | 0 | 11767
2 | 2:36.68 | 4:00.64 | 11768 | 29831


Range status and errors

Selected range

Filename C:\Documents and Settings\Admin\Рабочий стол\ALLexxess\2011 Judas Priest Single Cuts (20CD Singles Box Set Sony Music UK)\CD08\Judas Priest - Single Cuts CD08.wav

Peak level 94.8 %
Extraction speed 3.5 X
Range quality 99.9 %
Test CRC FBDC2B73
Copy CRC FBDC2B73
Copy OK

No errors occurred


AccurateRip summary

Track 1 not present in database
Track 2 not present in database

None of the tracks are present in the AccurateRip database

End of status report

==== Log checksum 57E51C42EA527BB2D73F8D3E78F5F93CBF40A8D1662D7CFF992FD5CDAF12F80E ====


Tracklist CD9: 1980 - United

01. United [3:35]
02. Grinder [4:00]

Exact Audio Copy V1.0 beta 3 from 29. August 2011

EAC extraction logfile from 31. October 2011, 20:40

Judas Priest / Single Cuts CD09

Used drive : HL-DT-STDVDRAM GSA-H60N Adapter: 2 ID: 0

Read mode : Secure
Utilize accurate stream : Yes
Defeat audio cache : Yes
Make use of C2 pointers : No

Read offset correction : 667
Overread into Lead-In and Lead-Out : No
Fill up missing offset samples with silence : Yes
Delete leading and trailing silent blocks : No
Null samples used in CRC calculations : Yes
Used interface : Native Win32 interface for Win NT & 2000

Used output format : Internal WAV Routines
Sample format : 44.100 Hz; 16 Bit; Stereo


TOC of the extracted CD

Track | Start | Length | Start sector | End sector
––––––––––––––––––––––––––––-
1 | 0:00.00 | 3:35.30 | 0 | 16154
2 | 3:35.30 | 3:59.51 | 16155 | 34130


Range status and errors

Selected range

Filename C:\Documents and Settings\Admin\Рабочий стол\ALLexxess\2011 Judas Priest Single Cuts (20CD Singles Box Set Sony Music UK)\CD09\Judas Priest - Single Cuts CD09.wav

Peak level 97.0 %
Extraction speed 4.0 X
Range quality 100.0 %
Test CRC F16A2A33
Copy CRC F16A2A33
Copy OK

No errors occurred


AccurateRip summary

Track 1 not present in database
Track 2 not present in database

None of the tracks are present in the AccurateRip database

End of status report

==== Log checksum 6DD299BD8F6D569808D877877039CDF68F4C3E5AE90401981A67B7BBCA9D4144 ====


Tracklist CD10: 1981 - Don't Go

01. Don't Go [3:18]
02. Solar Angels [4:03]

Exact Audio Copy V1.0 beta 3 from 29. August 2011

EAC extraction logfile from 31. October 2011, 20:57

Judas Priest / Single Cuts CD10

Used drive : HL-DT-STDVDRAM GSA-H60N Adapter: 2 ID: 0

Read mode : Secure
Utilize accurate stream : Yes
Defeat audio cache : Yes
Make use of C2 pointers : No

Read offset correction : 667
Overread into Lead-In and Lead-Out : No
Fill up missing offset samples with silence : Yes
Delete leading and trailing silent blocks : No
Null samples used in CRC calculations : Yes
Used interface : Native Win32 interface for Win NT & 2000

Used output format : Internal WAV Routines
Sample format : 44.100 Hz; 16 Bit; Stereo


TOC of the extracted CD

Track | Start | Length | Start sector | End sector
––––––––––––––––––––––––––––-
1 | 0:00.00 | 3:18.29 | 0 | 14878
2 | 3:18.29 | 4:03.14 | 14879 | 33117


Range status and errors

Selected range

Filename C:\Documents and Settings\Admin\Рабочий стол\ALLexxess\2011 Judas Priest Single Cuts (20CD Singles Box Set Sony Music UK)\CD10\Judas Priest - Single Cuts CD10.wav

Peak level 96.7 %
Extraction speed 3.6 X
Range quality 99.9 %
Test CRC BFA73E2A
Copy CRC BFA73E2A
Copy OK

No errors occurred


AccurateRip summary

Track 1 not present in database
Track 2 not present in database

None of the tracks are present in the AccurateRip database

End of status report

==== Log checksum 38AC2B2E8FD7053E70C16C76048427045623F318C2AFDDD646D03ADE87BB5648 ====


Tracklist CD11: 1981 - Hot Rockin'

01. Hot Rockin' [3:18]
02. Breaking The Law (Live) [2:35]
03. Living After Midnight (Live) [4:20]

Exact Audio Copy V1.0 beta 3 from 29. August 2011

EAC extraction logfile from 31. October 2011, 21:26

Judas Priest / Single Cuts CD11

Used drive : HL-DT-STDVDRAM GSA-H60N Adapter: 2 ID: 0

Read mode : Secure
Utilize accurate stream : Yes
Defeat audio cache : Yes
Make use of C2 pointers : No

Read offset correction : 667
Overread into Lead-In and Lead-Out : No
Fill up missing offset samples with silence : Yes
Delete leading and trailing silent blocks : No
Null samples used in CRC calculations : Yes
Used interface : Native Win32 interface for Win NT & 2000

Used output format : Internal WAV Routines
Sample format : 44.100 Hz; 16 Bit; Stereo


TOC of the extracted CD

Track | Start | Length | Start sector | End sector
––––––––––––––––––––––––––––-
1 | 0:00.00 | 3:18.00 | 0 | 14849
2 | 3:18.00 | 2:34.53 | 14850 | 26452
3 | 5:52.53 | 4:19.66 | 26453 | 45943


Range status and errors

Selected range

Filename C:\Documents and Settings\Admin\Рабочий стол\ALLexxess\2011 Judas Priest Single Cuts (20CD Singles Box Set Sony Music UK)\CD11\Judas Priest - Single Cuts CD11.wav

Peak level 97.0 %
Extraction speed 4.2 X
Range quality 100.0 %
Test CRC 9470B372
Copy CRC 9470B372
Copy OK

No errors occurred


AccurateRip summary

Track 1 not present in database
Track 2 not present in database
Track 3 not present in database

None of the tracks are present in the AccurateRip database

End of status report

==== Log checksum 390321666552151D30743B8513168DE8134E6F35D374D8F0C19B8F1C48336F36 ====


Tracklist CD12: 1982 - You've Got Another Thing Comin'

01. You've Got Another Thing Comin' [4:26]
02. Exciter (Recorded Live) [5:40]

Exact Audio Copy V1.0 beta 3 from 29. August 2011

EAC extraction logfile from 1. November 2011, 15:05

Judas Priest / Single Cuts CD12

Used drive : HL-DT-STDVDRAM GSA-H60N Adapter: 2 ID: 0

Read mode : Secure
Utilize accurate stream : Yes
Defeat audio cache : Yes
Make use of C2 pointers : No

Read offset correction : 667
Overread into Lead-In and Lead-Out : No
Fill up missing offset samples with silence : Yes
Delete leading and trailing silent blocks : No
Null samples used in CRC calculations : Yes
Used interface : Native Win32 interface for Win NT & 2000

Used output format : Internal WAV Routines
Sample format : 44.100 Hz; 16 Bit; Stereo


TOC of the extracted CD

Track | Start | Length | Start sector | End sector
––––––––––––––––––––––––––––-
1 | 0:00.00 | 4:26.10 | 0 | 19959
2 | 4:26.10 | 5:39.43 | 19960 | 45427


Range status and errors

Selected range

Filename C:\Documents and Settings\Admin\Рабочий стол\ALLexxess\2011 Judas Priest Single Cuts (20CD Singles Box Set Sony Music UK)\CD12\Judas Priest - Single Cuts CD12.wav

Peak level 97.0 %
Extraction speed 4.3 X
Range quality 100.0 %
Test CRC A3033F68
Copy CRC A3033F68
Copy OK

No errors occurred


AccurateRip summary

Track 1 not present in database
Track 2 not present in database

None of the tracks are present in the AccurateRip database

End of status report

==== Log checksum 680CC0CB77A3EA4CB4E009EA6D09C94E419B5DD21AE5BDC9AC8A296E6F4952CD ====


Tracklist CD13: 1982 - (Take These) Chains

01. (Take These) Chains [3:07]
02. The Judas Priest Audio File (A Musical Biography) [8:14]

Exact Audio Copy V1.0 beta 3 from 29. August 2011

EAC extraction logfile from 1. November 2011, 15:26

Judas Priest / Single Cuts CD13

Used drive : HL-DT-STDVDRAM GSA-H60N Adapter: 2 ID: 0

Read mode : Secure
Utilize accurate stream : Yes
Defeat audio cache : Yes
Make use of C2 pointers : No

Read offset correction : 667
Overread into Lead-In and Lead-Out : No
Fill up missing offset samples with silence : Yes
Delete leading and trailing silent blocks : No
Null samples used in CRC calculations : Yes
Used interface : Native Win32 interface for Win NT & 2000

Used output format : Internal WAV Routines
Sample format : 44.100 Hz; 16 Bit; Stereo


TOC of the extracted CD

Track | Start | Length | Start sector | End sector
––––––––––––––––––––––––––––-
1 | 0:00.00 | 3:07.03 | 0 | 14027
2 | 3:07.03 | 8:14.37 | 14028 | 51114


Range status and errors

Selected range

Filename C:\Documents and Settings\Admin\Рабочий стол\ALLexxess\2011 Judas Priest Single Cuts (20CD Singles Box Set Sony Music UK)\CD13\Judas Priest - Single Cuts CD13.wav

Peak level 97.0 %
Extraction speed 4.0 X
Range quality 99.9 %
Test CRC 9DC1A960
Copy CRC 9DC1A960
Copy OK

No errors occurred


AccurateRip summary

Track 1 not present in database
Track 2 not present in database

None of the tracks are present in the AccurateRip database

End of status report

==== Log checksum 26BD79F07473C9574A8F612BBCE667B43CD08E39C78C9939FBFBFDE934959C97 ====


Tracklist CD14: 1983 - Freewheel Burning

01. Freewheel Burning [4:26]
02. Breaking The Law (Live) [2:45]
03. You've Got Another Thing Comin' [5:08]

Exact Audio Copy V1.0 beta 3 from 29. August 2011

EAC extraction logfile from 1. November 2011, 15:43

Judas Priest / Single Cuts CD14

Used drive : HL-DT-STDVDRAM GSA-H60N Adapter: 2 ID: 0

Read mode : Secure
Utilize accurate stream : Yes
Defeat audio cache : Yes
Make use of C2 pointers : No

Read offset correction : 667
Overread into Lead-In and Lead-Out : No
Fill up missing offset samples with silence : Yes
Delete leading and trailing silent blocks : No
Null samples used in CRC calculations : Yes
Used interface : Native Win32 interface for Win NT & 2000

Used output format : Internal WAV Routines
Sample format : 44.100 Hz; 16 Bit; Stereo


TOC of the extracted CD

Track | Start | Length | Start sector | End sector
––––––––––––––––––––––––––––-
1 | 0:00.00 | 4:25.71 | 0 | 19945
2 | 4:25.71 | 2:45.12 | 19946 | 32332
3 | 7:11.08 | 5:07.59 | 32333 | 55416


Range status and errors

Selected range

Filename C:\Documents and Settings\Admin\Рабочий стол\ALLexxess\2011 Judas Priest Single Cuts (20CD Singles Box Set Sony Music UK)\CD14\Judas Priest - Single Cuts CD14.wav

Peak level 97.0 %
Extraction speed 4.4 X
Range quality 100.0 %
Test CRC 523C9E25
Copy CRC 523C9E25
Copy OK

No errors occurred


AccurateRip summary

Track 1 not present in database
Track 2 not present in database
Track 3 not present in database

None of the tracks are present in the AccurateRip database

End of status report

==== Log checksum 24BEFAEDDB5707931EE61A7CBF9753D08779DD7B4990DCC95D1A834173DBDDE8 ====


Tracklist CD15: 1984 - Some Heads Are Gonna Roll

01. Some Heads Are Gonna Roll [4:09]
02. Jawbreaker [3:28]
03. The Green Manalishi (With The Two Pronged Crown) (Live) [4:48]

Exact Audio Copy V1.0 beta 3 from 29. August 2011

EAC extraction logfile from 1. November 2011, 16:00

Judas Priest / Single Cuts CD15

Used drive : HL-DT-STDVDRAM GSA-H60N Adapter: 2 ID: 0

Read mode : Secure
Utilize accurate stream : Yes
Defeat audio cache : Yes
Make use of C2 pointers : No

Read offset correction : 667
Overread into Lead-In and Lead-Out : No
Fill up missing offset samples with silence : Yes
Delete leading and trailing silent blocks : No
Null samples used in CRC calculations : Yes
Used interface : Native Win32 interface for Win NT & 2000

Used output format : Internal WAV Routines
Sample format : 44.100 Hz; 16 Bit; Stereo


TOC of the extracted CD

Track | Start | Length | Start sector | End sector
––––––––––––––––––––––––––––-
1 | 0:00.00 | 4:09.17 | 0 | 18691
2 | 4:09.17 | 3:28.25 | 18692 | 34316
3 | 7:37.42 | 4:47.55 | 34317 | 55896


Range status and errors

Selected range

Filename C:\Documents and Settings\Admin\Рабочий стол\ALLexxess\2011 Judas Priest Single Cuts (20CD Singles Box Set Sony Music UK)\CD15\Judas Priest - Single Cuts CD15.wav

Peak level 97.0 %
Extraction speed 4.4 X
Range quality 100.0 %
Test CRC 78B5DE54
Copy CRC 78B5DE54
Copy OK

No errors occurred


AccurateRip summary

Track 1 not present in database
Track 2 not present in database
Track 3 not present in database

None of the tracks are present in the AccurateRip database

End of status report

==== Log checksum 05AD9265790D7CD49A0009BE0D2A4A27E5E563A8B40180395CCC1A67F048E887 ====


Tracklist CD16: 1986 - Turbo Lover

01. Turbo Lover [4:42]
02. Hot For Love [4:13]

Exact Audio Copy V1.0 beta 3 from 29. August 2011

EAC extraction logfile from 1. November 2011, 19:23

Judas Priest / Single Cuts CD16

Used drive : HL-DT-STDVDRAM GSA-H60N Adapter: 2 ID: 0

Read mode : Secure
Utilize accurate stream : Yes
Defeat audio cache : Yes
Make use of C2 pointers : No

Read offset correction : 667
Overread into Lead-In and Lead-Out : No
Fill up missing offset samples with silence : Yes
Delete leading and trailing silent blocks : No
Null samples used in CRC calculations : Yes
Used interface : Native Win32 interface for Win NT & 2000

Used output format : Internal WAV Routines
Sample format : 44.100 Hz; 16 Bit; Stereo


TOC of the extracted CD

Track | Start | Length | Start sector | End sector
––––––––––––––––––––––––––––-
1 | 0:00.00 | 4:41.43 | 0 | 21117
2 | 4:41.43 | 4:13.08 | 21118 | 40100


Range status and errors

Selected range

Filename C:\Documents and Settings\Admin\Рабочий стол\ALLexxess\2011 Judas Priest Single Cuts (20CD Singles Box Set Sony Music UK)\CD16\Judas Priest - Single Cuts CD16.wav

Peak level 97.0 %
Extraction speed 4.2 X
Range quality 100.0 %
Test CRC A6C6BF58
Copy CRC A6C6BF58
Copy OK

No errors occurred


AccurateRip summary

Track 1 not present in database
Track 2 not present in database

None of the tracks are present in the AccurateRip database

End of status report

==== Log checksum C3D03527E141B52C98512902213893D8C3775559074F13CC74441FB13E16EF2D ====


Tracklist CD17: 1986 - Locked In

01. Locked In [4:02]
02. Reckless [4:18]
03. Desert Plains (Live) [5:06]
04. Freewheel Burning (Live) [5:03]

Exact Audio Copy V1.0 beta 3 from 29. August 2011

EAC extraction logfile from 1. November 2011, 19:47

Judas Priest / Single Cuts CD17

Used drive : HL-DT-STDVDRAM GSA-H60N Adapter: 2 ID: 0

Read mode : Secure
Utilize accurate stream : Yes
Defeat audio cache : Yes
Make use of C2 pointers : No

Read offset correction : 667
Overread into Lead-In and Lead-Out : No
Fill up missing offset samples with silence : Yes
Delete leading and trailing silent blocks : No
Null samples used in CRC calculations : Yes
Used interface : Native Win32 interface for Win NT & 2000

Used output format : Internal WAV Routines
Sample format : 44.100 Hz; 16 Bit; Stereo


TOC of the extracted CD

Track | Start | Length | Start sector | End sector
––––––––––––––––––––––––––––-
1 | 0:00.00 | 4:01.42 | 0 | 18116
2 | 4:01.42 | 4:18.20 | 18117 | 37486
3 | 8:19.62 | 5:06.03 | 37487 | 60439
4 | 13:25.65 | 5:03.12 | 60440 | 83176


Range status and errors

Selected range

Filename C:\Documents and Settings\Admin\Рабочий стол\ALLexxess\2011 Judas Priest Single Cuts (20CD Singles Box Set Sony Music UK)\CD17\Judas Priest - Single Cuts CD17.wav

Peak level 97.0 %
Extraction speed 4.8 X
Range quality 100.0 %
Test CRC F3289735
Copy CRC F3289735
Copy OK

No errors occurred


AccurateRip summary

Track 1 not present in database
Track 2 not present in database
Track 3 not present in database
Track 4 not present in database

None of the tracks are present in the AccurateRip database

End of status report

==== Log checksum E95B1DE794B4D2BB5680C67DA9ADF0F7D0F27CA84D23B3FD37EAB49B332E5A9A ====


Tracklist CD18: 1990 - Painkiller

01. Painkiller [6:07]
02. United [3:33]
03. Better By You, Better Than Me [3:24]

Exact Audio Copy V1.0 beta 3 from 29. August 2011

EAC extraction logfile from 1. November 2011, 20:06

Judas Priest / Single Cuts CD18

Used drive : HL-DT-STDVDRAM GSA-H60N Adapter: 2 ID: 0

Read mode : Secure
Utilize accurate stream : Yes
Defeat audio cache : Yes
Make use of C2 pointers : No

Read offset correction : 667
Overread into Lead-In and Lead-Out : No
Fill up missing offset samples with silence : Yes
Delete leading and trailing silent blocks : No
Null samples used in CRC calculations : Yes
Used interface : Native Win32 interface for Win NT & 2000

Used output format : Internal WAV Routines
Sample format : 44.100 Hz; 16 Bit; Stereo


TOC of the extracted CD

Track | Start | Length | Start sector | End sector
––––––––––––––––––––––––––––-
1 | 0:00.00 | 6:07.05 | 0 | 27529
2 | 6:07.05 | 3:33.15 | 27530 | 43519
3 | 9:40.20 | 3:24.01 | 43520 | 58820


Range status and errors

Selected range

Filename C:\Documents and Settings\Admin\Рабочий стол\ALLexxess\2011 Judas Priest Single Cuts (20CD Singles Box Set Sony Music UK)\CD18\Judas Priest - Single Cuts CD18.wav

Peak level 97.0 %
Extraction speed 4.4 X
Range quality 100.0 %
Test CRC 44857F94
Copy CRC 44857F94
Copy OK

No errors occurred


AccurateRip summary

Track 1 not present in database
Track 2 not present in database
Track 3 not present in database

None of the tracks are present in the AccurateRip database

End of status report

==== Log checksum 2EF843FA39841E4B905B3EAB130AE157B4007EF14C1A0548A6F09AED175BD984 ====


Tracklist CD19: 1991 - A Touch Of Evil

01. A Touch Of Evil [4:15]
02. Between The Hammer And The Anvil [4:48]
03. You've Got Another Thing Comin' (Live) [7:55]

Exact Audio Copy V1.0 beta 3 from 29. August 2011

EAC extraction logfile from 1. November 2011, 20:30

Judas Priest / Single Cuts CD19

Used drive : HL-DT-STDVDRAM GSA-H60N Adapter: 2 ID: 0

Read mode : Secure
Utilize accurate stream : Yes
Defeat audio cache : Yes
Make use of C2 pointers : No

Read offset correction : 667
Overread into Lead-In and Lead-Out : No
Fill up missing offset samples with silence : Yes
Delete leading and trailing silent blocks : No
Null samples used in CRC calculations : Yes
Used interface : Native Win32 interface for Win NT & 2000

Used output format : Internal WAV Routines
Sample format : 44.100 Hz; 16 Bit; Stereo


TOC of the extracted CD

Track | Start | Length | Start sector | End sector
––––––––––––––––––––––––––––-
1 | 0:00.00 | 4:15.27 | 0 | 19151
2 | 4:15.27 | 4:48.25 | 19152 | 40776
3 | 9:03.52 | 7:55.25 | 40777 | 76426


Range status and errors

Selected range

Filename C:\Documents and Settings\Admin\Рабочий стол\ALLexxess\2011 Judas Priest Single Cuts (20CD Singles Box Set Sony Music UK)\CD19\Judas Priest - Single Cuts CD19.wav

Peak level 97.0 %
Extraction speed 4.7 X
Range quality 100.0 %
Test CRC F91FD89F
Copy CRC F91FD89F
Copy OK

No errors occurred


AccurateRip summary

Track 1 not present in database
Track 2 not present in database
Track 3 not present in database

None of the tracks are present in the AccurateRip database

End of status report

==== Log checksum AA56CAD0035681C951D2DE41D8413029BCD9E82A8BAC3C34712785E387CDB4B1 ====


Tracklist CD20: 1993 - Night Crawler

01. Night Crawler (Edit) [4:08]
02. Breaking The Law (Live) [2:45]
03. Living After Midnight (Live) [7:15]

Exact Audio Copy V1.0 beta 3 from 29. August 2011

EAC extraction logfile from 1. November 2011, 20:48

Judas Priest / Single Cuts CD20

Used drive : HL-DT-STDVDRAM GSA-H60N Adapter: 2 ID: 0

Read mode : Secure
Utilize accurate stream : Yes
Defeat audio cache : Yes
Make use of C2 pointers : No

Read offset correction : 667
Overread into Lead-In and Lead-Out : No
Fill up missing offset samples with silence : Yes
Delete leading and trailing silent blocks : No
Null samples used in CRC calculations : Yes
Used interface : Native Win32 interface for Win NT & 2000

Used output format : Internal WAV Routines
Sample format : 44.100 Hz; 16 Bit; Stereo


TOC of the extracted CD

Track | Start | Length | Start sector | End sector
––––––––––––––––––––––––––––-
1 | 0:00.00 | 4:08.29 | 0 | 18628
2 | 4:08.29 | 2:44.38 | 18629 | 30966
3 | 6:52.67 | 7:14.67 | 30967 | 63583


Range status and errors

Selected range

Filename C:\Documents and Settings\Admin\Рабочий стол\ALLexxess\2011 Judas Priest Single Cuts (20CD Singles Box Set Sony Music UK)\CD20\Judas Priest - Single Cuts CD20.wav

Peak level 97.0 %
Extraction speed 4.5 X
Range quality 100.0 %
Test CRC 8C772611
Copy CRC 8C772611
Copy OK

No errors occurred


AccurateRip summary

Track 1 not present in database
Track 2 not present in database
Track 3 not present in database

None of the tracks are present in the AccurateRip database

End of status report

==== Log checksum 526D215D272AEF07F6D4B340B5BE71A81D51A7F999CAB95D78E77BC9E1A5B168 ====


Judas Priest - Single Cuts (2011) [20CD Box Set] Repost

All thanks go to the original releaser

Judas Priest or Judas Priest in my Blog

Download Judas Priest - Single Cuts (2011):