Subcategories

Killing Floor - Killing Floor (1969) {1995, Reissue}

Posted By: popsakov
Killing Floor - Killing Floor (1969) {1995, Reissue}

Killing Floor - Killing Floor (1969) {1995, Reissue}
EAC Rip | FLAC (Img) + Cue + Log ~ 329 Mb | MP3 CBR320 ~ 119 Mb
Full Scans (JPG, 600 dpi) ~ 95 Mb | RAR 5% Recovery
Electric Blues, Blues Rock, Psychedelic Rock | Repertoire Records #REP 4532-WP

Killing Floor are a British blues rock band, who formed in 1968. They released two albums and four singles before initially disbanding in 1972. They have issued another two albums since their reformation in 2002. The band name came from the title of Howlin' Wolf's 1964 track, "Killing Floor".
~ Wiki

The sheer toughness – and overall derivative – nature of Killing Floor's debut album, issued six months after Led Zeppelin's debut in 1969 on the Spark label, is a wondrous contrast to the overly slick treatment American blues were given by British artists. All of these tunes, with the exception of one, are revamped versions of songs from the blues canon with different words. The lone "cover" in the set was written by Willie Dixon titled "Woman You Need Love," the tune Zep ripped for "Whole Lotta Love." Despite the fact that this set was issued before by Repertoire, the Akarma version is definitive in that it features the original cover artwork in a heavy cardboard gatefold sleeve, and killer sound. This is a raw, immediate, overdriven, psychedelic blues record that offers an interesting historical counterpoint to the immediate impact of Page and Plant and Co., but it also offers a great contrast to the recent 1990s versions of American groups trying to rock up the blues in like style: Jon Spencer Blues Explosion immediately comes to mind. They also provide a heavier, less reverent, and altogether heavier update of the Yardbirds rave-up sound.
~ Thom Jurek, All Music

***************

Killing Floor - Killing Floor (1969) {1995, Reissue}

Killing Floor - Killing Floor (1969) {1995, Reissue}

Track List:

01. Woman You Need Love [4:49]
02. Nobody by My Side [4:54]
03. Come Home Baby [4:03]
04. Bedtime Blues [7:30]
05. Sunday Morning [1:02]
06. Try to Understand [2:38]
07. My Mind Can Ride Easy [2:30]
08. Wet [0:43]
09. Keep on Walking [4:57]
10. Forget It [5:32]
11. Lou's Blues [2:37]
12. People Change Your Mind [8:20]

Personnel:
Bill Thorndycraft - Vocals, Harp
Mick Clarke - Lead Guitar
Lou Martin - Keyboards, Piano
Bazz Smith - Drums
Stuart MacDonald - Bass

Exact Audio Copy V1.1 from 23. June 2015

EAC extraction logfile from 1. April 2016, 8:32

Killing Floor / Killing Floor

Used drive : HL-DT-STDVDRAM GH22NS70 Adapter: 1 ID: 1

Read mode : Secure
Utilize accurate stream : Yes
Defeat audio cache : Yes
Make use of C2 pointers : No

Read offset correction : 667
Overread into Lead-In and Lead-Out : No
Fill up missing offset samples with silence : Yes
Delete leading and trailing silent blocks : No
Null samples used in CRC calculations : Yes
Used interface : Installed external ASPI interface

Used output format : User Defined Encoder
Selected bitrate : 128 kBit/s
Quality : High
Add ID3 tag : No
Command line compressor : C:\Program Files (x86)\Exact Audio Copy\FLAC\FLAC.EXE
Additional command line options : -V -8 -T "Date=%year%" -T "Genre=%genre%" %source%


TOC of the extracted CD

Track | Start | Length | Start sector | End sector
––––––––––––––––––––––––––––-
1 | 0:00.00 | 4:49.27 | 0 | 21701
2 | 4:49.27 | 4:54.05 | 21702 | 43756
3 | 9:43.32 | 4:03.00 | 43757 | 61981
4 | 13:46.32 | 7:29.50 | 61982 | 95706
5 | 21:16.07 | 1:02.10 | 95707 | 100366
6 | 22:18.17 | 2:38.03 | 100367 | 112219
7 | 24:56.20 | 2:30.05 | 112220 | 123474
8 | 27:26.25 | 0:43.37 | 123475 | 126736
9 | 28:09.62 | 4:56.53 | 126737 | 148989
10 | 33:06.40 | 5:32.10 | 148990 | 173899
11 | 38:38.50 | 2:37.20 | 173900 | 185694
12 | 41:15.70 | 8:20.05 | 185695 | 223199


Range status and errors

Selected range

Filename C:\Users\Grave-Gihar\Desktop\Killing Floor_1969\Killing Floor - Killing Floor.wav

Peak level 98.4 %
Extraction speed 1.7 X
Range quality 99.9 %
Test CRC C24388AB
Copy CRC C24388AB
Copy OK

No errors occurred


AccurateRip summary

Track 1 cannot be verified as accurate (confidence 2) [738C5C91], AccurateRip returned [AFCA0C56] (AR v2)
Track 2 cannot be verified as accurate (confidence 2) [D8E26060], AccurateRip returned [5F28689B] (AR v2)
Track 3 cannot be verified as accurate (confidence 2) [A0306EC3], AccurateRip returned [04AE7951] (AR v2)
Track 4 cannot be verified as accurate (confidence 2) [3BE1B3D3], AccurateRip returned [6CFA5B54] (AR v2)
Track 5 cannot be verified as accurate (confidence 2) [AD586B6B], AccurateRip returned [E2F8A11D] (AR v2)
Track 6 cannot be verified as accurate (confidence 2) [49D2D22B], AccurateRip returned [F4B64531] (AR v2)
Track 7 cannot be verified as accurate (confidence 2) [4A42AEE6], AccurateRip returned [5F5FC704] (AR v2)
Track 8 cannot be verified as accurate (confidence 2) [17C72BB2], AccurateRip returned [06A529F7] (AR v2)
Track 9 cannot be verified as accurate (confidence 2) [F00AC21E], AccurateRip returned [C61D2B69] (AR v2)
Track 10 cannot be verified as accurate (confidence 2) [87294656], AccurateRip returned [13D84309] (AR v2)
Track 11 cannot be verified as accurate (confidence 2) [AAF6E74A], AccurateRip returned [9A6AF471] (AR v2)
Track 12 cannot be verified as accurate (confidence 2) [C44A51EA], AccurateRip returned [FD8BF6FD] (AR v2)

No tracks could be verified as accurate
You may have a different pressing from the one(s) in the database

End of status report

==== Log checksum 3DA5724D8E0B9E8273EEFB17721E3556EE642818FCC437003DD76F6E20E08B8B ====

foobar2000 1.3.16 / Dynamic Range Meter 1.1.1
log date: 2017-11-14 22:42:50

––––––––––––––––––––––––––––––––––––––––
Analyzed: Killing Floor / Killing Floor
––––––––––––––––––––––––––––––––––––––––

DR Peak RMS Duration Track
––––––––––––––––––––––––––––––––––––––––
DR10 -0.14 dB -11.67 dB 4:49 01-Woman You Need Love
DR10 -0.14 dB -11.60 dB 4:54 02-Nobody by My Side
DR10 -0.14 dB -10.92 dB 4:03 03-Come Home Baby
DR11 -0.14 dB -12.50 dB 7:30 04-Bedtime Blues
DR12 -3.54 dB -18.37 dB 1:02 05-Sunday Morning
DR11 -0.14 dB -12.91 dB 2:38 06-Try to Understand
DR10 -0.14 dB -11.87 dB 2:30 07-My Mind Can Ride Easy
DR10 -0.73 dB -13.11 dB 0:43 08-Wet
DR10 -0.14 dB -12.90 dB 4:57 09-Keep on Walking
DR9 -0.14 dB -11.93 dB 5:32 10-Forget It
DR15 -1.87 dB -16.91 dB 2:37 11-Lou's Blues
DR9 -0.14 dB -11.14 dB 8:20 12-People Change Your Mind
––––––––––––––––––––––––––––––––––––––––

Number of tracks: 12
Official DR value: DR11

Samplerate: 44100 Hz
Channels: 2
Bits per sample: 16
Bitrate: 883 kbps
Codec: FLAC
================================================================================

[CUETools log; Date: 13.11.2017 21:26:09; Version: 2.1.5]
[CTDB TOCID: DZ.DsAtPKp9D_WSFInSoTWm.z6E-] found.
Track | CTDB Status
1 | (8/8) Accurately ripped
2 | (8/8) Accurately ripped
3 | (8/8) Accurately ripped
4 | (8/8) Accurately ripped
5 | (8/8) Accurately ripped
6 | (8/8) Accurately ripped
7 | (8/8) Accurately ripped
8 | (8/8) Accurately ripped
9 | (8/8) Accurately ripped
10 | (8/8) Accurately ripped
11 | (8/8) Accurately ripped
12 | (8/8) Accurately ripped
[AccurateRip ID: 0015a204-00c59a26-bb0ba00c] found.
Track [ CRC | V2 ] Status
01 [0b1897a5|738c5c91] (0+0/4) No match
02 [710d4512|d8e26060] (0+0/4) No match
03 [fa82f080|a0306ec3] (0+0/4) No match
04 [ec2c26e2|3be1b3d3] (0+0/4) No match
05 [29bfdfb5|ad586b6b] (0+0/4) No match
06 [9d3d567a|49d2d22b] (0+0/4) No match
07 [f5141968|4a42aee6] (0+0/4) No match
08 [afc585a1|17c72bb2] (0+0/4) No match
09 [17eca246|f00ac21e] (0+0/4) No match
10 [25747f94|87294656] (0+0/4) No match
11 [f167739a|aaf6e74a] (0+0/4) No match
12 [b7fb839e|c44a51ea] (0+0/4) No match
Offsetted by 48:
01 [594c9805] (2/4) Accurately ripped
02 [09b4a192] (2/4) Accurately ripped
03 [54cdd6de] (2/4) Accurately ripped
04 [394fc8b0] (2/4) Accurately ripped
05 [632b48b5] (2/4) Accurately ripped
06 [51e56b1a] (2/4) Accurately ripped
07 [13857578] (2/4) Accurately ripped
08 [a12c0f51] (2/4) Accurately ripped
09 [00a6d146] (2/4) Accurately ripped
10 [c6e5c804] (2/4) Accurately ripped
11 [eac0814a] (2/4) Accurately ripped
12 [10bcf78e] (2/4) Accurately ripped

Track Peak [ CRC32 ] [W/O NULL] [ LOG ]
– 98,4 [C24388AB] [ED04DDA1] CRC32
01 98,4 [1E6C804F] [D98C4FC6]
02 98,4 [268C66EA] [FFE56338]
03 98,4 [928EE1B0] [744D1AA1]
04 98,4 [3F40F41F] [99D82710]
05 66,5 [CB5D06C3] [7B888635]
06 98,4 [CADCC195] [964581A5]
07 98,4 [12A4A4E0] [FA5F3258]
08 91,9 [2E86EFA6] [68332A2E]
09 98,4 [D68C798A] [C93E9F8F]
10 98,4 [13F0A239] [E18B8491]
11 80,6 [B351753E] [6BDA9C77]
12 98,4 [3F338BCA] [69C84338]

Killing Floor - Killing Floor (1969) {1995, Reissue}

All thanks go to breaker65

>>> My Blog <<<

Download from icerbox.com: