Subcategories

Krobak - Little Victories (2013)

Posted By: gribovar
Krobak - Little Victories (2013)

Krobak - Little Victories (2013)
EAC Rip | FLAC (image+.cue+log) - 306 MB | MP3 CBR 320 kbps (LAME 3.93) - 131 MB | Covers (13 MB) included
Genre: Post-Rock | RAR 3% Rec. | Label: MALS (MALS 399)

With song titles as vivid as the music produced by this instrumental quartet, Krobak brings its global brand of post-rock to the masses. (Not really, but if Kscope had released Little Victories instead of the Russian label MALS, this thing would have gotten a lot more attention.) The Ukrainian band's epic wall of sound erected by bass, guitar, drums and a dominant violin is created by four musicians. Of the five songs here, with such titles as "And There By the River I Lost My Glasses," "Broken (Are Little Victories By the Ship of Life)" and "It's Snowing Like It's The End of the World," "Last Days of Summer" proves to be the most effective and worthy of vocals. But these songs, which traverse so many moods and landscapes over the course of 50 minutes, don't need words. Rather, Little Victories reaffirms the value of instrumental music.

Tracklist:
01. And there by the River I Lost my Glasses
02. Last Days of Summer
03. Broken (are Little Victories by the Ship of Life)
04. It's snowing like it's the End of the World
05. Amnesia (2013)

Total time: 50:03

Exact Audio Copy V1.0 beta 3 from 29. August 2011

Отчёт EAC об извлечении, выполненном 28. августа 2013, 14:04

Krobak / Little Victories

Дисковод: ASUS SDRW-08D1S-U Adapter: 1 ID: 0

Режим чтения : Достоверность
Использование точного потока : Да
Отключение кэша аудио : Да
Использование указателей C2 : Нет

Коррекция смещения при чтении : 103
Способность читать области Lead-in и Lead-out : Нет
Заполнение пропущенных сэмплов тишиной : Да
Удаление блоков с тишиной в начале и конце : Нет
При вычислениях CRC использовались нулевые сэмплы : Да
Интерфейс : Встроенный Win32-интерфейс для Win NT/2000

Выходной формат : Пользовательский кодировщик
Выбранный битрейт : 1024 kBit/s
Качество : Высокий
Добавление ID3-тега : Нет
Утилита сжатия : C:\Program Files\Exact Audio Copy\Flac\flac.exe
Дополнительные параметры : -V -8 -T "Date=%year%" -T "Genre=%genre%" %source%


TOC извлечённого CD

Трек | Старт | Длительность | Начальный сектор | Конечный сектор
––––––––––––––––––––––––––––––––––-
1 | 0:00.00 | 10:14.56 | 0 | 46105
2 | 10:14.56 | 8:15.43 | 46106 | 83273
3 | 18:30.24 | 4:40.40 | 83274 | 104313
4 | 23:10.64 | 11:50.46 | 104314 | 157609
5 | 35:01.35 | 15:01.73 | 157610 | 225257
6 | 52:35.33 | 24:39.64 | 236658 | 347646


Характеристики диапазона извлечения и сообщения об ошибках

Выбранный диапазон

Имя файла D:\Krobak (2013) - Little Victories\Krobak - Little Victories.wav

Пиковый уровень 100.0 %
Скорость извлечения 1.8 X
Качество диапазона 100.0 %
CRC теста 16CB7933
CRC копии 16CB7933
Копирование… OK

Ошибок не произошло

Конец отчёта

–– CUETools DB Plugin V2.1.3

[CTDB TOCID: 3iDpMgEUe0sAHR4bMSQB7nKzj3c-] disk not present in database, Submit result: 3iDpMgEUe0sAHR4bMSQB7nKzj3c- has been uploaded


==== Контрольная сумма отчёта 832E6BCF262F350B8344249DBBFA637B65540035F9A543B78CA990A560251291 ====

[CUETools log; Date: 13.06.2018 11:29:08; Version: 2.1.4]
CD-Extra data track length 24:39:64.
[CTDB TOCID: 3iDpMgEUe0sAHR4bMSQB7nKzj3c-] found.
Track | CTDB Status
1 | (5/5) Accurately ripped
2 | (5/5) Accurately ripped
3 | (5/5) Accurately ripped
4 | (5/5) Accurately ripped
5 | (5/5) Accurately ripped
[AccurateRip ID: 000b4687-00377047-39121b06] found.
Track [ CRC | V2 ] Status
01 [cd75c74b|c2ad0253] (0+1/1) Accurately ripped
02 [030143e0|74d1238e] (0+1/1) Accurately ripped
03 [d1ba2be0|076e8624] (0+1/1) Accurately ripped
04 [2f629207|aa3b5390] (0+1/1) Accurately ripped
05 [db2ce1e2|6706afd6] (0+1/1) Accurately ripped

Track Peak [ CRC32 ] [W/O NULL] [ LOG ]
– 99,9 [16CB7933] [C8D5DB94] CRC32
01 97,0 [A62B15D9] [13A94F60]
02 97,0 [84E3BE61] [6E0EF2CB]
03 97,0 [C23AC6D2] [CA7D1ED5]
04 97,0 [F0C17252] [192EF90F]
05 99,9 [B68025A5] [D8588184]

Thanks to Pasheka-Pacheka

See also:
Krobak - The Diary of the Missed One (2008)