Subcategories

Kronos Quartet - In Formation (1990)

Posted By: tirexiss
Kronos Quartet - In Formation (1990)

Kronos Quartet - In Formation (1990)
EAC | FLAC (image+.cue, log) | Covers Included | 33:45 | 179 MB
Genre: Classical | Label: Reference Records | Catalog: 9

Kronos is a musical institution over 40 years in existence, championing and commissioning contemporary, even avant-garde and multimedia, classical compositions but the quartet started slow, in a period of experimentation when classical, rock, and jazz began to explore each other's domain. The Turtle Island Quartet, founded in 1985, shares similar roots, and the chamber jazz group Oregon, founded in 1971, also skirts Third Steam with their bass, guitar, oboe, and percussion. Kronos tackled Thelonious Monk jazz classics in 1985 and those of Bill Evans the following year, but they also recorded quartets of minimalist, idiosyncratic Terry Riley in 1985. Since their 1986 breakthrough recording on Nonesuch with pieces by Peter Sculthorpe, Aulis Sallinen, Philip Glass, Conlon Nancarrow, and an arrangement of Jimi Hendrix's Purple Haze, they have been extraordinarily successful and have educated audiences around the world to novel and sociologically important music. Looking at the photograph of the quartet in this album, taken between 1979 and 1982, and recalling their appearance today (with Joan Jeanrenaud, cello, replaced with Sunny Yang), I am struck how very young and bold they were, long-haired and mustachioed per the era. As today, the tracks of this opus 1, 1979, recording were composed by others, here by Derek Thunes and Ken Benshoof and Alan Dorsey, two each, John Whitney, Hunt Beyer, John Geist, and David Kechley. These pieces on the 34-minute album are to large extent influenced by rock, blues, and jazz. They are lyrical, rhythmic, comfortable but also by the standard's of today, simple and safe (although Beyer's Enantiodromia High [referring to cycling into opposites] is strange. In Formation, of course, is important in the history of Kronos and in experimental popular music of the 1980s. The fine technique of the musicians and the addition of percussion and other sounds are already established, and they soon would become more daring, expanding their own ears, as ours.

Kronos Quartet - In Formation (1990)

Track List:

1.The Funky Chicken 3:10
David Kechly
2.Remember 3:16
Ken Benshoof
3.Blues 3:37
Derek Thunes (Wooden Lady Music)
4.When 2:20
Ken Benshoof
5.Enantiodromia High 3:20
Hunt Beyer
6.Joan's Blue 3:32
Alan Dorsey
7.Wind on My Back 5:02
Derek Thunes (Wooden Lady Music)
8.The Junk Food Blues 2:28
John Whitney (Theodore Presser Company)
9.Dark Razz 3:35
John Geist
10.Whatever Happend to the Hoodoo Meat Bucket? 2:24
Alan Dorsey

Performers:
Kronos Quartet

John Sherba, violin
Joan Jeanrenaud, cello
Hank Dutt, viola
David Harrington, violin

Exact Audio Copy V1.0 beta 3 from 29. August 2011

EAC extraction logfile from 9. December 2014, 1:59

Kronos Quartet / In Formation

Used drive : PIONEER BD-RW BDR-207M Adapter: 2 ID: 0

Read mode : Secure
Utilize accurate stream : Yes
Defeat audio cache : Yes
Make use of C2 pointers : No

Read offset correction : 667
Overread into Lead-In and Lead-Out : No
Fill up missing offset samples with silence : Yes
Delete leading and trailing silent blocks : No
Null samples used in CRC calculations : Yes
Used interface : Native Win32 interface for Win NT & 2000

Used output format : User Defined Encoder
Selected bitrate : 1024 kBit/s
Quality : High
Add ID3 tag : No
Command line compressor : C:\Program Files (x86)\Exact Audio Copy\FLAC\FLAC.EXE
Additional command line options : -6 -V -T "ARTIST=%artist%" -T "TITLE=%title%" -T "ALBUM=%albumtitle%" -T "DATE=%year%" -T "TRACKNUMBER=%tracknr%" -T "GENRE=%genre%" -T "COMMENT=%comment%" -T "BAND=%albuminterpret%" -T "ALBUMARTIST=%albuminterpret%" -T "COMPOSER=%composer%" %haslyrics%–tag-from-file=LYRICS="%lyricsfile%"%haslyrics% -T "DISCNUMBER=%cdnumber%" -T "TOTALDISCS=%totalcds%" -T "TOTALTRACKS=%numtracks%" %hascover%–picture="%coverfile%"%hascover% %source% -o %dest%


TOC of the extracted CD

Track | Start | Length | Start sector | End sector
––––––––––––––––––––––––––––-
1 | 0:00.00 | 3:17.17 | 0 | 14791
2 | 3:17.17 | 3:23.05 | 14792 | 30021
3 | 6:40.22 | 3:42.45 | 30022 | 46716
4 | 10:22.67 | 2:24.05 | 46717 | 57521
5 | 12:46.72 | 3:24.20 | 57522 | 72841
6 | 16:11.17 | 3:33.38 | 72842 | 88854
7 | 19:44.55 | 5:09.35 | 88855 | 112064
8 | 24:54.15 | 2:32.22 | 112065 | 123486
9 | 27:26.37 | 3:38.65 | 123487 | 139901
10 | 31:05.27 | 2:29.03 | 139902 | 151079


Range status and errors

Selected range

Filename C:\Users\Jean\Music\Kronos Quartet - In Formation.wav

Peak level 99.6 %
Extraction speed 6.4 X
Range quality 100.0 %
Test CRC 25E4E748
Copy CRC 25E4E748
Copy OK

No errors occurred


AccurateRip summary

Track 1 not present in database
Track 2 not present in database
Track 3 not present in database
Track 4 not present in database
Track 5 not present in database
Track 6 not present in database
Track 7 not present in database
Track 8 not present in database
Track 9 not present in database
Track 10 not present in database

None of the tracks are present in the AccurateRip database

End of status report

==== Log checksum 4FA6646BF554462130308B1A2A367B6C288945812BE916519F3698AFED7EC55B ====

[CUETools log; Date: 23.12.2017 10:41:35; Version: 2.1.5]
[CTDB TOCID: xRozQ2totCK7W2VC7LMfjjEi3wE-] found.
Track | CTDB Status
1 | (45/46) Accurately ripped
2 | (46/46) Accurately ripped
3 | (46/46) Accurately ripped
4 | (46/46) Accurately ripped
5 | (45/46) Accurately ripped
6 | (46/46) Accurately ripped
7 | (44/46) Accurately ripped
8 | (45/46) Accurately ripped
9 | (46/46) Accurately ripped
10 | (46/46) Accurately ripped
[AccurateRip ID: 000cc6a4-006691b1-9c07de0a] found.
Track [ CRC | V2 ] Status
01 [4f41b968|dd930745] (02+02/42) Accurately ripped
02 [ad6c1e9b|765867ef] (02+02/42) Accurately ripped
03 [13e071a6|b7a7730c] (02+02/42) Accurately ripped
04 [b7c3bf25|08789770] (02+02/42) Accurately ripped
05 [06ecb7dd|c0700d95] (02+02/42) Accurately ripped
06 [0cfe8edc|508006d8] (02+02/42) Accurately ripped
07 [56d04f88|fad31b13] (02+02/42) Accurately ripped
08 [2527fae5|4f8bb820] (02+02/42) Accurately ripped
09 [e069a0f9|09efb601] (02+02/42) Accurately ripped
10 [c547901d|9d22f85c] (00+02/39) Accurately ripped
Offsetted by -1799:
01 [19b9272d] (00/42) No match (V2 was not tested)
02 [d34adc19] (00/42) No match (V2 was not tested)
03 [649e8993] (00/42) No match (V2 was not tested)
04 [930cd269] (00/42) No match (V2 was not tested)
05 [1983cd72] (00/42) No match (V2 was not tested)
06 [6f426a81] (00/42) No match (V2 was not tested)
07 [4bb4ab0a] (00/42) No match (V2 was not tested)
08 [38682d33] (00/42) No match (V2 was not tested)
09 [a43e003c] (00/42) No match (V2 was not tested)
10 [1c703af0] (00/39) No match (V2 was not tested)
Offsetted by -1141:
01 [3059c5f3] (00/42) No match (V2 was not tested)
02 [78171cb0] (00/42) No match (V2 was not tested)
03 [87f4992e] (00/42) No match (V2 was not tested)
04 [b1ae25b9] (00/42) No match (V2 was not tested)
05 [e005e3e6] (00/42) No match (V2 was not tested)
06 [7f936db3] (00/42) No match (V2 was not tested)
07 [72f669c6] (00/42) No match (V2 was not tested)
08 [7e15752b] (00/42) No match (V2 was not tested)
09 [c50337c9] (00/42) No match (V2 was not tested)
10 [ebd0f3df] (00/39) No match (V2 was not tested)
Offsetted by -1123:
01 [cefa3342] (02/42) Accurately ripped
02 [c58ef5ee] (02/42) Accurately ripped
03 [5e9414bc] (02/42) Accurately ripped
04 [acd3e88b] (02/42) Accurately ripped
05 [49d0648f] (02/42) Accurately ripped
06 [b960ce7f] (02/42) Accurately ripped
07 [d6a54f67] (02/42) Accurately ripped
08 [00093ad9] (02/42) Accurately ripped
09 [918bb4be] (02/42) Accurately ripped
10 [ff6e8467] (00/39) No match (V2 was not tested)
Offsetted by 901:
01 [05b28af6] (07/42) Accurately ripped
02 [dbd2ef00] (07/42) Accurately ripped
03 [aefc2c44] (07/42) Accurately ripped
04 [6fa32cbc] (07/42) Accurately ripped
05 [c29f12d1] (07/42) Accurately ripped
06 [7484726e] (07/42) Accurately ripped
07 [f90d5bd2] (07/42) Accurately ripped
08 [7a1b6bdc] (07/42) Accurately ripped
09 [4145ea9d] (07/42) Accurately ripped
10 [d7393e76] (00/39) No match (V2 was not tested)

Track Peak [ CRC32 ] [W/O NULL] [ LOG ]
– 99,6 [25E4E748] [3D7209D0] CRC32
01 74,3 [2787A527] [8A22924E]
02 35,0 [0DF1958F] [0ABB8EE5]
03 52,5 [2B5CEEB2] [5B43974E]
04 31,8 [4D5BAA2B] [EF0A11BE]
05 58,2 [B607BE12] [97220F43]
06 74,8 [098FB725] [67A29A27]
07 49,8 [B40CF364] [51DE5236]
08 57,9 [D958B4C2] [A1E7D454]
09 83,4 [4EEE3455] [CF42A53A]
10 99,6 [36F62DC7] [55BD8E52]

Thanks to the Original ripper Jeanlab!

Download: