Subcategories

Trio Da Kali & Kronos Quartet - Ladilikan (2017)

Posted By: SERTiL
Trio Da Kali & Kronos Quartet - Ladilikan (2017)

Trio Da Kali & Kronos Quartet - Ladilikan
World, Jazz, Classical | WEB FLAC (tracks) & d. booklet | 46:39 min | 264 MB
Label: World Circuit | Tracks: 10 | Rls.date: 2017

You take a trio of the finest traditional griot musicians from Mali and put them in a studio with western music's most revolutionary Western string quartet – and the resulting album is one of the most richly rewarding musical collaborations you are likely to encounter.

Together the Kronos Quartet and Trio da Kali have created an album that is rich in texture, hauntingly melodic and strikingly inventive as violins, viola and cello combine with balafon, ngoni and the powerful female voice of Hawa 'Kassé Mady' Diabaté in transcendental style.

David Harrington, who founded the Kronos Quartet in 1973, describes the album as "one of the most beautiful Kronos has done in forty years."

All three Da Kali members come from hereditary musical families; Balafon player and musical director Lassana Diabate was a long-time member of Toumani Diabate's Symmetric Orchestra and has recorded with Salif Keita, Taj Mahal and many others. A musician of great subtlety and invention he has honed a virtuoso two-balafon technique to perfection. Bass ngoni player Mamadou Kouyaté is the eldest son of the instrument's greatest exponent, Bassekou Kouyaté and he holds down the groove in his father's band 'Ngoni Ba'. Singer Hawa 'Kassé Mady' Diabate is the daughter of Mali's greatest traditional singer, Kassé Mady Diabate, and the power, range and phrasing of her voice led David Harrington to compare her to the late queen of American gospel, Mahalia Jackson.

Kronos Quartet have earned an enviable reputation collaborating with contemporary composers such as Steve Reich, Philip Glass, Terry Riley and Laurie Anderson and with world music icons from Argentinian tango hero Astor Piazzola to Bollywood singer Asha Bhosle.

TRACKLIST
01. Tita
02. Kanimba
03. Eh Ya Ye
04. Garaba Mama
05. God Shall Wipe All Tears Away
06. Samuel
07. Lila Bambo
08. Kene Bo
09. Ladilikan
10. Sunjata

PERFORMER: auCDtect Task Manager, ver. 1.6.0 RC1 build 1.6.0.1
Copyright © 2008-2010 y-soft. All rights reserved

ANALYZER: auCDtect: CD records authenticity detector, version 0.8.2
Copyright © 2004 Oleg Berngardt. All rights reserved.
Copyright © 2004 Alexander Djourik. All rights reserved.


FILE: 10. Sunjata.flac
Size: 38609904 Hash: 7374F968632023BED664806E4B9F4F66 Accuracy: -m0
Conclusion: CDDA 100%
Signature: 2899E7541FA85BBCD448F27F2D0FEEB5AEDD5808
FILE: 09. Ladilikan.flac
Size: 31933908 Hash: 83633F0B98346A8F38790F36953A5A67 Accuracy: -m0
Conclusion: CDDA 100%
Signature: DB32BDF818F3C0886D23027DE0EB253C0640726C
FILE: 08. Kene Bo.flac
Size: 17439322 Hash: 61118799E73FC59B75398344E0894FFF Accuracy: -m0
Conclusion: CDDA 100%
Signature: 504B80C3697C2CECF5F6669E6AA5A0364E2464D1
FILE: 07. Lila Bambo.flac
Size: 28624106 Hash: 08F884FD585E27AAD10A0F66A05BEB04 Accuracy: -m0
Conclusion: CDDA 100%
Signature: DE28846F5C3FC9443CF218727A7F22C3B5A98885
FILE: 06. Samuel.flac
Size: 20076603 Hash: 098C4BAADEA595365123040D2D89FF0C Accuracy: -m0
Conclusion: CDDA 100%
Signature: 54EF335AFC7CAB3894FD4AAEE9A6890A639D9C50
FILE: 05. God Shall Wipe All Tears Away.flac
Size: 20689135 Hash: F848E75A4E8835972B9B2F33A1FDE08F Accuracy: -m0
Conclusion: CDDA 100%
Signature: 609D00192E25E7ABDC8AF93D434901470682DB4B
FILE: 04. Garaba Mama.flac
Size: 18845549 Hash: EB3F2627B2D5149EA7BD1D71E8F0E205 Accuracy: -m0
Conclusion: CDDA 99%
Signature: A72E032F7AFC0DB38F0BD5BC84B21FFE2CF7EC6F
FILE: 03. Eh Ya Ye.flac
Size: 30606815 Hash: B3DE45D0DF135E25B82433A3BD808456 Accuracy: -m0
Conclusion: CDDA 100%
Signature: 88795A3716B4483E9359A12CEC67D27A21AA9EF2
FILE: 02. Kanimba.flac
Size: 27341592 Hash: E0E7E9F658B4A4627292CEF18257F4C1 Accuracy: -m0
Conclusion: CDDA 99%
Signature: 31B3D15874D46A5D6C726B139F8E5F5149C8A57F
FILE: 01. Tita.flac
Size: 40633052 Hash: 5B74D3925204E304A47FAC558EFDE8ED Accuracy: -m0
Conclusion: CDDA 100%
Signature: 761009F408CF624AF9C03665457A83AEC08CFDF4

foobar2000 1.3.7 / Dynamic Range Meter 1.1.1
log date: 2017-09-10 16:16:29

––––––––––––––––––––––––––––––––––––––––
Analyzed: Trio Da Kali, Kronos Quartet / Ladilikan
––––––––––––––––––––––––––––––––––––––––

DR Peak RMS Duration Track
––––––––––––––––––––––––––––––––––––––––
DR6 -0.67 dB -9.22 dB 6:53 01-Tita
DR6 -0.68 dB -8.44 dB 4:40 02-Kanimba
DR6 -0.19 dB -7.63 dB 4:52 03-Eh Ya Ye
DR5 -0.19 dB -7.22 dB 3:03 04-Garaba Mama
DR7 -0.19 dB -9.58 dB 3:07 05-God Shall Wipe All Tears Away
DR11 -0.18 dB -13.87 dB 3:52 06-Samuel
DR7 -0.17 dB -8.38 dB 4:59 07-Lila Bambo
DR7 -0.19 dB -9.21 dB 3:03 08-Kene Bo
DR5 -0.18 dB -7.17 dB 4:58 09-Ladilikan
DR9 -0.20 dB -11.63 dB 7:19 10-Sunjata
––––––––––––––––––––––––––––––––––––––––

Number of tracks: 10
Official DR value: DR7

Samplerate: 44100 Hz
Channels: 2
Bits per sample: 16
Bitrate: 696 kbps
Codec: FLAC
================================================================================


Thanks to the Original customer.