Subcategories

Lionel Hampton - Mai 1956 (1956) [Reissue 2001] (Repost)

Posted By: gribovar
Lionel Hampton - Mai 1956 (1956) [Reissue 2001] (Repost)

Lionel Hampton - Mai 1956 (1956) [Reissue 2001]
EAC Rip | FLAC (tracks+.cue+log) - 414 MB | MP3 CBR 320 kbps (LAME 3.93) - 155 MB | Covers - 26 MB
Genre: Jazz | RAR 3% Rec. | Label: Universal Music (013 880-2)

During one of his many tours of Europe, Lionel Hampton assembled a group of all-stars for this 1956 studio session, adding a number of top European players to his regular group. The vibraphonist has the lion's share of solos, dominating the 11-plus-minute interpretation of "Love Is a Many Splendored Thing" and showing off a bit with his unique style of playing piano on several selections, including a romp through "Regina's Drag" (which is the same as "12th Street Rag"). "New Saint-Louis Blues" is just an updated version of W.C. Handy's signature tune, with a vocal by Hampton and sassy muted trumpet by Ed Mullens. This date might have been a bit more memorable with more solo features for the vibraphonist's sidemen, but it is hard to overpower one of the greatest jazz showmen of all time.
Tracklist:
01. Jammin' On High Society
02. Love Is A Many Splendored Thing
03. Lullaby Of Birdland
04. Blues For Monique
05. Regina's Drag
06. New Saint-Louis Blues
07. Just You, Just Me
08. Exactly Like You

Total time: 01:05:59

Exact Audio Copy V1.0 beta 3 from 29. August 2011

EAC extraction logfile from 12. January 2013, 11:47

Lionel Hampton / Mai 1956

Used drive : hp BD RW BD-5750H Adapter: 0 ID: 1

Read mode : Secure
Utilize accurate stream : Yes
Defeat audio cache : Yes
Make use of C2 pointers : No

Read offset correction : 48
Overread into Lead-In and Lead-Out : No
Fill up missing offset samples with silence : Yes
Delete leading and trailing silent blocks : No
Null samples used in CRC calculations : Yes
Used interface : Native Win32 interface for Win NT & 2000
Gap handling : Appended to previous track

Used output format : User Defined Encoder
Selected bitrate : 128 kBit/s
Quality : High
Add ID3 tag : No
Command line compressor : C:\Program Files (x86)\Audio\Exact Audio Copy\Flac\flac.exe
Additional command line options : -8 -V -T "ARTIST=%artist%" -T "TITLE=%title%" -T "ALBUM=%albumtitle%" -T "DATE=%year%" -T "TRACKNUMBER=%tracknr%" -T "TOTALTRACKS=%numtracks%" -T "GENRE=%genre%" -T "ALBUMARTIST=%albumartist%" -T "ALBUM ARTIST=%albumartist%" -T "COMMENT=EAC Secure Mode, Test & Copy, AccurateRip, FLAC -8" %source%


TOC of the extracted CD

Track | Start | Length | Start sector | End sector
––––––––––––––––––––––––––––-
1 | 0:00.00 | 7:06.40 | 0 | 31989
2 | 7:06.40 | 11:05.55 | 31990 | 81919
3 | 18:12.20 | 6:50.28 | 81920 | 112697
4 | 25:02.48 | 9:26.28 | 112698 | 155175
5 | 34:29.01 | 4:59.60 | 155176 | 177660
6 | 39:28.61 | 9:26.40 | 177661 | 220150
7 | 48:55.26 | 8:03.39 | 220151 | 256414
8 | 56:58.65 | 8:59.63 | 256415 | 296902


Track 1

Filename C:\AUDIO\Lionel Hampton - Mai 1956 (1956) [FLAC] {Gitanes 013 880-2}\01 - Jammin' on High Society.wav

Pre-gap length 0:00:02.00

Peak level 72.7 %
Extraction speed 10.8 X
Track quality 100.0 %
Test CRC F42CF427
Copy CRC F42CF427
Cannot be verified as accurate (confidence 4) [D330912A], AccurateRip returned [52F3343E] (AR v2)
Copy OK

Track 2

Filename C:\AUDIO\Lionel Hampton - Mai 1956 (1956) [FLAC] {Gitanes 013 880-2}\02 - Love Is a Many Splendored Thing.wav

Pre-gap length 0:00:01.45

Peak level 88.7 %
Extraction speed 13.1 X
Track quality 100.0 %
Test CRC 0ED5E100
Copy CRC 0ED5E100
Cannot be verified as accurate (confidence 4) [ADE248E0], AccurateRip returned [F1DAA25A] (AR v2)
Copy OK

Track 3

Filename C:\AUDIO\Lionel Hampton - Mai 1956 (1956) [FLAC] {Gitanes 013 880-2}\03 - Lullaby of Birdland.wav

Pre-gap length 0:00:01.45

Peak level 86.0 %
Extraction speed 13.9 X
Track quality 99.9 %
Test CRC 82F2BAE9
Copy CRC 82F2BAE9
Cannot be verified as accurate (confidence 4) [5F4A3359], AccurateRip returned [E0906A71] (AR v2)
Copy OK

Track 4

Filename C:\AUDIO\Lionel Hampton - Mai 1956 (1956) [FLAC] {Gitanes 013 880-2}\04 - Blues for Monique.wav

Pre-gap length 0:00:01.45

Peak level 86.8 %
Extraction speed 15.6 X
Track quality 99.9 %
Test CRC F8AD8643
Copy CRC F8AD8643
Cannot be verified as accurate (confidence 4) [FE687B6E], AccurateRip returned [293BEA13] (AR v2)
Copy OK

Track 5

Filename C:\AUDIO\Lionel Hampton - Mai 1956 (1956) [FLAC] {Gitanes 013 880-2}\05 - Regina's Drag.wav

Pre-gap length 0:00:01.45

Peak level 80.6 %
Extraction speed 15.5 X
Track quality 99.9 %
Test CRC 60DF12CE
Copy CRC 60DF12CE
Cannot be verified as accurate (confidence 4) [49B06B31], AccurateRip returned [9A98316E] (AR v2)
Copy OK

Track 6

Filename C:\AUDIO\Lionel Hampton - Mai 1956 (1956) [FLAC] {Gitanes 013 880-2}\06 - New Saint-Louis Blues.wav

Pre-gap length 0:00:01.45

Peak level 76.6 %
Extraction speed 18.1 X
Track quality 100.0 %
Test CRC 5AC701EE
Copy CRC 5AC701EE
Cannot be verified as accurate (confidence 4) [D75D4321], AccurateRip returned [1DB8DCF4] (AR v2)
Copy OK

Track 7

Filename C:\AUDIO\Lionel Hampton - Mai 1956 (1956) [FLAC] {Gitanes 013 880-2}\07 - Just You, Just Me.wav

Pre-gap length 0:00:01.45

Peak level 75.7 %
Extraction speed 19.0 X
Track quality 100.0 %
Test CRC FE09CE83
Copy CRC FE09CE83
Cannot be verified as accurate (confidence 4) [97BDE6DF], AccurateRip returned [9FF8412C] (AR v2)
Copy OK

Track 8

Filename C:\AUDIO\Lionel Hampton - Mai 1956 (1956) [FLAC] {Gitanes 013 880-2}\08 - Exactly Like You.wav

Pre-gap length 0:00:01.45

Peak level 77.1 %
Extraction speed 19.6 X
Track quality 99.9 %
Test CRC 14F6DEAD
Copy CRC 14F6DEAD
Cannot be verified as accurate (confidence 4) [21677987], AccurateRip returned [4FEAFAF2] (AR v2)
Copy OK


No tracks could be verified as accurate
You may have a different pressing from the one(s) in the database

No errors occurred

End of status report

–– CUETools DB Plugin V2.1.3

[CTDB TOCID: lVS3EgmjJPntjMHxKjpgUmZsjA4-] found, Submit result: already submitted
[0b7050ce] (6/6) Accurately ripped


==== Log checksum A56C1070FE93D6B85ACC2D3A517F69B03FFA5970F348F665BD0EB26D2F6A9D83 ====

[CUETools log; Date: 13.06.2018 1:21:15; Version: 2.1.4]
[CTDB TOCID: lVS3EgmjJPntjMHxKjpgUmZsjA4-] found.
Track | CTDB Status
1 | (21/21) Accurately ripped
2 | (21/21) Accurately ripped
3 | (21/21) Accurately ripped
4 | (21/21) Accurately ripped
5 | (21/21) Accurately ripped
6 | (21/21) Accurately ripped
7 | (21/21) Accurately ripped
8 | (21/21) Accurately ripped
[AccurateRip ID: 001456b2-00874c43-5c0f7608] found.
Track [ CRC | V2 ] Status
01 [110db48c|d330912a] (00+00/15) No match
02 [cdd47ec2|ade248e0] (00+00/15) No match
03 [c20b4791|5f4a3359] (00+00/15) No match
04 [a87ec677|fe687b6e] (00+00/15) No match
05 [5d5baf78|49b06b31] (00+00/15) No match
06 [d1a8f7fe|d75d4321] (00+00/15) No match
07 [e4f9ade6|97bde6df] (00+00/15) No match
08 [af164f4a|21677987] (00+00/13) No match
Offsetted by 86:
01 [52f3343e] (04/15) Accurately ripped
02 [f1daa25a] (04/15) Accurately ripped
03 [e0906a71] (04/15) Accurately ripped
04 [293bea13] (04/15) Accurately ripped
05 [9a98316e] (04/15) Accurately ripped
06 [1db8dcf4] (04/15) Accurately ripped
07 [9ff8412c] (04/15) Accurately ripped
08 [4feafaf2] (04/13) Accurately ripped
Offsetted by -12:
01 [d246fc08] (00/15) No match (V2 was not tested)
02 [f27a5612] (00/15) No match (V2 was not tested)
03 [a5f8b3d1] (00/15) No match (V2 was not tested)
04 [c034c17f] (00/15) No match (V2 was not tested)
05 [9059322c] (00/15) No match (V2 was not tested)
06 [eac484b2] (00/15) No match (V2 was not tested)
07 [b905c8fa] (00/15) No match (V2 was not tested)
08 [0fb7257a] (00/13) No match (V2 was not tested)

Track Peak [ CRC32 ] [W/O NULL] [ LOG ]
– 88,7 [B8216A77] [B544E456]
01 72,7 [F42CF427] [A00890C9] CRC32
02 88,7 [0ED5E100] [4754A9ED] CRC32
03 86,0 [82F2BAE9] [3B2065F5] CRC32
04 86,8 [F8AD8643] [F8633CCD] CRC32
05 80,6 [60DF12CE] [8BE6D197] CRC32
06 76,6 [5AC701EE] [CBB8327F] CRC32
07 75,7 [FE09CE83] [B4F4A464] CRC32
08 77,1 [14F6DEAD] [4D383DD6] CRC32

Thanks to the original releaser

See also:
Lionel Hampton - Ring Dem Vibes (1976) [Reissue 2000]
Lionel Hampton And His Orchestra - 1937-1938 (1990)
Lionel Hampton And His Orchestra - 1938-1939 (1990)
Lionel Hampton With Oscar Peterson - Verve Jazz Masters 26 (1994)