Madness - Can't Touch Us Now (2016)

Posted By: popsakov
Madness - Can't Touch Us Now (2016)

Madness - Can't Touch Us Now (2016)
EAC Rip | FLAC (Img) + Cue + Log ~ 396 Mb | Scans Included (JPG, 600 dpi) | RAR 5% Recovery
Ska Revival, Pop | Lucky 7 Records / Universal Music #LC 01846 4797617

Madness are back with their first album in 4 years. The album was produced by Clive Langer and Liam Watson and mixed by Brit Award winner Charlie Andrew. Tracks such as ‘Mr Apples’, ‘Mumbo Jumbo’, the Amy Winehouse referencing ‘Blackbird’ and the title track ‘Can’t Touch Us Now’ capture the band’s inimitable combination of pop, reggae and soul influences. As on many of Madness greatest moments, the lyrics are gloriously observational and humorous, beautifully framing life in London.
Madness - Can't Touch Us Now (2016)


***************

Madness - Can't Touch Us Now (2016)

Track List:

01. Can't Touch Us Now [4:15]
02. Good Times [2:54]
03. Mr. Apples [3:39]
04. I Believe [3:45]
05. Grandslam [2:36]
06. Blackbird [4:04]
07. You Are My Everything [4:09]
08. Another Version Of Me [2:41]
09. Mumbo Jumbo [3:24]
10. Herbert [3:58]
11. Don't Leave The Past Behind You [2:46]
12. (Don't Let Them) Catch You Crying [4:11]
13. Pam The Hawk [4:38]
14. Given The Opportunity [3:32]
15. Soul Denying [5:14]
16. Whistle In The Dark [3:32]

Exact Audio Copy V1.1 from 23. June 2015

EAC extraction logfile from 27. October 2016, 18:09

Madness / Can't Touch Us Now

Used drive : Pioneer BDR-209DBK Adapter: 0 ID: 0

Read mode : Secure
Utilize accurate stream : Yes
Defeat audio cache : Yes
Make use of C2 pointers : No

Read offset correction : 6
Overread into Lead-In and Lead-Out : No
Fill up missing offset samples with silence : Yes
Delete leading and trailing silent blocks : No
Null samples used in CRC calculations : Yes
Used interface : Installed external ASPI interface

Used output format : Internal WAV Routines
Sample format : 44.100 Hz; 16 Bit; Stereo


TOC of the extracted CD

Track | Start | Length | Start sector | End sector
––––––––––––––––––––––––––––-
1 | 0:00.00 | 4:14.44 | 0 | 19093
2 | 4:14.44 | 2:54.27 | 19094 | 32170
3 | 7:08.71 | 3:39.22 | 32171 | 48617
4 | 10:48.18 | 3:44.63 | 48618 | 65480
5 | 14:33.06 | 2:36.02 | 65481 | 77182
6 | 17:09.08 | 4:03.73 | 77183 | 95480
7 | 21:13.06 | 4:09.24 | 95481 | 114179
8 | 25:22.30 | 2:41.00 | 114180 | 126254
9 | 28:03.30 | 3:23.72 | 126255 | 141551
10 | 31:27.27 | 3:57.68 | 141552 | 159394
11 | 35:25.20 | 2:46.31 | 159395 | 171875
12 | 38:11.51 | 4:10.57 | 171876 | 190682
13 | 42:22.33 | 4:37.48 | 190683 | 211505
14 | 47:00.06 | 3:31.66 | 211506 | 227396
15 | 50:31.72 | 5:13.47 | 227397 | 250918
16 | 55:45.44 | 3:31.48 | 250919 | 266791


Range status and errors

Selected range

Filename H:\Spotnet\Madness - Can't Touch Us Now (EAC)\Madness - Can't Touch Us Now.wav

Peak level 99.7 %
Extraction speed 7.5 X
Range quality 100.0 %
Test CRC 8F55D7F8
Copy CRC 8F55D7F8
Copy OK

No errors occurred


AccurateRip summary

Track 1 not present in database
Track 2 not present in database
Track 3 not present in database
Track 4 not present in database
Track 5 not present in database
Track 6 not present in database
Track 7 not present in database
Track 8 not present in database
Track 9 not present in database
Track 10 not present in database
Track 11 not present in database
Track 12 not present in database
Track 13 not present in database
Track 14 not present in database
Track 15 not present in database
Track 16 not present in database

None of the tracks are present in the AccurateRip database

End of status report

foobar2000 1.2.6 / Dynamic Range Meter 1.1.1
log date: 2016-10-28 01:39:54

––––––––––––––––––––––––––––––––––––––––
Analyzed: Madness / Can't Touch Us Now
––––––––––––––––––––––––––––––––––––––––

DR Peak RMS Duration Track
––––––––––––––––––––––––––––––––––––––––
DR5 -0.10 dB -7.49 dB 4:15 01-Can't Touch Us Now
DR6 -0.10 dB -6.85 dB 2:54 02-Good Times
DR5 -0.05 dB -6.43 dB 3:39 03-Mr. Apples
DR6 -0.10 dB -7.53 dB 3:45 04-I Believe
DR6 -0.10 dB -7.70 dB 2:36 05-Grandslam
DR5 -0.10 dB -8.21 dB 4:04 06-Blackbird
DR5 -0.10 dB -7.00 dB 4:09 07-You Are My Everything
DR5 -0.10 dB -6.37 dB 2:41 08-Another Version Of Me
DR6 -0.10 dB -6.89 dB 3:24 09-Mumbo Jumbo
DR5 -0.10 dB -7.45 dB 3:58 10-Herbert
DR5 -0.10 dB -6.45 dB 2:46 11-Don't Leave The Past Behind You
DR6 -0.10 dB -7.90 dB 4:11 12-(Don't Let Them) Catch You Crying
DR7 -0.10 dB -8.69 dB 4:38 13-Pam The Hawk
DR6 -0.10 dB -7.35 dB 3:32 14-Given The Opportunity
DR5 -0.03 dB -7.56 dB 5:14 15-Soul Denying
DR6 -0.10 dB -8.36 dB 3:32 16-Whistle In The Dark
––––––––––––––––––––––––––––––––––––––––

Number of tracks: 16
Official DR value: DR6

Samplerate: 44100 Hz
Channels: 2
Bits per sample: 16
Bitrate: 872 kbps
Codec: FLAC
================================================================================

[CUETools log; Date: 28.10.2016 1:39:11; Version: 2.1.5]
[CTDB TOCID: mJyGqQohYM8VOlSNPbhTyqLmYNI-] disk not present in database.
[AccurateRip ID: 00218c37-0193e762-d60de510] disk not present in database.

Track Peak [ CRC32 ] [W/O NULL] [ LOG ]
– 99,7 [8F55D7F8] [7FEF8FA6] CRC32
01 98,8 [8DFFBE21] [48B38FF0]
02 98,8 [78301280] [9CA01E06]
03 99,4 [45A86844] [A65E6C26]
04 98,8 [C4D52BCB] [1F2FC02E]
05 98,8 [4CC0EE06] [67B70355]
06 98,8 [76B33830] [5A73B460]
07 98,8 [3C0758E9] [A2314849]
08 98,8 [A0A9E0F5] [EF0E5A24]
09 98,8 [135FF740] [D6D2E6E6]
10 98,8 [83508311] [4B86C28C]
11 98,8 [021598C8] [1BE39567]
12 98,8 [38D059FF] [0C1D9D36]
13 98,8 [8970B087] [5599AE56]
14 98,8 [21EB5A04] [58BBF73E]
15 99,7 [F7352DDF] [2361D1B0]
16 98,8 [C5D50EB2] [928F40A6]

Madness - Can't Touch Us Now (2016)

All thanks go to the original ripper(s) …

> Visit my blog <

Download:
Nitroflare:
part 1
part 2
NovaFile:
part 1
part 2

KatFile:
part 1
part 2