Subcategories

Marc Minkowski - Jacques Offenbach: Orphee aux Enfers (1998)

Posted By: tirexiss
Marc Minkowski - Jacques Offenbach: Orphee aux Enfers (1998)

Marc Minkowski - Jacques Offenbach: Orphee aux Enfers (1998)
EAC | FLAC (image+.cue, log) | Covers Included | 01:50:14 | 685 MB
Genre: Classical, Opera | Label: EMI Classics | Catalog: 56725

The myth of Orpheus and Eurydice is one of opera's most potent archetypes, the subject of the earliest experiments in the genre by Peri and Monteverdi. But Offenbach's wickedly witty operetta uses it as a vehicle to lampoon stuffy artistic conventions as well as the social and political realities of Paris in the Second Empire. In this sublimely ridiculous scenario, Eurydice is a flighty flirt only too happy to be separated from husband Orpheus, a dullard violin teacher, when Pluto kidnaps her into his realm. At the promptings of the moralistic figure Public Opinion, Orpheus reluctantly plays out the prescribed mythic pattern of trying to reclaim his wife, while a depraved assortment of gods intervenes. The collision here of sacrosanct myth with opera buffa seems almost to anticipate aspects of Strauss's Ariadne auf Naxos; there is, to be sure, no mistaking an artistic lineage that leads to the romps of Gilbert and Sullivan. Marc Minkowski teases Offenbach's over-the-top parodies (an irreverent quote of Gluck's "Che faro senza Eurydice," for example) and stylistic gear-changes into an irresistibly fizzy concoction, using essentially the original 1858 version with additions from the expanded score of 1874. The orchestra brings out the exuberance of Offenbach's persistent dance rhythms–whether waltz based or in the famous can-can galop of the bacchanalian finale–as well as the tune-rich nature of the score. And the cast sparkles, featuring the crystalline acrobatics of Natalie Dessay's Eurydice, Ewa Podles in dusky, scornful contralto as Public Opinion, and Laurent Naouri as a horny Jupiter–to mention just a few of the treats in store here. – Thomas May

Marc Minkowski - Jacques Offenbach: Orphee aux Enfers (1998)

Track List:

CD 1:
1-1 Ouverture 3:05

Act 1:
1-2 Qui Suis-Je? Du Theatre Antique 1:45
1-3 La Femme Dont Le C?ur Reve, Eurydice 2:24
1-4 Il Est Sorti!, Eurydice, Orphee 2:02
1-5 Ah! C'Est Ainsi!, Orphee, Eurydice 5:17
1-6 Oh Venus, Belle Deesse, Eurydice, Orphee 1:22
1-7 J'Ai Peur…, Eurydice 0:25
1-8 Ballet Pastoral 1:45
1-9 Moi, Je Suis Aristee, Chanson D'Aristee 3:37
1-10 Voila! Voila Ce Que Je Dis… 1:27
1-11 Allons! Allons!, Aristee, Eurydice 1:03
1-12 La Mort M'Apparait Souriante, Eurydice 2:17
1-13 Crac! C'Est Bon!, Aristee 1:55
1-14 Libre! O Bonheur!, Orphee, Choeur 2:02
1-15 C'Est L'Opinion Publique, Opinion Publique 1:35
1-16 Viens! Viens! 0:57
1-17 Viens! Viens! C'Est L'Honneur 2:01
1-18 Dormons, Dormons, Choeur 4:46

Act 1: Tableau 2
1-19 Les Heures 2:01
1-20 Par Saturne, Quel Est Ce Bruit? 2:50
1-21 Ah! Pauvre Acteon! 3:22
1-22 Eh Hop! Eh Hop! 2:10
1-23 Et Pluton?, Jupiter, Mercure, Junon 0:53
1-24 Salut Au Puissant Maitre 1:06
1-25 Heureuses Divinites, Air En Prose De Pluton 2:03
1-26 As-Tu Bientot Fini, Jupiter, Pluton 1:25
1-27 Aux Armes, Les Dieux 1:34
1-28 Une Sedition!,Tous 1:19
1-29 Pour Seduire Alcmene 2:27
1-30 Je Suis A Bout De Forces! 1:46
1-31 Il Approche! Il S'Approche! 4:19
1-32 Gloire! Gloire A Jupiter, Tous 2:33

Exact Audio Copy V1.3 from 2. September 2016

EAC extraction logfile from 9. February 2018, 20:09

Marc Minkowski / Jacques Offenbach - Orphée aux Enfers CD1

Used drive : MATSHITADVD-RAM UJ8E1 Adapter: 1 ID: 0

Read mode : Secure
Utilize accurate stream : Yes
Defeat audio cache : Yes
Make use of C2 pointers : No

Read offset correction : 6
Overread into Lead-In and Lead-Out : No
Fill up missing offset samples with silence : Yes
Delete leading and trailing silent blocks : No
Null samples used in CRC calculations : Yes
Used interface : Native Win32 interface for Win NT & 2000

Used output format : User Defined Encoder
Selected bitrate : 1024 kBit/s
Quality : High
Add ID3 tag : No
Command line compressor : C:\Program Files (x86)\Exact Audio Copy\FLAC\FLAC.EXE
Additional command line options : -6 -V -T "ARTIST=%artist%" -T "TITLE=%title%" -T "ALBUM=%albumtitle%" -T "DATE=%year%" -T "TRACKNUMBER=%tracknr%" -T "GENRE=%genre%" -T "COMMENT=%comment%" -T "BAND=%albuminterpret%" -T "ALBUMARTIST=%albuminterpret%" -T "COMPOSER=%composer%" %haslyrics%–tag-from-file=LYRICS="%lyricsfile%"%haslyrics% -T "DISCNUMBER=%cdnumber%" -T "TOTALDISCS=%totalcds%" -T "TOTALTRACKS=%numtracks%" %hascover%–picture="%coverfile%"%hascover% %source% -o %dest%


TOC of the extracted CD

Track | Start | Length | Start sector | End sector
––––––––––––––––––––––––––––-
1 | 0:00.00 | 3:05.37 | 0 | 13911
2 | 3:05.37 | 1:45.20 | 13912 | 21806
3 | 4:50.57 | 2:24.23 | 21807 | 32629
4 | 7:15.05 | 2:01.42 | 32630 | 41746
5 | 9:16.47 | 5:17.25 | 41747 | 65546
6 | 14:33.72 | 1:22.03 | 65547 | 71699
7 | 15:56.00 | 0:24.42 | 71700 | 73541
8 | 16:20.42 | 1:45.00 | 73542 | 81416
9 | 18:05.42 | 3:36.48 | 81417 | 97664
10 | 21:42.15 | 1:26.40 | 97665 | 104154
11 | 23:08.55 | 1:03.00 | 104155 | 108879
12 | 24:11.55 | 2:16.52 | 108880 | 119131
13 | 26:28.32 | 1:54.73 | 119132 | 127754
14 | 28:23.30 | 2:02.27 | 127755 | 136931
15 | 30:25.57 | 1:35.10 | 136932 | 144066
16 | 32:00.67 | 0:57.08 | 144067 | 148349
17 | 32:58.00 | 2:00.40 | 148350 | 157389
18 | 34:58.40 | 4:46.22 | 157390 | 178861
19 | 39:44.62 | 2:01.30 | 178862 | 187966
20 | 41:46.17 | 2:49.70 | 187967 | 200711
21 | 44:36.12 | 3:22.35 | 200712 | 215896
22 | 47:58.47 | 2:10.35 | 215897 | 225681
23 | 50:09.07 | 0:52.38 | 225682 | 229619
24 | 51:01.45 | 1:05.65 | 229620 | 234559
25 | 52:07.35 | 2:02.40 | 234560 | 243749
26 | 54:10.00 | 1:25.20 | 243750 | 250144
27 | 55:35.20 | 1:33.40 | 250145 | 257159
28 | 57:08.60 | 1:19.25 | 257160 | 263109
29 | 58:28.10 | 2:26.67 | 263110 | 274126
30 | 60:55.02 | 1:45.40 | 274127 | 282041
31 | 62:40.42 | 4:19.08 | 282042 | 301474
32 | 66:59.50 | 2:32.55 | 301475 | 312929


Range status and errors

Selected range

Filename C:\Users\Usuario\Desktop\Marc Minkowski - Jacques Offenbach - Orphée aux Enfers CD1.wav

Peak level 100.0 %
Extraction speed 4.8 X
Range quality 100.0 %
Test CRC 25AB32F5
Copy CRC 25AB32F5
Copy OK

No errors occurred


AccurateRip summary

Track 1 accurately ripped (confidence 18) [B009EC97] (AR v2)
Track 2 accurately ripped (confidence 18) [D79D66E7] (AR v2)
Track 3 accurately ripped (confidence 18) [A7F28180] (AR v2)
Track 4 accurately ripped (confidence 18) [E36999E7] (AR v2)
Track 5 accurately ripped (confidence 18) [56B7340C] (AR v2)
Track 6 accurately ripped (confidence 18) [CE0F029A] (AR v2)
Track 7 accurately ripped (confidence 18) [C9122DD3] (AR v2)
Track 8 accurately ripped (confidence 18) [551F3A10] (AR v2)
Track 9 accurately ripped (confidence 18) [EF7C8524] (AR v2)
Track 10 accurately ripped (confidence 18) [22091B7F] (AR v2)
Track 11 accurately ripped (confidence 18) [F2A7860D] (AR v2)
Track 12 accurately ripped (confidence 18) [220A227F] (AR v2)
Track 13 accurately ripped (confidence 18) [98D5C07D] (AR v2)
Track 14 accurately ripped (confidence 17) [B630D0EB] (AR v2)
Track 15 accurately ripped (confidence 18) [35B5B6C7] (AR v2)
Track 16 accurately ripped (confidence 18) [92B64439] (AR v2)
Track 17 accurately ripped (confidence 18) [44608C2F] (AR v2)
Track 18 accurately ripped (confidence 18) [86413C29] (AR v2)
Track 19 accurately ripped (confidence 17) [BF1A1B00] (AR v2)
Track 20 accurately ripped (confidence 18) [367D3CBE] (AR v2)
Track 21 accurately ripped (confidence 18) [357AFFC1] (AR v2)
Track 22 accurately ripped (confidence 18) [2E90D26A] (AR v2)
Track 23 accurately ripped (confidence 18) [6F06C31B] (AR v2)
Track 24 accurately ripped (confidence 18) [81C3650C] (AR v2)
Track 25 accurately ripped (confidence 18) [D387CB35] (AR v2)
Track 26 accurately ripped (confidence 18) [471E1385] (AR v2)
Track 27 accurately ripped (confidence 17) [13832D3C] (AR v2)
Track 28 accurately ripped (confidence 17) [C1EE5D98] (AR v2)
Track 29 accurately ripped (confidence 18) [1BBCA930] (AR v2)
Track 30 accurately ripped (confidence 18) [58CF9250] (AR v2)
Track 31 accurately ripped (confidence 16) [3D531781] (AR v2)
Track 32 accurately ripped (confidence 17) [F346C7FD] (AR v2)

All tracks accurately ripped

End of status report

–– CUETools DB Plugin V2.1.6

[CTDB TOCID: vE3eX4eu1cZlRRjf.L8LnBi0Woo-] found
Submit result: vE3eX4eu1cZlRRjf.L8LnBi0Woo- has been confirmed
Track | CTDB Status
1 | (40/48) Accurately ripped
2 | (40/48) Accurately ripped
3 | (40/48) Accurately ripped
4 | (40/48) Accurately ripped
5 | (40/48) Accurately ripped
6 | (40/48) Accurately ripped
7 | (40/48) Accurately ripped
8 | (40/48) Accurately ripped
9 | (40/48) Accurately ripped
10 | (40/48) Accurately ripped
11 | (39/48) Accurately ripped
12 | (39/48) Accurately ripped
13 | (39/48) Accurately ripped
14 | (37/48) Accurately ripped
15 | (39/48) Accurately ripped
16 | (39/48) Accurately ripped
17 | (40/48) Accurately ripped
18 | (40/48) Accurately ripped
19 | (38/48) Accurately ripped
20 | (38/48) Accurately ripped
21 | (38/48) Accurately ripped
22 | (38/48) Accurately ripped
23 | (38/48) Accurately ripped
24 | (38/48) Accurately ripped
25 | (38/48) Accurately ripped
26 | (38/48) Accurately ripped
27 | (38/48) Accurately ripped
28 | (40/48) Accurately ripped
29 | (37/48) Accurately ripped
30 | (40/48) Accurately ripped
31 | (37/48) Accurately ripped
32 | (40/48) Accurately ripped


==== Log checksum D967A1F18427A6C4168335A7EE794C7F26FDE1D92A88BED1338E10C7291D30A1 ====

[CUETools log; Date: 14.02.2018 11:38:13; Version: 2.1.5]
[CTDB TOCID: vE3eX4eu1cZlRRjf.L8LnBi0Woo-] found.
Track | CTDB Status
1 | (42/50) Accurately ripped
2 | (42/50) Accurately ripped
3 | (42/50) Accurately ripped
4 | (42/50) Accurately ripped
5 | (42/50) Accurately ripped
6 | (42/50) Accurately ripped
7 | (42/50) Accurately ripped
8 | (42/50) Accurately ripped
9 | (42/50) Accurately ripped
10 | (42/50) Accurately ripped
11 | (41/50) Accurately ripped
12 | (41/50) Accurately ripped
13 | (41/50) Accurately ripped
14 | (39/50) Accurately ripped
15 | (41/50) Accurately ripped
16 | (41/50) Accurately ripped
17 | (42/50) Accurately ripped
18 | (42/50) Accurately ripped
19 | (40/50) Accurately ripped
20 | (40/50) Accurately ripped
21 | (40/50) Accurately ripped
22 | (40/50) Accurately ripped
23 | (40/50) Accurately ripped
24 | (40/50) Accurately ripped
25 | (40/50) Accurately ripped
26 | (40/50) Accurately ripped
27 | (40/50) Accurately ripped
28 | (42/50) Accurately ripped
29 | (39/50) Accurately ripped
30 | (42/50) Accurately ripped
31 | (39/50) Accurately ripped
32 | (42/50) Accurately ripped
[AccurateRip ID: 004f6abb-06f46574-c8104c20] found.
Track [ CRC | V2 ] Status
01 [3690dce3|b009ec97] (13+18/52) Accurately ripped
02 [4d00a881|d79d66e7] (13+18/52) Accurately ripped
03 [5f30f8be|a7f28180] (13+18/52) Accurately ripped
04 [9ba595b6|e36999e7] (13+18/52) Accurately ripped
05 [6f840308|56b7340c] (13+18/52) Accurately ripped
06 [5e379c8f|ce0f029a] (13+18/52) Accurately ripped
07 [038246f2|c9122dd3] (13+18/52) Accurately ripped
08 [bae2eaa8|551f3a10] (13+18/52) Accurately ripped
09 [bcc13908|ef7c8524] (13+18/52) Accurately ripped
10 [ba356e65|22091b7f] (13+18/52) Accurately ripped
11 [560fa55a|f2a7860d] (13+18/52) Accurately ripped
12 [048f51eb|220a227f] (13+18/52) Accurately ripped
13 [02f268a7|98d5c07d] (13+18/52) Accurately ripped
14 [03bace1c|b630d0eb] (13+17/51) Accurately ripped
15 [07e540fa|35b5b6c7] (13+18/52) Accurately ripped
16 [6d0ffa6d|92b64439] (13+18/52) Accurately ripped
17 [d53f6e85|44608c2f] (13+18/52) Accurately ripped
18 [cb6ee810|86413c29] (13+18/52) Accurately ripped
19 [a83e7775|bf1a1b00] (13+17/51) Accurately ripped
20 [681b34f0|367d3cbe] (14+18/53) Accurately ripped
21 [eaa3f76c|357affc1] (14+18/53) Accurately ripped
22 [45ce90b6|2e90d26a] (14+18/53) Accurately ripped
23 [3ecf39cf|6f06c31b] (14+18/53) Accurately ripped
24 [7a1523a3|81c3650c] (13+18/52) Accurately ripped
25 [1474c9df|d387cb35] (14+18/53) Accurately ripped
26 [2fa8e5fe|471e1385] (14+18/53) Accurately ripped
27 [66dff18d|13832d3c] (14+17/52) Accurately ripped
28 [6e671a55|c1ee5d98] (14+17/52) Accurately ripped
29 [a1256728|1bbca930] (14+18/53) Accurately ripped
30 [0d68e989|58cf9250] (14+18/53) Accurately ripped
31 [b54db2ba|3d531781] (13+16/50) Accurately ripped
32 [e9f4820a|f346c7fd] (14+17/51) Accurately ripped
Offsetted by -267:
01 [201bbb79] (11/52) Accurately ripped
02 [57ef3fe1] (11/52) Accurately ripped
03 [46a59d1d] (11/52) Accurately ripped
04 [33492516] (11/52) Accurately ripped
05 [65bd408c] (11/52) Accurately ripped
06 [75d3d8a9] (11/52) Accurately ripped
07 [17943c40] (11/52) Accurately ripped
08 [77bd4b77] (11/52) Accurately ripped
09 [5093c3b1] (11/52) Accurately ripped
10 [1971a005] (11/52) Accurately ripped
11 [b5d96289] (11/52) Accurately ripped
12 [93c5b031] (11/52) Accurately ripped
13 [981f4dfc] (11/52) Accurately ripped
14 [1c376d38] (11/51) Accurately ripped
15 [d59c697c] (11/52) Accurately ripped
16 [65cf91c6] (11/52) Accurately ripped
17 [b5c86f47] (11/52) Accurately ripped
18 [c8821050] (11/52) Accurately ripped
19 [e77fed02] (11/51) Accurately ripped
20 [d1afcb10] (11/53) Accurately ripped
21 [260b53cb] (11/53) Accurately ripped
22 [d55e5804] (11/53) Accurately ripped
23 [14da67db] (11/53) Accurately ripped
24 [409bd960] (11/52) Accurately ripped
25 [b2c55c07] (11/53) Accurately ripped
26 [980ceffe] (11/53) Accurately ripped
27 [00b61c65] (11/52) Accurately ripped
28 [817afddb] (11/52) Accurately ripped
29 [c0316a23] (11/53) Accurately ripped
30 [55dcbdf5] (11/53) Accurately ripped
31 [99863930] (11/50) Accurately ripped
32 [6bb1a341] (10/51) Accurately ripped
Offsetted by -24:
01 [7e2f8b67] (00/52) No match (V2 was not tested)
02 [90cba258] (00/52) No match (V2 was not tested)
03 [cd5e2bb2] (00/52) No match (V2 was not tested)
04 [94b42954] (00/52) No match (V2 was not tested)
05 [4d1c1a09] (00/52) No match (V2 was not tested)
06 [6bdf08ad] (00/52) No match (V2 was not tested)
07 [53a753b4] (00/52) No match (V2 was not tested)
08 [1d97b191] (00/52) No match (V2 was not tested)
09 [af4081ea] (00/52) No match (V2 was not tested)
10 [54d80571] (00/52) No match (V2 was not tested)
11 [399999a4] (00/52) No match (V2 was not tested)
12 [f6ae6ad5] (00/52) No match (V2 was not tested)
13 [b6e37da5] (00/52) No match (V2 was not tested)
14 [24a11ccb] (00/51) No match (V2 was not tested)
15 [ac4044a1] (00/52) No match (V2 was not tested)
16 [2780aa9e] (00/52) No match (V2 was not tested)
17 [0815e5ed] (00/52) No match (V2 was not tested)
18 [0d688677] (00/52) No match (V2 was not tested)
19 [ba1833a4] (00/51) No match (V2 was not tested)
20 [dd0934af] (00/53) No match (V2 was not tested)
21 [f4c8d8ea] (00/53) No match (V2 was not tested)
22 [8a786b33] (00/53) No match (V2 was not tested)
23 [ca233d71] (00/53) No match (V2 was not tested)
24 [24a07a25] (00/52) No match (V2 was not tested)
25 [93384dde] (00/53) No match (V2 was not tested)
26 [730a35c3] (00/53) No match (V2 was not tested)
27 [17be03b8] (00/52) No match (V2 was not tested)
28 [2c1d9f6b] (00/52) No match (V2 was not tested)
29 [ba132b85] (00/53) No match (V2 was not tested)
30 [49062ba6] (00/53) No match (V2 was not tested)
31 [3c24a4b9] (00/50) No match (V2 was not tested)
32 [53b6a162] (00/51) No match (V2 was not tested)

Track Peak [ CRC32 ] [W/O NULL] [ LOG ]
– 100,0 [25AB32F5] [89C587BB] CRC32
01 58,1 [D3AA0DD6] [C60B392C]
02 64,9 [C14DFF2E] [9BC556BC]
03 71,4 [CC897ECB] [23BFFE0B]
04 70,7 [A464E2FC] [8C4381CA]
05 100,0 [06929B42] [6E30C7AF]
06 32,0 [A6E71266] [5DB623F3]
07 18,4 [AB9D1BD5] [0E929072]
08 64,2 [1C9E278A] [366D21DF]
09 56,0 [78E7B038] [90448E5D]
10 73,7 [816FF0E7] [18929E14]
11 89,2 [027E8AD6] [9A3DF596]
12 50,2 [A18EDB90] [88CE3FAF]
13 86,1 [3CAD760A] [F24E6737]
14 94,0 [F9694C38] [2C198EE9]
15 83,8 [29FEB26D] [0B73A797]
16 66,6 [59485E67] [BB19DCDA]
17 77,4 [5DEFBD19] [841820B2]
18 46,2 [68AC8B47] [41B2402F]
19 41,2 [5D526C5B] [0EB7B60E]
20 96,7 [44922B70] [A63E79A7]
21 80,1 [4ECCD026] [1E23830A]
22 73,9 [DB48BA9D] [A25EA478]
23 100,0 [1DF08B62] [37603DF9]
24 60,0 [2154CEF7] [EAD6F60E]
25 68,0 [F5CC15BB] [08ED118C]
26 72,5 [5BA45E43] [E6D54EEF]
27 99,1 [284D80A6] [EC72936A]
28 69,0 [42EF6D69] [558F5F85]
29 98,9 [A2DC4BD0] [1E1BCAF0]
30 57,4 [FC7211A0] [82027E99]
31 87,7 [06FBDBEF] [30BAB3C2]
32 94,0 [4001BED6] [152C8052]

CD 2:
Act 1: Tableau 3
2-1 Entr'Acte 0:50
2-2 Ah ! Quelle Triste Destinee 2:10
2-3 Voila Deux Jours Que Je Suis Seule 1:54
2-4 Quand J'Etais Roi De Beotie 1:43
2-5 Va-T'En, Je Te Dis, Tu Sens Le Vin 4:24
2-6 Pour Attirer Du Fond De Sa Retraite 2:45
2-7 A La Une… A La Deux… A La Trois 0:11
2-8 Il M'A Semble Sur Mon Epaule 5:00
2-9 Ah, Je Le Savais Bien 3:11
2-10 Ballet Des Mouches (Galop) 1:52

Act 1: Tableau 4
2-11 Entr'Acte 2 0:59
2-12 Vive Le Vin! Vive Pluton! 2:04
2-13 Allons, Ma Belle Bacchante 1:01
2-14 J'Ai Vu Le Dieu Bacchus 2:15
2-15 Maintenant, Je Veux 1:17
2-16 La La La. Le Menuet N'Est Vraiment Si Charmant 1:24
2-17 Ce Bal Est Original 1:48
2-18 Et Maintenant, Fuyons 0:56
2-19 La Position Se Tend 1:22
2-20 Oui, Je Suis Convaincu 1:00
2-21 Ne Regarde Pas En Arriere! 2:36

Exact Audio Copy V1.3 from 2. September 2016

EAC extraction logfile from 9. February 2018, 21:07

Marc Minkowski / Jacques Offenbach - Orphée aux Enfers CD2

Used drive : MATSHITADVD-RAM UJ8E1 Adapter: 1 ID: 0

Read mode : Secure
Utilize accurate stream : Yes
Defeat audio cache : Yes
Make use of C2 pointers : No

Read offset correction : 6
Overread into Lead-In and Lead-Out : No
Fill up missing offset samples with silence : Yes
Delete leading and trailing silent blocks : No
Null samples used in CRC calculations : Yes
Used interface : Native Win32 interface for Win NT & 2000

Used output format : User Defined Encoder
Selected bitrate : 1024 kBit/s
Quality : High
Add ID3 tag : No
Command line compressor : C:\Program Files (x86)\Exact Audio Copy\FLAC\FLAC.EXE
Additional command line options : -6 -V -T "ARTIST=%artist%" -T "TITLE=%title%" -T "ALBUM=%albumtitle%" -T "DATE=%year%" -T "TRACKNUMBER=%tracknr%" -T "GENRE=%genre%" -T "COMMENT=%comment%" -T "BAND=%albuminterpret%" -T "ALBUMARTIST=%albuminterpret%" -T "COMPOSER=%composer%" %haslyrics%–tag-from-file=LYRICS="%lyricsfile%"%haslyrics% -T "DISCNUMBER=%cdnumber%" -T "TOTALDISCS=%totalcds%" -T "TOTALTRACKS=%numtracks%" %hascover%–picture="%coverfile%"%hascover% %source% -o %dest%


TOC of the extracted CD

Track | Start | Length | Start sector | End sector
––––––––––––––––––––––––––––-
1 | 0:00.32 | 0:49.48 | 32 | 3754
2 | 0:50.05 | 2:09.50 | 3755 | 13479
3 | 2:59.55 | 1:54.27 | 13480 | 22056
4 | 4:54.07 | 1:43.05 | 22057 | 29786
5 | 6:37.12 | 4:24.23 | 29787 | 49609
6 | 11:01.35 | 2:45.10 | 49610 | 61994
7 | 13:46.45 | 0:10.37 | 61995 | 62781
8 | 13:57.07 | 5:00.30 | 62782 | 85311
9 | 18:57.37 | 3:11.00 | 85312 | 99636
10 | 22:08.37 | 1:51.68 | 99637 | 108029
11 | 24:00.30 | 0:59.10 | 108030 | 112464
12 | 24:59.40 | 2:04.32 | 112465 | 121796
13 | 27:03.72 | 1:00.53 | 121797 | 126349
14 | 28:04.50 | 2:14.45 | 126350 | 136444
15 | 30:19.20 | 1:17.30 | 136445 | 142249
16 | 31:36.50 | 1:24.10 | 142250 | 148559
17 | 33:00.60 | 1:47.45 | 148560 | 156629
18 | 34:48.30 | 0:56.07 | 156630 | 160836
19 | 35:44.37 | 1:21.73 | 160837 | 166984
20 | 37:06.35 | 1:00.20 | 166985 | 171504
21 | 38:06.55 | 2:36.22 | 171505 | 183226


Range status and errors

Selected range

Filename C:\Users\Usuario\Desktop\Marc Minkowski - Jacques Offenbach - Orphée aux Enfers CD2.wav

Peak level 97.0 %
Extraction speed 1.8 X
Range quality 100.0 %
Test CRC 0BB24908
Copy CRC 0BB24908
Copy OK

No errors occurred


AccurateRip summary

Track 1 accurately ripped (confidence 21) [8EAABCD2] (AR v2)
Track 2 accurately ripped (confidence 21) [5BB2A1E8] (AR v2)
Track 3 accurately ripped (confidence 21) [41B71514] (AR v2)
Track 4 accurately ripped (confidence 21) [773BEE0C] (AR v2)
Track 5 accurately ripped (confidence 21) [3E4A47CC] (AR v2)
Track 6 accurately ripped (confidence 20) [87C17871] (AR v2)
Track 7 accurately ripped (confidence 21) [628640C6] (AR v2)
Track 8 accurately ripped (confidence 21) [EB1106AD] (AR v2)
Track 9 accurately ripped (confidence 21) [07C8EE74] (AR v2)
Track 10 accurately ripped (confidence 21) [DAE191AE] (AR v2)
Track 11 accurately ripped (confidence 21) [0626F00F] (AR v2)
Track 12 accurately ripped (confidence 21) [AD8CAC61] (AR v2)
Track 13 accurately ripped (confidence 21) [66413DC8] (AR v2)
Track 14 accurately ripped (confidence 21) [098148D4] (AR v2)
Track 15 accurately ripped (confidence 21) [AA79C724] (AR v2)
Track 16 accurately ripped (confidence 21) [20C510FE] (AR v2)
Track 17 accurately ripped (confidence 21) [A64E8BF4] (AR v2)
Track 18 accurately ripped (confidence 21) [1F5E80DE] (AR v2)
Track 19 accurately ripped (confidence 21) [046D0820] (AR v2)
Track 20 accurately ripped (confidence 21) [67E9DEE5] (AR v2)
Track 21 accurately ripped (confidence 21) [F3357A3F] (AR v2)

All tracks accurately ripped

End of status report

–– CUETools DB Plugin V2.1.6

[CTDB TOCID: 43u7mj3ezeTATL8Xen3.OHZDxZc-] found
Submit result: 43u7mj3ezeTATL8Xen3.OHZDxZc- has been confirmed
Track | CTDB Status
1 | (36/36) Accurately ripped
2 | (36/36) Accurately ripped
3 | (36/36) Accurately ripped
4 | (36/36) Accurately ripped
5 | (36/36) Accurately ripped
6 | (36/36) Accurately ripped
7 | (36/36) Accurately ripped
8 | (36/36) Accurately ripped
9 | (36/36) Accurately ripped
10 | (36/36) Accurately ripped
11 | (36/36) Accurately ripped
12 | (36/36) Accurately ripped
13 | (36/36) Accurately ripped
14 | (36/36) Accurately ripped
15 | (35/36) Accurately ripped
16 | (35/36) Accurately ripped
17 | (35/36) Accurately ripped
18 | (36/36) Accurately ripped
19 | (36/36) Accurately ripped
20 | (36/36) Accurately ripped
21 | (36/36) Accurately ripped


==== Log checksum 6D4EE81BA9EE92A2329377E81CB716547CA7F44BBAFA72C23683A0B200481186 ====

[CUETools log; Date: 14.02.2018 11:38:32; Version: 2.1.5]
Pregap length 00:00:32.
[CTDB TOCID: 43u7mj3ezeTATL8Xen3.OHZDxZc-] found.
Track | CTDB Status
1 | (38/38) Accurately ripped
2 | (38/38) Accurately ripped
3 | (38/38) Accurately ripped
4 | (38/38) Accurately ripped
5 | (38/38) Accurately ripped
6 | (38/38) Accurately ripped
7 | (38/38) Accurately ripped
8 | (38/38) Accurately ripped
9 | (38/38) Accurately ripped
10 | (38/38) Accurately ripped
11 | (38/38) Accurately ripped
12 | (38/38) Accurately ripped
13 | (38/38) Accurately ripped
14 | (38/38) Accurately ripped
15 | (37/38) Accurately ripped
16 | (37/38) Accurately ripped
17 | (37/38) Accurately ripped
18 | (38/38) Accurately ripped
19 | (38/38) Accurately ripped
20 | (38/38) Accurately ripped
21 | (38/38) Accurately ripped
[AccurateRip ID: 00210348-01f58af8-2d098b15] found.
Track [ CRC | V2 ] Status
01 [0d1de93f|8eaabcd2] (17+21/54) Accurately ripped
02 [52e2dec7|5bb2a1e8] (17+21/55) Accurately ripped
03 [dd537c34|41b71514] (17+21/55) Accurately ripped
04 [b9870a66|773bee0c] (17+21/55) Accurately ripped
05 [4f88a066|3e4a47cc] (17+21/55) Accurately ripped
06 [f1d9da78|87c17871] (17+20/54) Accurately ripped
07 [6658ed33|628640c6] (17+21/55) Accurately ripped
08 [77de2860|eb1106ad] (17+21/55) Accurately ripped
09 [b3f65bf0|07c8ee74] (17+21/55) Accurately ripped
10 [05ec5052|dae191ae] (17+21/55) Accurately ripped
11 [d4c7aca3|0626f00f] (17+21/55) Accurately ripped
12 [691dbe41|ad8cac61] (17+21/55) Accurately ripped
13 [7e3867e3|66413dc8] (17+21/55) Accurately ripped
14 [8e261936|098148d4] (17+21/55) Accurately ripped
15 [0e4c1af6|aa79c724] (17+21/55) Accurately ripped
16 [601317cd|20c510fe] (17+21/55) Accurately ripped
17 [ee186ff5|a64e8bf4] (17+21/55) Accurately ripped
18 [7bbba2b1|1f5e80de] (17+21/55) Accurately ripped
19 [3b025994|046d0820] (17+21/54) Accurately ripped
20 [918a851e|67e9dee5] (17+21/54) Accurately ripped
21 [16afea65|f3357a3f] (17+21/55) Accurately ripped
Offsetted by -1171:
01 [c71c5e5e] (03/54) Accurately ripped
02 [fbd62d41] (03/55) Accurately ripped
03 [eeb2fa77] (03/55) Accurately ripped
04 [71110843] (03/55) Accurately ripped
05 [77c7c207] (03/55) Accurately ripped
06 [45bff016] (03/54) Accurately ripped
07 [1418ac6f] (03/55) Accurately ripped
08 [1ca93b16] (03/55) Accurately ripped
09 [098b225f] (03/55) Accurately ripped
10 [8c93d717] (03/55) Accurately ripped
11 [a6ce593d] (03/55) Accurately ripped
12 [30ef6c1c] (03/55) Accurately ripped
13 [de88a8e5] (03/55) Accurately ripped
14 [76708319] (03/55) Accurately ripped
15 [a67a7147] (03/55) Accurately ripped
16 [a1d73efe] (03/55) Accurately ripped
17 [34fa3bcc] (03/55) Accurately ripped
18 [7e542254] (03/55) Accurately ripped
19 [54a4f98a] (03/54) Accurately ripped
20 [c50dab13] (03/54) Accurately ripped
21 [6d16e971] (03/55) Accurately ripped
Offsetted by -933:
01 [3059ec24] (02/54) Accurately ripped
02 [792190be] (02/55) Accurately ripped
03 [795bebae] (02/55) Accurately ripped
04 [71953da3] (02/55) Accurately ripped
05 [4c3946c4] (02/55) Accurately ripped
06 [c77d10fe] (02/54) Accurately ripped
07 [2da1632d] (02/55) Accurately ripped
08 [f1eb258e] (02/55) Accurately ripped
09 [b8af2a4a] (02/55) Accurately ripped
10 [cfc118f1] (02/55) Accurately ripped
11 [7695b6b2] (02/55) Accurately ripped
12 [dd7191f9] (02/55) Accurately ripped
13 [f5c741e5] (02/55) Accurately ripped
14 [3cb38b80] (02/55) Accurately ripped
15 [cb2b5fad] (02/55) Accurately ripped
16 [8397a4a4] (02/55) Accurately ripped
17 [e0d09cda] (02/55) Accurately ripped
18 [f899eab1] (02/55) Accurately ripped
19 [d4a6ccf9] (02/54) Accurately ripped
20 [16bb0613] (02/54) Accurately ripped
21 [955bf07b] (02/55) Accurately ripped
Offsetted by -266:
01 [71ecf2b7] (05/54) Accurately ripped
02 [8ec26c1c] (06/55) Accurately ripped
03 [7c97526d] (06/55) Accurately ripped
04 [51ba3ed2] (06/55) Accurately ripped
05 [b04cf2e5] (06/55) Accurately ripped
06 [8292bfb5] (06/54) Accurately ripped
07 [b089e183] (06/55) Accurately ripped
08 [81135dac] (06/55) Accurately ripped
09 [dfb20a9f] (06/55) Accurately ripped
10 [46f6a3f3] (06/55) Accurately ripped
11 [c13e2626] (06/55) Accurately ripped
12 [50e46279] (06/55) Accurately ripped
13 [f3d5344c] (06/55) Accurately ripped
14 [a9a8b9da] (06/55) Accurately ripped
15 [aac4c0cb] (06/55) Accurately ripped
16 [2b07bd7a] (06/55) Accurately ripped
17 [1a416cf8] (06/55) Accurately ripped
18 [8691c1dc] (06/55) Accurately ripped
19 [3face9b2] (05/54) Accurately ripped
20 [f3b58759] (05/54) Accurately ripped
21 [db9d4877] (06/55) Accurately ripped
Offsetted by -24:
01 [c056331f] (00/54) No match (V2 was not tested)
02 [c9e88967] (00/55) No match (V2 was not tested)
03 [ea21c3f9] (00/55) No match (V2 was not tested)
04 [f55bc0a7] (00/55) No match (V2 was not tested)
05 [36d8a778] (00/55) No match (V2 was not tested)
06 [dc56f9fc] (00/54) No match (V2 was not tested)
07 [9bb282a0] (00/55) No match (V2 was not tested)
08 [320c0a98] (00/55) No match (V2 was not tested)
09 [bebc396b] (00/55) No match (V2 was not tested)
10 [4d8ab9b5] (00/55) No match (V2 was not tested)
11 [1e4c44a4] (00/55) No match (V2 was not tested)
12 [eb980e0f] (00/55) No match (V2 was not tested)
13 [76d8952a] (00/55) No match (V2 was not tested)
14 [3c490022] (00/55) No match (V2 was not tested)
15 [ec1a5b0b] (00/55) No match (V2 was not tested)
16 [2daec689] (00/55) No match (V2 was not tested)
17 [ff7dd90d] (00/55) No match (V2 was not tested)
18 [609bd6d9] (00/55) No match (V2 was not tested)
19 [d6c2711f] (00/54) No match (V2 was not tested)
20 [d449d200] (00/54) No match (V2 was not tested)
21 [06e8870e] (00/55) No match (V2 was not tested)

Track Peak [ CRC32 ] [W/O NULL] [ LOG ]
– 97,0 [0BB24908] [99FA9758] CRC32
01 64,4 [356FF4D9] [0CA95DBA]
02 95,1 [F5BAE5F3] [E0A43FCD]
03 82,5 [09D8F1CC] [4A4CE754]
04 64,9 [6EDE6968] [2C449303]
05 76,6 [BD480CF2] [24070CA7]
06 81,4 [43A3A34C] [B6768638]
07 35,3 [86D0142B] [AC09F140]
08 76,0 [5E9562F5] [C89FAAAB]
09 86,4 [FCDCCEF9] [FC135721]
10 83,6 [B83DB887] [684B9BA2]
11 31,5 [13D2C14A] [A4E960FF]
12 91,1 [703238D0] [93580BF7]
13 43,3 [219534AB] [0DCC3A99]
14 74,3 [AD179843] [B80B628D]
15 33,7 [CF729B88] [960872B3]
16 53,4 [49DD1517] [EF7B5466]
17 83,9 [BE1BB21E] [5663A9CE]
18 52,2 [B7B41E5A] [6C0C3C2C]
19 57,9 [B62E8F41] [643A27CC]
20 83,5 [7C4C21A8] [B20EA01F]
21 97,0 [7239E82C] [BA05FB05]

Thanks to the Original ripper (unknown)!

Download: