Subcategories

Maria João Pires, Wiener Philharmoniker, Claudio Abbado - Mozart: Piano Concertos Nos. 14 & 26 (1993)

Posted By: tirexiss
Maria João Pires, Wiener Philharmoniker, Claudio Abbado - Mozart: Piano Concertos Nos. 14 & 26 (1993)

Maria João Pires, Wiener Philharmoniker, Claudio Abbado - Mozart: Piano Concertos Nos. 14 & 26 (1993)
EAC | FLAC (image+.cue, log) - 241 MB | MP3 (CBR 320 kbps) - 149 MB | Covers + Digital Booklet | 52:00
Genre: Classical | Label: Deutsche Grammophon | Catalog: 4375292

Maria-Joào Pires has recorded these concertos before, for Erato, and this experience shows in assured playing. In K449 I find the sound of the Vienna Philharmonic, recorded in Vienna's Musikverein, too big: the string section seems large and the hall over-reverberant. Furthermore, the piano sounds plummy, and even those who dislike the fortepiano may question its suitability. With these reservations, one can enjoy Pires's deft and sensitive performance, without strong individuality but offering consistent intelligence, and the brisk finale shows her and Abbado at their best. Even so, this is a romanticized slow movement; the gooey orchestral sound does not help, but the pianist is also partly responsible in a way that I have sometimes noted in her performances of Mozart's sonatas.
The Coronation Concerto earns more praise. This was recorded at a Salzburg concert (there is applause), and the sound is more to scale, though having the necessary weight in the bigger passages with trumpets and timpani. The first movement has ample energy, although it could offer more feminine grace in the second subject. The piano sounds good here, and the instrument is well balanced with the orchestra, as demonstrated by the exchanges in the first movement's development section, while Paul Badura-Skoda's cadenza is effective and well managed. The elegant little slow movement has charm and the gavotte-like finale dances along well.

Maria João Pires, Wiener Philharmoniker, Claudio Abbado - Mozart: Piano Concertos Nos. 14 & 26 (1993)

Track List:

Konzert fur Klavier und Orchester Nr.14 Es-dur KV 449
1. I. Allegro vivace
2. II. Andantino
3. III. Allegro ma non troppo

Konzert fur Klavier und Orchester Nr.26 D-dur KV 537 'Kronungskonzert'
4. I. Allegro
5. II. [Larghetto]
6. III. [Allegretto]

Performers:
Maria João Pires, piano
Wiener Philharmoniker
Claudio Abbado, conductor

Exact Audio Copy V1.0 beta 1 from 15. November 2010

EAC extraction logfile from 1. September 2013, 20:43

Wolfgang Amadeus Mozart / Piano Concertos Nos.14 & 26

Used drive : Optiarc DVD RW AD-7203A Adapter: 4 ID: 1

Read mode : Secure
Utilize accurate stream : Yes
Defeat audio cache : Yes
Make use of C2 pointers : No

Read offset correction : 48
Overread into Lead-In and Lead-Out : No
Fill up missing offset samples with silence : Yes
Delete leading and trailing silent blocks : No
Null samples used in CRC calculations : Yes
Used interface : Native Win32 interface for Win NT & 2000

Used output format : User Defined Encoder
Selected bitrate : 128 kBit/s
Quality : High
Add ID3 tag : No
Command line compressor : C:\Program Files\FLAC\flac.exe
Additional command line options : -T "COMMENT=Ripped by GFox" -8 -V %s


TOC of the extracted CD

Track | Start | Length | Start sector | End sector
––––––––––––––––––––––––––––-
1 | 0:00.32 | 8:34.00 | 32 | 38581
2 | 8:34.32 | 6:51.00 | 38582 | 69406
3 | 15:25.32 | 6:13.00 | 69407 | 97381
4 | 21:38.32 | 14:08.00 | 97382 | 160981
5 | 35:46.32 | 5:38.00 | 160982 | 186331
6 | 41:24.32 | 10:36.00 | 186332 | 234031


Range status and errors

Selected range

Filename D:\EAC\Wolfgang Amadeus Mozart - Piano Concertos Nos.14 & 26.wav

Peak level 98.4 %
Extraction speed 0.8 X
Range quality 99.9 %
Test CRC ACC1EAC5
Copy CRC ACC1EAC5
Copy OK

No errors occurred


AccurateRip summary

Track 1 accurately ripped (confidence 58) [0DC51E7C]
Track 2 accurately ripped (confidence 58) [087B10F8]
Track 3 accurately ripped (confidence 57) [E5EDB26E]
Track 4 accurately ripped (confidence 59) [EAB439AE]
Track 5 accurately ripped (confidence 59) [7FB26A7C]
Track 6 accurately ripped (confidence 59) [0AB0B61E]

All tracks accurately ripped

End of status report

==== Log checksum 08107D65EE08DFAE335E054E62BADBABFB07E10E494F18B91EB13E0D6F9DEC89 ====

[CUETools log; Date: 30.10.2016 11:13:33; Version: 2.1.5]
Pregap length 00:00:32.
[CTDB TOCID: Sz4IicB0KfZGAHCOWfa9X3.hqOs-] found.
Track | CTDB Status
1 | (77/77) Accurately ripped
2 | (77/77) Accurately ripped
3 | (77/77) Accurately ripped
4 | (74/77) Accurately ripped
5 | (77/77) Accurately ripped
6 | (77/77) Accurately ripped

[AccurateRip ID: 000c013d-0040a327-470c3006] found.
Track [ CRC | V2 ] Status
01 [0dc51e7c|8fb76317] (025+103/171) Accurately ripped
02 [087b10f8|ba970904] (025+103/171) Accurately ripped
03 [e5edb26e|6718a63c] (025+102/170) Accurately ripped
04 [eab439ae|b08982de] (025+104/173) Accurately ripped
05 [7fb26a7c|c77e2f27] (025+104/173) Accurately ripped
06 [0ab0b61e|5fae25bf] (025+104/173) Accurately
ripped
Offsetted by 655:
01 [d98161ef] (013/171) Accurately ripped
02 [ebee9eda] (013/171) Accurately ripped
03 [7b5841cf] (013/170) Accurately ripped
04 [df0a0399] (013/173) Accurately ripped
05 [5b4cf27c] (013/173) Accurately ripped
06 [31ac82ce] (013/173) Accurately ripped
Offsetted by 664:
01 [af4d6ed1] (003/171) Accurately ripped
02 [f9aa5f34] (003/171) Accurately ripped
03 [d6eab655] (003/170) Accurately ripped
04 [40401e4a] (003/173) Accurately ripped
05 [5a5d8c2a] (003/173) Accurately ripped
06 [5505700c] (003/173) Accurately ripped

Offsetted by -12:
01 [33ddff57] (000/171) No match (V2 was not tested)
02 [53456a83] (000/171) No match (V2 was not tested)
03 [2d1fe8b2] (000/170) No match (V2 was not tested)
04 [974a4da3] (000/173) No match (V2 was not tested)
05 [16b75009] (000/173) No match (V2 was not tested)
06 [edae3d88] (000/173) No match (V2 was not tested)

Track Peak [ CRC32 ] [W/O NULL] [ LOG ]
– 98,4 [ACC1EAC5] [0B659B93] CRC32
01 87,6 [DFC23AAC] [60DED72F]
02 65,0 [F1F16941] [7A7C65D0]
03 88,1 [30687228] [D31EBFE2]
04 97,2 [0552EFE1] [98F30EE0]
05 58,8 [BDA137E6] [D654232C]
06 98,4 [BA840738] [460CC8FD]

AUDIOCHECKER v2.0 beta (build 457) - by Dester - opdester@freemail.hu
~~~~~~~~~~~~~~~~~~~~~~~~~~~~~~~~~~
-=== DO NOT EDIT THIS FILE! ===-

Path: …\Mozart - Piano Concertos Nos.14 & 26

1 -=- Wolfgang Amadeus Mozart - Piano Concertos Nos.14 & 26.flac -=- CDDA (100%)

61064948


Thanks to the Original ripper GFox!

Download: