Subcategories

Marie-Claire Alain - Bach: Complete Works for Organ (2007) (15 CDs Box Set)

Posted By: murena
Marie-Claire Alain - Bach: Complete Works for Organ (2007) (15 CDs Box Set)

Marie-Claire Alain - Bach: Complete Works for Organ (2007) (15 CDs Box Set)
EAC Rip | FLAC (Image+.cue, log) | 15 CDs, 18:39:17 min | 5,06 Gb | Scans->21 mb
Genre: Classical / Label: Erato Disques

Bach's organ music towers above so much else in the Western canon, that it needs no comment. But as one who enjoys going deeply into a composer for sever days, I found this set superb. I've listened to the entire set from start to finish several times; there's simply nothing else I've ever heard that compares. I'm not an organist, so I can't speak to the technical details of the performance - but Marie-Claire Alain, to my ear, delivers the perfect match of restraint, virtuosity, and grandeur for this work.

Marie-Claire Alain - Bach: Complete Works for Organ (2007) (15 CDs Box Set)

CDs:
CD01: The Trio Sonatas
CD02: Preludes & Fugues (I); Toccatas & Fugues (I)
CD03: Preludes & Fugues (II)
CD04: Preludes & Fugues (III)
CD05: Fantasias; Toccatas & Fugues (II); Fugues (I)
CD06: Fugues (II), etc.
CD07: The Concertos; Das Orgel-Büchlein (I)
CD08: Das Orgel-Büchlein (I); Schübler Chorales (I)
CD09: Schübler Chorales (II); Leipzig Chorales (I)
CD10: Leipzig Chorales (II); German Organ Mass (I)
CD11: German Organ Mass (II)
CD12: Kirnberger Chorales; Choral Settings (I)
CD13: Choral Settings (II)
CD14: Choral Settings (III); Partite diverse (I)
CD15: Partite diverse (II); Miscellaneous early and doublful works

CD 1:
Trio Sonata № 1 in E flat major, BWV 525
Mi bemol majeur / Es Dur
01. I (Allegro Moderato)
02. II Adagio
03. III Allegro

Trio Sonata № 2 in С flat minor, BWV 526
Ut mineur / C Moll
04. I Vivace
05. II Largo
06. III Allegro

Trio Sonata № 3 in D minor, BWV 527
Re mineur / d-Moll
07. I Andante
08. II Adagio E Dolce
09. III Vivace

Trio Sonata № 4 in E minor, BWV 528
Mi mineur / e-Moll
10. I Adagio - Vivace
11. II Andante
12. III Un poco allegro

Trio Sonata № 5 in C major, BWV 529
Sol majeur / C-Dur
13. I Allegro
14. II Largo
15. III Allegro

Trio Sonata № 6 in G major, BWV 530
Sol majeur / G-Dur
16. I Vivace
17. II Lento
18. III Allegro

Schwenkedel organ, Collegiale de Saint-Donat, Drome, France

CD 2:
01. Prelude & Fugue in F minor, BWV 534
Fa mineur / f-Moll

02. Prelude & Fugue in E minor, BWV 533
Mi mineur / e-Moll

03. Prelude & Fugue in C major, BWV 531
Ut majeur / C-Dur

04. Toccata & Fugue, BWV 538 "Dorian"
"Dorienne" / "Dorisch"

05. Fantaisie & Fugue in C minor, BWV 537
Ut mineur / c-Moll

06. Prelude & Fugue in D minor, BWV 539
Re mineur / d-Moll

07. Toccata & Fugue in F minor, BWV 540
Re mineur / F-Dur

08. Prelude & Fugue in G major, BWV 541
Sol majeur / C-Dur

09. Prelude & Fugue in A major, BWV 536
La majeur / A-Dur

Schwenkedel organ, Collegiale de Saint-Donat, Drome, France (01-03) Marcussen organ, Sankt Nicolai Kirke, Kolding, Denmark (04-09)

CD 3:
01. Fantaisie & Fugue in G minor, BWV 542
Sol mineur / g-Moll

02. Prelude & Fugue in A minor, BWV 543
La mineur / a-Moll

03. Prelude & Fugue in D major, BWV 532
Re majeur / D-Dur

04. Prelude & Fugue in B minor, BWV 544
Si mineur / h-Moll

05. Prelude & Fugue in G minor, BWV 535
Sol mineur / g-Moll

06. Prelude & Fugue in C major, BWV 545
Ut majeur / C-Dur

07. Prelude & Fugue in C major, BWV 547
Ut majeur / C-Dur

08. Prelude & Fugue in C minor, BWV 549
Ut mineur / c-Moll

Metzler organ, Mariastein Basilica, Switzerland

CD 4:
01. Prelude & Fugue in G major, BWV 550
Sol majeur / G-Dur

02. Prelude & Fugue in E minor, BWV 548
Mi mineur / e-Moll

03. Prelude & Fugue in C minor, BWV 546
Ut mineur / c-Moll

04. Prelude & Fugue in C major, BWV 553
Ut majeur / C-Dur

05. Prelude & Fugue in D minor, BWV 554
Re mineur / d-Moll

06. Prelude & Fugue in E minor, BWV 555
Mi mineur / e-Moll

07. Prelude & Fugue in F major, BWV 556
Fa majeur / F-Dur

08. Prelude & Fugue in G major, BWV 557
Sol majeur / G-Dur

09. Prelude & Fugue in G minor, BWV 558
Sol mineur / g-Moll

10. Prelude & Fugue in A minor, BWV 559
La mineur / a-Moll

11. Prelude & Fugue in B major, BWV 560
Si bemol majeur / B-Dur

12. Fantaisie & Fugue in A minor, BWV 561
La mineur / a-Moll

13. Fantaisie in C minor, BWV 562
Ut mineur / c-Moll

14. Prelude & Fugue in A minor, BWV 551
La mineur / a-Moll

Metzler organ, Mariastein Basilica, Switzerland (01-03)
Schwenkedel organ, Collegiale de Saint-Donat, Drome, France (04-14)

CD 5:
01. Fantasia (con imitazione) in B minor, BWV 563
Si mineur / h-Moll

02. Toccata & Fugue in D minor, BWV 565
Re mineur / d-Moll

03. Toccata (Prelude) & Fugue in E major, BWV 566
Mi majeur / E-Dur

04. Prelude in G major, BWV 568
Ut majeur / G-Dur

05. Prelude in A minor, BWV 569
La mineur / a-Moll

06. Toccata, Adagio & Fugue in C major, BWV 564
Ut majeur / C-Dur

07. Fantasia in C major, BWV 570
Ut majeur / C-Dur

08. Fantasia in G major, BWV 571
Sol majeur / G-Dur

09. Fantasia (Piece d'orgue) in G major, BWV 572
Sol majeur / G-Dur

10. Fugue in G minor, BWV 578
Sol mineur / g-Moll

Schwenkedel organ, Collegiale de Saint-Donat, Drome, France (01)
Marcussen organ, Sankt Nicolai Kirke, Kolding, Denmark (02-08)
Metzler organ, Mariastein Basilica, Switzerland (09-10)

CD 6:
01. Fugue in B minor on a Theme by Arcangelo Corelli, BWV 579
Fugue en si minor mineur sur un theme d'Arcangelo Corelli
Fuge h-Moll ueber ein Thema von d'Arcangelo Corelli

02. Fugue in G major, BWV 576
Sol majeur / G-Dur

03. Passacaglia & Fugue in C minor, BWV 582
Ut mineur / c-Moll

04. Fugue in G major, BWV 577
Sol majeur / G-Dur

05. Fugue in C minor on a Theme by Giovanni Legrenzi, BWV 574
Fugue en ut mineur sur un theme Giovanni Legrenzi
Fuge c-Moll ueber ein Thema von Giovanni Legrenzi

06. Fugue in G major, BWV 581
Sol majeur / G-Dur

07. Fugue in C minor, BWV 575
Ut mineur / c-Moll

08. Canzona in D minor, BWV 588
Re mineur / d-Moll

09. Aria in F major, BWV 587
Fa majeur / F-Dur

10. Allabreve in D major, BWV 589
Re majeur / D-Dur

11. Trio in D minor, BWV 583
Re mineur / d-Moll

12. Little Harmonic Labyrinth, BWV 591
Petit Labyrinthe harmonique / Kleines harmonisches Labyrinth

13. Pastorale in F major, BWV 590
Fa majeur / F-Dur

14. Trio in G major, BWV 586
Sol majeur / G-Dur

Metzler organ, Mariastein Basilica, Switzerland (01-02)
Schwenkedel organ, Collegiale de Saint-Donat, Drome, France (03-14)

CD 7:
01. Trio in G minor, BWV 584
Sol mineur / g-Moll

Concerto in G major, BWV 592
Sol majeur / G-Dur
02. I (Allegro)
03. II Grave
04. III Presto

Concerto in D minor, BWV 596
Re mineur / d-Moll
05. I (Allegro Moderato)
06. II Grave - Fuga
07. III Largo
08. IV Finale

Concerto in C major, BWV 594
Ut majeur / C-Dur
09. I (Allegro)
10. II Recitativo: Adagio
11. III Allegro

Concerto in A minor, BWV 593
La mineur / a-Moll
12. I (Allegro)
13. II Adagio
14. III Allegro

Concerto in E flat major, BWV 597
Mi bemol majeur / Es-Dur
15. I (Allegro)
16. II Gigue

Concerto in C major, BWV 595
Ut majeur / C-Dur
17. (Allegro)

18. Pedal-Exercitium, BWV 598

Das Orgel-Buechlein, BWV 599-644
19. Nun komm' der Heiden Heiland, BWV 599
20. Gott, durch deine Guete, BWV 600
21. Herr Christ, der ein'ge Gottes Sohn, BWV 601
22. Lob sei dem allmaechtigen Gott, BWV 602
23. Puer natus in Bethlehem, BWV 603
24. Gelobet seist du, Jesu Christ, BWV 604
25. Der Tag, der ist so freudenreich, BWV 605
26. Vom Himmel hoch, da komm' ich her, BWV 606
27. Vom Himmel kam der Engel Schar, BWV 607
28. In dulci jubilo, BWV 608

Schwenkedel organ, Collegiale de Saint-Donat, Drome, France (01-04, 19-28)
Marcussen organ, Sankt Nicolai Kirke, Kolding, Denmark (28-18)

CD 8:
01. Lobt Gott, ihr Christen, allzugleich, BWV 609
02. Jesu, meine Freude, BWV 610
03. Christum wir sollen loben schon, BWV 611
04. Wir Christenleut', BWV 612
05. Helf mir Gottes Guete preisen, BWV 613
06. Das alte Jahr vergangen ist, BWV 614
07. In dir ist Freude, BWV 615
08. Mit Fried' und Freud' ich fahr dahin, BWV 616
09. Herr Gott, nun schleuss den Himmel auf, BWV 617
10. O Lamm Gottes unschuldig, BWV 618
11. Christe, du Lamm Gottes, BWV 619
12. Christus, der uns selig macht, BWV 620
13. Da Jesu an dem Kreuze stund, BWV 621
14. O Mensch, bewein' dein' Suende gross, BWV 622
15. Wir danken dir, Herr Jesu Christ, BWV 623
16. Hilf Gott, dass mir's gelinge, BWV 624
17. Christ lag in Todesbanden, BWV 625
18. Jesus Christus, unser Heiland, BWV 626
19. Christ ist erstanden, BWV 627
20. Erstanden ist der heil'ge Christ, BWV 628
21. Erschienen ist der herrliche Tag, BWV 629
22. Heut' triumphieret Gottes Sohn, BWV 630
23. Komm, Gott Schoepfer, heiliger Geist, BWV 631
24. Herr Jesu Christ, dich zu uns wend, BWV 632
25. Liebster Jesu, wir sind hier, BWV 633
26. Liebster Jesu, wir sind hier, BWV 634
27. Dies sind die heil'gen zehn Gebot, BWV 635
28. Vater unser im Himmelreich, BWV 636
29. Durch Adam's Fall is ganz verderbt, BWV 637
30. Es ist das Heil uns kommen, Her BWV 638
31. Ich ruf' zu dir, Herr Jesu Christ, BWV 639
32. In dich hab' ich gehoffet, Herr, BWV 640
33. Wenn wir in hoechsten Noeten sein, BWV 641
34. Wer nur den Lieben Gott laesst walten, BWV 642
35. Alle Menschen muessen sterben, BWV 643
36. Ach wie nichtig, ach wie fluechtig, BWV 644

Six Chorales In Various Styles ("Schuebler" Chorales)
Six Chorales de diverses especes (Chorals "Schuebler")
Sechs Choraeles von verschiedener Art (Schuebler - Choraele)
37. Wachet auf, ruft uns die Stimme, BWV645
38. Wo soll ich fliehen hin, BWV646

Schwenkedel organ, Collegiale de Saint-Donat, Drome, France

CD 9:
01. Wer nur den lieben Gott laesst walten, BWV647
02. Meine Seele erhebet den Herren, BWV648
03. Ach bleib' bei uns, Herr Jesu Christ, BWV649
04. Kommst du nun, Jesu, vom Himmel herunter, BWV650

Eighteen Chorales in Various Styles ("Leipzig" Chorales )
Dix-huit Chorals de diverses especes ("Recueil de Leipzig")
Achzehn Choraele von verschiedener Art (Leipziger-Choraele")
05. Fantasia super Komm, heiliger Geist, BWV 651
06. Komm, heiliger Geist, BWV 652
07. An Wasserfluessen Babylon, BWV 653
08. An Wasserfluessen Babylon (pedale doppio), BWV 653b
09. Scmuecke dich, o liebe Seele, BWV 654
10. Trio super Herr Jesu Christ, dich zu uns wend, BWV 655
11. O Lamm Gottes, unschuldig BWV 656
12. Nun danket alle Gott, BWV 657
13. Von Gott will ich nicht lassen, BWV 658

Schwenkedel organ, Collegiale de Saint-Donat, Drome, France (01-04)
Marcussen organ, Sankt Nicolai Kirke, Kolding, Denmark (05-13)

CD 10:
01. Nun komm, der Heiden Heiland, BWV 659
02. Trio super Nun komm der Heiden Heiland, BWV 660
03. Nun komm, der Heiden Heiland, BWV 661
04. Allein Gott in der Hoeh' Sei Her', BWV 662
05. Allein Gott in der Hoeh' Sei Her', BWV 663
06. Trio super Allein Gott in der Hoeh' sei Ehr', BWV 664
07. Jesus Christus, unser Heiland, BWV 665
08. Jesus Christus, unser Heiland, BWV 666
09. Komm, Gott Schoepfer, heiliger Geist, BWV 667
10. Vor deinen Thron tret' ich, BWV 668

German Organ Mass (Clavier-Uebung, Part III)
Messe d'orgue lutherienne (Clavier-Uebung, Troisieme Partie)
Deutsche Orgelmesse (Clavier-Uebung, Dritter Teil)
11. Prelude in E flat major, BWV 552
Mi bemol majeur / Es-Dur
12. Kyrie, Gott Vater in Ewigkeit, BWV 669
13. Christe, aller Welt Trost, BWV 670
14. Kyrie, Gott heiliger Geist, BWV 671
15. Kyrie, Gott Vater in Ewigkeit, BWV 672
16. Christe, aller Welt Trost, BWV 673
17. Kyrie, Gott heiliger Geist, BWV 674

Marcussen organ, Sankt Nicolai Kirke, Kolding, Denmark (01-10)
Metzler organ, Mariastein Basilica, Switzerland (11-17)

CD 11:
01. Allein Gott in der Hoeh' Sei Ehr', BWV 675
02. Allein Gott in der Hoeh' Sei Ehr', BWV 676
03. Fughetta super Allein Gott in der Hoeh sei Ehr', BWV 677
04. Dies sind die heil'gen zehn Gebot, BWV 678
05. Fughetta super Dies sind die heil'gen zehn Gebot, BWV 679
06. Wir glauben all' an einen Gott, BWV 680
07. Fughetta super Wir glauben all' an einen Gott, BWV 681
08. Vater unser im Himmelreich, BWV 682
09. Vater unser im Himmelreich, BWV 683
10. Vater unser im Himmelreich, BWV 683a
11. Christ, unser Herr, zum Jordan kam, BWV 684
12. Christ, unser Herr, zum Jordan kam, BWV 685
13. Aus tiefer Not schrei ich zu dir, BWV 686
14. Aus tiefer Not schrei ich zu dir, BWV 687
15. Jesus Christus, unser Heiland, BWV 688
16. Fuga super Jesus Christus, unser Heiland, BWV 689
17. Duetto № 1 in E minor, BWV 802
Mi mineur / E-Moll
18. Duetto № 2 in F major, BWV 803
Fa majeur / F-Dur
19. Duetto № 3 in G major, BWV 804
Sol majeur / G-Dur
20. Duetto № 4 in A minor, BWV 805
La mineur / a-Moll
21. Fugue in E major, BWV 552
Mi bemol majeur / Es-Dur

Metzler organ, Mariastein Basilica, Switzerland

CD 12:

"Kirnberger" Chorales
Chorales de la collection Kirnberger / Choraele in Kirnbergers Sammlung
01. Wer nur den lieben Gott laesst walten, BWV 690
02. Wer nur den lieben Gott laesst walten, BWV 691
03. Wer nur den lieben Gott laesst walten, BWV 691a
04. Wo soll ich fliehen hin, BWV 694
05. Christ lag in Todeslanden, BWV 695
06. Fughetta: christum wir solle loben schon, BWV 696
07. Fughetta: Gelobet seist du, Jesu Christ, BWV 697
08. Fughetta: Herr Christ, der ein'ge Gottes-Sohn, BWV 698
09. Fughetta: Nun komm, der Heiden Heiland, BWV 699
10. Vom Himmel hoch da komm ich her, BWV 700
11. Fughetta: Vom Himmel hoch da komm ich her, BWV 701
12. Das Jesulein soll doch mein Trost, BWV 702
13. Fughetta: Gottes Sohn ist kommen, BWV 703
14. Fughetta: Lob sei dem allmaecht'gen Gott, BWV 704
15. Durch Adams Fall ist ganz verderbt, BWV 705
16. Liebster Jesu, wir sind hier, BWV 706
17. Ich Hab' mein' Sach Gott heimgestellt, BWV 707
18. Ich Hab' mein' Sach Gott heimgestellt, BWV 708
19. Herr Jesu Christ, dich zu uns wend, BWV 709
20. Wir Christentleut hab'n jetzund Freud, BWV 710
21. Allein Gott in der Hoeh' sei Ehr', BWV 711
22. In dich hab' ich gehoffet, Herr, BWV 712
23. Fantasia super Jesu, meine Freude, BWV 713

Chorale Settings
Chorals diverses / Choralbearbeitungen
24. Ach Gott und Herr, BWV 714
25. Allein Gott in der Hoeh sei Ehr', BWV 715
26. Fuga super Allein Gott in der Hoeh sei Ehr', BWV 716
27. Allein Gott In Der Hoeh sei Ehr', BWV 717
28. Christ lag in Todeslanden, BWV 718
29. Der Tag, der ist so freudenreich, BWV 719
30. Ein feste Burg ist unser Gott, BWV 720
31. Gottes Sohn ist kommen, BWV 724

Busch- Marcussen organ, Sankt Nicolai Kirke, Kolding, Denmark (01-24)
Schwenkedel organ, Collegiale de Saint-Donat, Drome, France (25-31)

CD 13:

01. Herr Gott, dich loben wir, BWV 725
02. Erbarm dich mein, o Herre Gott, BWV 721
03. Gelobet seist du, Jesu Christ, BWV 722
04. Gelobet seist du, Jesu Christ, BWV 723
05. Herr Jesu Christ, dich zu uns wend, BWV 726
06. Herzlich tut mich verlangen, BWV 727
07. Jesus, meine Zuversicht, BWV 728
08. In dulci jubilo, BWV 729
09. Liebster Jesu, wir sind hier, BWV 730
10. Liebster Jesu, wir sind hier, BWV 731
11. Lobt Gott, ihr Christen, allzugleich, BWV 732
12. Fuga sopra il Magnificat (Meine Seele erhebet den Herren) BWV 733
13. Nun freuet euch, lieben Christen g'mein, BWV 734
14. Fantasia super Valet will ich dir geben, BWV 735
15. Valet will ich dir geben, BWV 736
16. Vater unser im Himmelreich, BWV 737
17. Vom Himmel hoch, da komm' ich her, BWV 738
18. Wie Schoen leuchtet der Morgenstern, BWV 739
19. Wir glauben all' an einen Gott, BWV 740
20. Ach Gott, vom Himmel sieh' darein, BWV 741

Schwenkedel organ, Collegiale de Saint-Donat, Drome, France (01-12)
Metzler organ, Mariastein Basilica, Switzerland (13-20)

CD 14:

01. Ach, was ist doch unser Leben, BWV 743
02. Auf meinen lieben Gott, BWV 744
03. Auf meinen lieben Gott, BWV 744A
04. Aus der Tiefe rufe ich, BWV 745
05. Christus, der uns selig macht, BWV 747
06. In dulci jubilo, BWV 751
07. Liebster Jesu, wir sind hier, BWV 754
08. Vater unser im Himmelreich, BWV 762
09. Wir glauben all' an einen Gott, BWV 765

10. Fantasia in minor, (Johann Andreas Bach Buch)
Ut mineur / c-Moll

Partite diverse
Chorale Partitas / Les Partitas / Choralpartiten
11. Sei Gegruesset, Jesu guetig, BWV 768
12. Christ, der du bist der helle Tag, BWV 766
13. CanonicVariations on the Christmas Hymn Sur "Vom Himmel hoch, da komm'
ich her", BWV 769a (autograph)
Variations canoniques sur un cantique de Noeel
Einige kanonische Veraenderungen ueber das Weihnachtslied

Metzler organ, Mariastein Basilica, Switzerland

CD 15:

01. CanonicVariations on the Christmas Hymn Sur "Vom Himmel hoch, da komm'
ich her", BWV 769 (1748 edition)
Variations canoniques sur un cantique de Noeel
Einige kanonische Veraenderungen ueber das Weihnachtslied
02. O Gott, du frommer Gott, BWV 767
03. Ach, was soll ich Suender machen?, BWV 770

04. Trio in G major after, BWV 1027 (Adagio)
Sol majeur / G-Dur

05. Trio in G major after, BWV 1027 (Allegro)
Sol majeur / G-Dur

06. Capriccio in E major after, BWV 993
Mi majeur / E-Dur

07. Prelude in C major, BWV 943
Ut majeur / C-Dur

08. Fugue in C major, BWV 946
Ut majeur / C-Dur

09. Fugue in A major, BWV 949
La majeur / A-Dur

10. Herr Christ der ein'ge Gottes-Sohn, BWV Anh. II/55

11. O Lamm Gottes, unschuldig (without BWV number)

12 .Fantasia a duobus subjectis in G minor, BWV 917
Sol mineur / g-Moll

Metzler organ, Mariastein Basilica, Switzerland (01)
Busch- Marcussen organ, Sankt Nicolai Kirke, Kolding, Denmark (02-12)


CD01
Exact Audio Copy V1.0 beta 3 from 29. August 2011

EAC extraction logfile from 20. November 2011, 13:41

Marie-Claire Alain / Bach - Complete Works for Organ - CD01

Used drive : HL-DT-STDVDRAM GSA-4083N Adapter: 1 ID: 0

Read mode : Secure
Utilize accurate stream : Yes
Defeat audio cache : Yes
Make use of C2 pointers : No

Read offset correction : 667
Overread into Lead-In and Lead-Out : No
Fill up missing offset samples with silence : Yes
Delete leading and trailing silent blocks : No
Null samples used in CRC calculations : Yes
Used interface : Native Win32 interface for Win NT & 2000

Used output format : User Defined Encoder
Selected bitrate : 896 kBit/s
Quality : High
Add ID3 tag : No
Command line compressor : C:\Program Files\Exact Audio Copy\Flac\flac.exe
Additional command line options : -V -8 %source%

TOC of the extracted CD

Track | Start | Length | Start sector | End sector
––––––––––––––––––––––––––––-
1 | 0:00.00 | 2:52.28 | 0 | 12927
2 | 2:52.28 | 4:50.40 | 12928 | 34717
3 | 7:42.68 | 3:44.45 | 34718 | 51562
4 | 11:27.38 | 3:31.10 | 51563 | 67397
5 | 14:58.48 | 4:04.45 | 67398 | 85742
6 | 19:03.18 | 4:37.30 | 85743 | 106547
7 | 23:40.48 | 5:33.42 | 106548 | 131564
8 | 29:14.15 | 3:52.65 | 131565 | 149029
9 | 33:07.05 | 3:46.50 | 149030 | 166029
10 | 36:53.55 | 2:37.15 | 166030 | 177819
11 | 39:30.70 | 4:02.65 | 177820 | 196034
12 | 43:33.60 | 2:27.23 | 196035 | 207082
13 | 46:01.08 | 4:41.65 | 207083 | 228222
14 | 50:42.73 | 5:26.35 | 228223 | 252707
15 | 56:09.33 | 3:44.19 | 252708 | 269526
16 | 59:53.52 | 3:51.32 | 269527 | 286883
17 | 63:45.09 | 5:08.71 | 286884 | 310054
18 | 68:54.05 | 3:37.70 | 310055 | 326399

Range status and errors

Selected range

Filename J:\Music\Bach - Complete Works for Organ - Alain\Bach - Complete Works for Organ - CD01.wav

Peak level 92.2 %
Extraction speed 4.3 X
Range quality 100.0 %
Test CRC AE76783A
Copy CRC AE76783A
Copy OK

No errors occurred

End of status report

==== Log checksum 13539630CBB546A3346CFC7F184EB84B835468074A12C526F1D4D595AEF9ACB5 ====


CD02
Exact Audio Copy V1.0 beta 3 from 29. August 2011

EAC extraction logfile from 20. November 2011, 14:35

Marie-Claire Alain / Bach - Complete Works for Organ - CD02

Used drive : HL-DT-STDVDRAM GSA-4083N Adapter: 1 ID: 0

Read mode : Secure
Utilize accurate stream : Yes
Defeat audio cache : Yes
Make use of C2 pointers : No

Read offset correction : 667
Overread into Lead-In and Lead-Out : No
Fill up missing offset samples with silence : Yes
Delete leading and trailing silent blocks : No
Null samples used in CRC calculations : Yes
Used interface : Native Win32 interface for Win NT & 2000

Used output format : User Defined Encoder
Selected bitrate : 896 kBit/s
Quality : High
Add ID3 tag : No
Command line compressor : C:\Program Files\Exact Audio Copy\Flac\flac.exe
Additional command line options : -V -8 %source%

TOC of the extracted CD

Track | Start | Length | Start sector | End sector
––––––––––––––––––––––––––––-
1 | 0:00.00 | 9:18.69 | 0 | 41918
2 | 9:18.69 | 5:12.65 | 41919 | 65383
3 | 14:31.59 | 6:42.37 | 65384 | 95570
4 | 21:14.21 | 13:08.00 | 95571 | 154670
5 | 34:22.21 | 8:44.13 | 154671 | 193983
6 | 43:06.34 | 7:04.24 | 193984 | 225807
7 | 50:10.58 | 14:05.01 | 225808 | 289183
8 | 64:15.59 | 7:07.11 | 289184 | 321219
9 | 71:22.70 | 6:06.05 | 321220 | 348674

Range status and errors

Selected range

Filename J:\Music\Bach - Complete Works for Organ - Alain\Bach - Complete Works for Organ - CD02.wav

Peak level 92.9 %
Extraction speed 4.3 X
Range quality 99.9 %
Test CRC 823A1283
Copy CRC 823A1283
Copy OK

No errors occurred

End of status report

==== Log checksum A4A11569A984CE38B1EC012D48282068DF23A4699CDBCC0FB330C4951477D293 ====


CD03
Exact Audio Copy V1.0 beta 3 from 29. August 2011

EAC extraction logfile from 20. November 2011, 15:34

Marie-Claire Alain / Bach - Complete Works for Organ - CD03

Used drive : HL-DT-STDVDRAM GSA-4083N Adapter: 1 ID: 0

Read mode : Secure
Utilize accurate stream : Yes
Defeat audio cache : Yes
Make use of C2 pointers : No

Read offset correction : 667
Overread into Lead-In and Lead-Out : No
Fill up missing offset samples with silence : Yes
Delete leading and trailing silent blocks : No
Null samples used in CRC calculations : Yes
Used interface : Native Win32 interface for Win NT & 2000

Used output format : User Defined Encoder
Selected bitrate : 896 kBit/s
Quality : High
Add ID3 tag : No
Command line compressor : C:\Program Files\Exact Audio Copy\Flac\flac.exe
Additional command line options : -V -8 %source%

TOC of the extracted CD

Track | Start | Length | Start sector | End sector
––––––––––––––––––––––––––––-
1 | 0:00.00 | 12:08.15 | 0 | 54614
2 | 12:08.15 | 9:18.56 | 54615 | 96520
3 | 21:26.71 | 10:58.70 | 96521 | 145940
4 | 32:25.66 | 12:38.18 | 145941 | 202808
5 | 45:04.09 | 7:26.02 | 202809 | 236260
6 | 52:30.11 | 6:06.01 | 236261 | 263711
7 | 58:36.12 | 10:38.23 | 263712 | 311584
8 | 69:14.35 | 5:23.40 | 311585 | 335849

Range status and errors

Selected range

Filename J:\Music\Bach - Complete Works for Organ - Alain\Bach - Complete Works for Organ - CD03.wav

Peak level 83.5 %
Extraction speed 4.3 X
Range quality 99.9 %
Test CRC B0683374
Copy CRC B0683374
Copy OK

No errors occurred

End of status report

==== Log checksum B64D394A1ED397B1828FF107D39AB2217731EFE42BBD21DAAD681F56B1A81DEA ====


CD04
Exact Audio Copy V1.0 beta 3 from 29. August 2011

EAC extraction logfile from 20. November 2011, 16:49

Marie-Claire Alain / Bach - Complete Works for Organ - CD04

Used drive : HL-DT-STDVDRAM GSA-4083N Adapter: 1 ID: 0

Read mode : Secure
Utilize accurate stream : Yes
Defeat audio cache : Yes
Make use of C2 pointers : No

Read offset correction : 667
Overread into Lead-In and Lead-Out : No
Fill up missing offset samples with silence : Yes
Delete leading and trailing silent blocks : No
Null samples used in CRC calculations : Yes
Used interface : Native Win32 interface for Win NT & 2000

Used output format : User Defined Encoder
Selected bitrate : 896 kBit/s
Quality : High
Add ID3 tag : No
Command line compressor : C:\Program Files\Exact Audio Copy\Flac\flac.exe
Additional command line options : -V -8 %source%

TOC of the extracted CD

Track | Start | Length | Start sector | End sector
––––––––––––––––––––––––––––-
1 | 0:00.00 | 7:17.31 | 0 | 32805
2 | 7:17.31 | 14:19.06 | 32806 | 97236
3 | 21:36.37 | 12:43.65 | 97237 | 154526
4 | 34:20.27 | 3:42.63 | 154527 | 171239
5 | 38:03.15 | 2:57.34 | 171240 | 184548
6 | 41:00.49 | 3:22.45 | 184549 | 199743
7 | 44:23.19 | 2:30.43 | 199744 | 211036
8 | 46:53.62 | 3:19.68 | 211037 | 226029
9 | 50:13.55 | 4:19.36 | 226030 | 245490
10 | 54:33.16 | 3:01.29 | 245491 | 259094
11 | 57:34.45 | 3:39.39 | 259095 | 275558
12 | 61:14.09 | 8:06.39 | 275559 | 312047
13 | 69:20.48 | 5:11.16 | 312048 | 335388
14 | 74:31.64 | 5:20.11 | 335389 | 359399

Range status and errors

Selected range

Filename J:\Music\Bach - Complete Works for Organ - Alain\Bach - Complete Works for Organ - CD04.wav

Peak level 74.1 %
Extraction speed 4.4 X
Range quality 100.0 %
Test CRC AB842699
Copy CRC AB842699
Copy OK

No errors occurred

End of status report

==== Log checksum 46DEE6069B8BFB3C681C82574DF8414CA7CEFC1831351D643DF8626FB23F8729 ====


CD05
Exact Audio Copy V1.0 beta 3 from 29. August 2011

EAC extraction logfile from 20. November 2011, 18:11

Marie-Claire Alain / Bach - Complete Works for Organ - CD05

Used drive : HL-DT-STDVDRAM GSA-4083N Adapter: 1 ID: 0

Read mode : Secure
Utilize accurate stream : Yes
Defeat audio cache : Yes
Make use of C2 pointers : No

Read offset correction : 667
Overread into Lead-In and Lead-Out : No
Fill up missing offset samples with silence : Yes
Delete leading and trailing silent blocks : No
Null samples used in CRC calculations : Yes
Used interface : Native Win32 interface for Win NT & 2000

Used output format : User Defined Encoder
Selected bitrate : 896 kBit/s
Quality : High
Add ID3 tag : No
Command line compressor : C:\Program Files\Exact Audio Copy\Flac\flac.exe
Additional command line options : -V -8 %source%

TOC of the extracted CD

Track | Start | Length | Start sector | End sector
––––––––––––––––––––––––––––-
1 | 0:00.00 | 4:46.56 | 0 | 21505
2 | 4:46.56 | 8:34.11 | 21506 | 60066
3 | 13:20.67 | 11:11.37 | 60067 | 110428
4 | 24:32.29 | 3:00.05 | 110429 | 123933
5 | 27:32.34 | 5:40.73 | 123934 | 149506
6 | 33:13.32 | 14:26.50 | 149507 | 214506
7 | 47:40.07 | 3:38.62 | 214507 | 230918
8 | 51:18.69 | 7:44.33 | 230919 | 265751
9 | 59:03.27 | 9:04.27 | 265752 | 306578
10 | 68:07.54 | 4:32.21 | 306579 | 326999

Range status and errors

Selected range

Filename J:\Music\Bach - Complete Works for Organ - Alain\Bach - Complete Works for Organ - CD05.wav

Peak level 82.9 %
Extraction speed 4.3 X
Range quality 100.0 %
Test CRC EF531D4F
Copy CRC EF531D4F
Copy OK

No errors occurred

End of status report

==== Log checksum F3BE96051BDFB6CC60917FFD154E9CA651CC162AC7A406D0DE80C10C0EAC6A71 ====


CD06
Exact Audio Copy V1.0 beta 3 from 29. August 2011

EAC extraction logfile from 20. November 2011, 19:15

Marie-Claire Alain / Bach - Complete Works for Organ - CD06

Used drive : HL-DT-STDVDRAM GSA-4083N Adapter: 1 ID: 0

Read mode : Secure
Utilize accurate stream : Yes
Defeat audio cache : Yes
Make use of C2 pointers : No

Read offset correction : 667
Overread into Lead-In and Lead-Out : No
Fill up missing offset samples with silence : Yes
Delete leading and trailing silent blocks : No
Null samples used in CRC calculations : Yes
Used interface : Native Win32 interface for Win NT & 2000

Used output format : User Defined Encoder
Selected bitrate : 896 kBit/s
Quality : High
Add ID3 tag : No
Command line compressor : C:\Program Files\Exact Audio Copy\Flac\flac.exe
Additional command line options : -V -8 %source%

TOC of the extracted CD

Track | Start | Length | Start sector | End sector
––––––––––––––––––––––––––––-
1 | 0:00.00 | 7:19.70 | 0 | 32994
2 | 7:19.70 | 4:59.43 | 32995 | 55462
3 | 12:19.38 | 12:58.47 | 55463 | 113859
4 | 25:18.10 | 3:33.08 | 113860 | 129842
5 | 28:51.18 | 6:41.05 | 129843 | 159922
6 | 35:32.23 | 1:28.17 | 159923 | 166539
7 | 37:00.40 | 3:55.13 | 166540 | 184177
8 | 40:55.53 | 6:30.47 | 184178 | 213474
9 | 47:26.25 | 3:12.58 | 213475 | 227932
10 | 50:39.08 | 4:54.27 | 227933 | 250009
11 | 55:33.35 | 4:26.53 | 250010 | 270012
12 | 60:00.13 | 3:50.04 | 270013 | 287266
13 | 63:50.17 | 11:35.22 | 287267 | 339413
14 | 75:25.39 | 3:04.36 | 339414 | 353249

Range status and errors

Selected range

Filename J:\Music\Bach - Complete Works for Organ - Alain\Bach - Complete Works for Organ - CD06.wav

Peak level 74.2 %
Extraction speed 4.4 X
Range quality 100.0 %
Copy CRC 599772F4
Copy OK

No errors occurred

End of status report

==== Log checksum 821660D651E8CB5910BE6A5AFF0D82B395D6631F9D32DB80E701A95D743DDDD8 ====


CD07
Exact Audio Copy V1.0 beta 3 from 29. August 2011

EAC extraction logfile from 20. November 2011, 20:34

Marie-Claire Alain / Bach - Complete Works for Organ - CD07

Used drive : HL-DT-STDVDRAM GSA-4083N Adapter: 1 ID: 0

Read mode : Secure
Utilize accurate stream : Yes
Defeat audio cache : Yes
Make use of C2 pointers : No

Read offset correction : 667
Overread into Lead-In and Lead-Out : No
Fill up missing offset samples with silence : Yes
Delete leading and trailing silent blocks : No
Null samples used in CRC calculations : Yes
Used interface : Native Win32 interface for Win NT & 2000

Used output format : User Defined Encoder
Selected bitrate : 896 kBit/s
Quality : High
Add ID3 tag : No
Command line compressor : C:\Program Files\Exact Audio Copy\Flac\flac.exe
Additional command line options : -V -8 %source%

TOC of the extracted CD

Track | Start | Length | Start sector | End sector
––––––––––––––––––––––––––––-
1 | 0:00.00 | 2:42.54 | 0 | 12203
2 | 2:42.54 | 3:16.30 | 12204 | 26933
3 | 5:59.09 | 2:06.25 | 26934 | 36408
4 | 8:05.34 | 2:01.05 | 36409 | 45488
5 | 10:06.39 | 1:16.09 | 45489 | 51197
6 | 11:22.48 | 4:03.38 | 51198 | 69460
7 | 15:26.11 | 3:06.55 | 69461 | 83465
8 | 18:32.66 | 3:28.53 | 83466 | 99118
9 | 22:01.44 | 7:22.07 | 99119 | 132275
10 | 29:23.51 | 2:43.24 | 132276 | 144524
11 | 32:07.00 | 7:30.24 | 144525 | 178298
12 | 39:37.24 | 4:04.60 | 178299 | 196658
13 | 43:42.09 | 3:27.04 | 196659 | 212187
14 | 47:09.13 | 3:58.57 | 212188 | 230094
15 | 51:07.70 | 3:30.57 | 230095 | 245901
16 | 54:38.52 | 3:01.22 | 245902 | 259498
17 | 57:39.74 | 4:07.61 | 259499 | 278084
18 | 61:47.60 | 2:01.10 | 278085 | 287169
19 | 63:48.70 | 1:17.02 | 287170 | 292946
20 | 65:05.72 | 1:07.00 | 292947 | 297971
21 | 66:12.72 | 1:41.03 | 297972 | 305549
22 | 67:54.00 | 0:56.09 | 305550 | 309758
23 | 68:50.09 | 1:01.63 | 309759 | 314396
24 | 69:51.72 | 1:33.12 | 314397 | 321383
25 | 71:25.09 | 1:42.63 | 321384 | 329096
26 | 73:07.72 | 0:57.58 | 329097 | 333429
27 | 74:05.55 | 1:23.73 | 333430 | 339727
28 | 75:29.53 | 1:19.22 | 339728 | 345674

Range status and errors

Selected range

Filename J:\Music\Bach - Complete Works for Organ - Alain\Bach - Complete Works for Organ - CD07.wav

Peak level 79.9 %
Extraction speed 4.3 X
Range quality 99.9 %
Test CRC 71B3391D
Copy CRC 71B3391D
Copy OK

No errors occurred

End of status report

==== Log checksum A87387E55D9862E83B748BB9586824E35D92A336B3014183D9A3E689FB7C0B4B ====


CD08
Exact Audio Copy V1.0 beta 3 from 29. August 2011

EAC extraction logfile from 20. November 2011, 21:55

Marie-Claire Alain / Bach - Complete Works for Organ - CD08

Used drive : HL-DT-STDVDRAM GSA-4083N Adapter: 1 ID: 0

Read mode : Secure
Utilize accurate stream : Yes
Defeat audio cache : Yes
Make use of C2 pointers : No

Read offset correction : 667
Overread into Lead-In and Lead-Out : No
Fill up missing offset samples with silence : Yes
Delete leading and trailing silent blocks : No
Null samples used in CRC calculations : Yes
Used interface : Native Win32 interface for Win NT & 2000

Used output format : User Defined Encoder
Selected bitrate : 896 kBit/s
Quality : High
Add ID3 tag : No
Command line compressor : C:\Program Files\Exact Audio Copy\Flac\flac.exe
Additional command line options : -V -8 %source%

TOC of the extracted CD

Track | Start | Length | Start sector | End sector
––––––––––––––––––––––––––––-
1 | 0:00.00 | 0:58.73 | 0 | 4422
2 | 0:58.73 | 3:03.02 | 4423 | 18149
3 | 4:02.00 | 1:58.59 | 18150 | 27058
4 | 6:00.59 | 1:36.74 | 27059 | 34332
5 | 7:37.58 | 1:25.33 | 34333 | 40740
6 | 9:03.16 | 2:27.71 | 40741 | 51836
7 | 11:31.12 | 2:37.64 | 51837 | 63675
8 | 14:09.01 | 2:07.66 | 63676 | 73266
9 | 16:16.67 | 2:53.21 | 73267 | 86262
10 | 19:10.13 | 3:50.66 | 86263 | 103578
11 | 23:01.04 | 1:01.21 | 103579 | 108174
12 | 24:02.25 | 2:02.10 | 108175 | 117334
13 | 26:04.35 | 1:51.37 | 117335 | 125696
14 | 27:55.72 | 5:15.27 | 125697 | 149348
15 | 33:11.24 | 1:02.37 | 149349 | 154035
16 | 34:13.61 | 1:48.68 | 154036 | 162203
17 | 36:02.54 | 1:43.30 | 162204 | 169958
18 | 37:46.09 | 0:59.23 | 169959 | 174406
19 | 38:45.32 | 4:03.60 | 174407 | 192691
20 | 42:49.17 | 0:54.67 | 192692 | 196808
21 | 43:44.09 | 1:05.68 | 196809 | 201751
22 | 44:50.02 | 1:40.65 | 201752 | 209316
23 | 46:30.67 | 0:51.37 | 209317 | 213178
24 | 47:22.29 | 1:20.50 | 213179 | 219228
25 | 48:43.04 | 1:42.18 | 219229 | 226896
26 | 50:25.22 | 1:46.07 | 226897 | 234853
27 | 52:11.29 | 1:34.45 | 234854 | 241948
28 | 53:45.74 | 1:49.05 | 241949 | 250128
29 | 55:35.04 | 2:14.65 | 250129 | 260243
30 | 57:49.69 | 1:23.50 | 260244 | 266518
31 | 59:13.44 | 2:33.53 | 266519 | 278046
32 | 61:47.22 | 1:11.50 | 278047 | 283421
33 | 62:58.72 | 2:13.42 | 283422 | 293438
34 | 65:12.39 | 1:48.05 | 293439 | 301543
35 | 67:00.44 | 1:30.30 | 301544 | 308323
36 | 68:30.74 | 0:53.60 | 308324 | 312358
37 | 69:24.59 | 4:19.68 | 312359 | 331851
38 | 73:44.52 | 1:46.23 | 331852 | 339824

Range status and errors

Selected range

Filename J:\Music\Bach - Complete Works for Organ - Alain\Bach - Complete Works for Organ - CD08.wav

Peak level 70.5 %
Extraction speed 4.3 X
Range quality 99.9 %
Copy CRC 9131169A
Copy OK

No errors occurred

End of status report

==== Log checksum 7BD042A8276FB3A9F716DBD7F4FBE5A10FEBA27445F409141ED6384F6A17DED7 ====


CD09
Exact Audio Copy V1.0 beta 3 from 29. August 2011

EAC extraction logfile from 22. November 2011, 1:03

Marie-Claire Alain / Bach - Complete Works for Organ - CD09

Used drive : HL-DT-STDVDRAM GSA-4083N Adapter: 1 ID: 0

Read mode : Secure
Utilize accurate stream : Yes
Defeat audio cache : Yes
Make use of C2 pointers : No

Read offset correction : 667
Overread into Lead-In and Lead-Out : No
Fill up missing offset samples with silence : Yes
Delete leading and trailing silent blocks : No
Null samples used in CRC calculations : Yes
Used interface : Native Win32 interface for Win NT & 2000

Used output format : User Defined Encoder
Selected bitrate : 896 kBit/s
Quality : High
Add ID3 tag : No
Command line compressor : C:\Program Files\Exact Audio Copy\Flac\flac.exe
Additional command line options : -V -8 %source%

TOC of the extracted CD

Track | Start | Length | Start sector | End sector
––––––––––––––––––––––––––––-
1 | 0:00.00 | 4:18.37 | 0 | 19386
2 | 4:18.37 | 2:30.43 | 19387 | 30679
3 | 6:49.05 | 2:29.47 | 30680 | 41901
4 | 9:18.52 | 2:57.08 | 41902 | 55184
5 | 12:15.60 | 5:46.50 | 55185 | 81184
6 | 18:02.35 | 10:01.21 | 81185 | 126280
7 | 28:03.56 | 5:35.72 | 126281 | 151477
8 | 33:39.53 | 5:22.13 | 151478 | 175640
9 | 39:01.66 | 8:03.66 | 175641 | 211931
10 | 47:05.57 | 3:38.15 | 211932 | 228296
11 | 50:43.72 | 8:45.62 | 228297 | 267733
12 | 59:29.59 | 4:52.03 | 267734 | 289636
13 | 64:21.62 | 4:16.13 | 289637 | 308849

Range status and errors

Selected range

Filename J:\Music\Bach - Complete Works for Organ - Alain\Bach - Complete Works for Organ - CD09.wav

Peak level 69.2 %
Extraction speed 4.2 X
Range quality 100.0 %
Copy CRC 5FDCF182
Copy OK

No errors occurred

End of status report

==== Log checksum B2B8496FA66B2609930DB1C9E27D841800F9B5FE9163BF01C9DAB48052FC5525 ====


CD10
Exact Audio Copy V1.0 beta 3 from 29. August 2011

EAC extraction logfile from 22. November 2011, 1:36

Marie-Claire Alain / Bach - Complete Works for Organ - CD10

Used drive : HL-DT-STDVDRAM GSA-4083N Adapter: 1 ID: 0

Read mode : Secure
Utilize accurate stream : Yes
Defeat audio cache : Yes
Make use of C2 pointers : No

Read offset correction : 667
Overread into Lead-In and Lead-Out : No
Fill up missing offset samples with silence : Yes
Delete leading and trailing silent blocks : No
Null samples used in CRC calculations : Yes
Used interface : Native Win32 interface for Win NT & 2000

Used output format : User Defined Encoder
Selected bitrate : 896 kBit/s
Quality : High
Add ID3 tag : No
Command line compressor : C:\Program Files\Exact Audio Copy\Flac\flac.exe
Additional command line options : -V -8 %source%

TOC of the extracted CD

Track | Start | Length | Start sector | End sector
––––––––––––––––––––––––––––-
1 | 0:00.00 | 4:43.39 | 0 | 21263
2 | 4:43.39 | 2:48.08 | 21264 | 33871
3 | 7:31.47 | 2:50.23 | 33872 | 46644
4 | 10:21.70 | 7:41.58 | 46645 | 81277
5 | 18:03.53 | 6:24.03 | 81278 | 110080
6 | 24:27.56 | 4:28.41 | 110081 | 130221
7 | 28:56.22 | 5:18.11 | 130222 | 154082
8 | 34:14.33 | 3:32.30 | 154083 | 170012
9 | 37:46.63 | 2:27.00 | 170013 | 181037
10 | 40:13.63 | 5:09.55 | 181038 | 204267
11 | 45:23.43 | 9:07.40 | 204268 | 245332
12 | 54:31.08 | 4:07.35 | 245333 | 263892
13 | 58:38.43 | 4:53.53 | 263893 | 285920
14 | 63:32.21 | 5:42.05 | 285921 | 311575
15 | 69:14.26 | 1:34.50 | 311576 | 318675
16 | 70:49.01 | 1:31.70 | 318676 | 325570
17 | 72:20.71 | 1:35.04 | 325571 | 332699

Range status and errors

Selected range

Filename J:\Music\Bach - Complete Works for Organ - Alain\Bach - Complete Works for Organ - CD10.wav

Peak level 74.3 %
Extraction speed 4.3 X
Range quality 100.0 %
Copy CRC 0B72CFD9
Copy OK

No errors occurred

End of status report

==== Log checksum 45AE67B162F9066B14C3F5B8A6FB323DA8E3C46EFF9B6F0C5C69C68866879B17 ====


CD11
Exact Audio Copy V1.0 beta 3 from 29. August 2011

EAC extraction logfile from 22. November 2011, 2:11

Marie-Claire Alain / Bach - Complete Works for Organ - CD11

Used drive : HL-DT-STDVDRAM GSA-4083N Adapter: 1 ID: 0

Read mode : Secure
Utilize accurate stream : Yes
Defeat audio cache : Yes
Make use of C2 pointers : No

Read offset correction : 667
Overread into Lead-In and Lead-Out : No
Fill up missing offset samples with silence : Yes
Delete leading and trailing silent blocks : No
Null samples used in CRC calculations : Yes
Used interface : Native Win32 interface for Win NT & 2000

Used output format : User Defined Encoder
Selected bitrate : 896 kBit/s
Quality : High
Add ID3 tag : No
Command line compressor : C:\Program Files\Exact Audio Copy\Flac\flac.exe
Additional command line options : -V -8 %source%

TOC of the extracted CD

Track | Start | Length | Start sector | End sector
––––––––––––––––––––––––––––-
1 | 0:00.00 | 3:15.61 | 0 | 14685
2 | 3:15.61 | 4:42.10 | 14686 | 35845
3 | 7:57.71 | 1:01.24 | 35846 | 40444
4 | 8:59.20 | 5:18.53 | 40445 | 64347
5 | 14:17.73 | 2:09.16 | 64348 | 74038
6 | 16:27.14 | 3:37.08 | 74039 | 90321
7 | 20:04.22 | 1:27.25 | 90322 | 96871
8 | 21:31.47 | 6:24.21 | 96872 | 125692
9 | 27:55.68 | 1:25.37 | 125693 | 132104
10 | 29:21.30 | 2:05.11 | 132105 | 141490
11 | 31:26.41 | 4:18.60 | 141491 | 160900
12 | 35:45.26 | 1:43.71 | 160901 | 168696
13 | 37:29.22 | 7:12.70 | 168697 | 201166
14 | 44:42.17 | 5:10.04 | 201167 | 224420
15 | 49:52.21 | 4:26.17 | 224421 | 244387
16 | 54:18.38 | 5:05.07 | 244388 | 267269
17 | 59:23.45 | 2:34.50 | 267270 | 278869
18 | 61:58.20 | 3:34.64 | 278870 | 294983
19 | 65:33.09 | 2:50.03 | 294984 | 307736
20 | 68:23.12 | 3:44.61 | 307737 | 324597
21 | 72:07.73 | 7:52.02 | 324598 | 359999

Range status and errors

Selected range

Filename J:\Music\Bach - Complete Works for Organ - Alain\Bach - Complete Works for Organ - CD11.wav

Peak level 89.1 %
Extraction speed 4.4 X
Range quality 100.0 %
Copy CRC 0655F31F
Copy OK

No errors occurred

End of status report

==== Log checksum 10B7F6CA632C6DE7CA05EFDC59EECE39EDBBEAD57383C198853133451AA07C9D ====


CD12
Exact Audio Copy V1.0 beta 3 from 29. August 2011

EAC extraction logfile from 23. November 2011, 0:24

Marie-Claire Alain / Bach - Complete Works for Organ - CD12

Used drive : HL-DT-STDVDRAM GSA-4083N Adapter: 1 ID: 0

Read mode : Secure
Utilize accurate stream : Yes
Defeat audio cache : Yes
Make use of C2 pointers : No

Read offset correction : 667
Overread into Lead-In and Lead-Out : No
Fill up missing offset samples with silence : Yes
Delete leading and trailing silent blocks : No
Null samples used in CRC calculations : Yes
Used interface : Native Win32 interface for Win NT & 2000

Used output format : User Defined Encoder
Selected bitrate : 896 kBit/s
Quality : High
Add ID3 tag : No
Command line compressor : C:\Program Files\Exact Audio Copy\Flac\flac.exe
Additional command line options : -V -8 %source%

TOC of the extracted CD

Track | Start | Length | Start sector | End sector
––––––––––––––––––––––––––––-
1 | 0:00.00 | 3:38.29 | 0 | 16378
2 | 3:38.29 | 1:42.51 | 16379 | 24079
3 | 5:21.05 | 2:21.24 | 24080 | 34678
4 | 7:42.29 | 3:08.37 | 34679 | 48815
5 | 10:50.66 | 4:54.28 | 48816 | 70893
6 | 15:45.19 | 1:33.13 | 70894 | 77881
7 | 17:18.32 | 0:50.50 | 77882 | 81681
8 | 18:09.07 | 1:17.25 | 81682 | 87481
9 | 19:26.32 | 1:18.07 | 87482 | 93338
10 | 20:44.39 | 2:43.63 | 93339 | 105626
11 | 23:28.27 | 1:18.62 | 105627 | 111538
12 | 24:47.14 | 1:31.20 | 111539 | 118383
13 | 26:18.34 | 0:59.15 | 118384 | 122823
14 | 27:17.49 | 1:14.33 | 122824 | 128406
15 | 28:32.07 | 2:35.47 | 128407 | 140078
16 | 31:07.54 | 3:00.58 | 140079 | 153636
17 | 34:08.37 | 5:29.57 | 153637 | 178368
18 | 39:38.19 | 1:03.05 | 178369 | 183098
19 | 40:41.24 | 2:59.13 | 183099 | 196536
20 | 43:40.37 | 2:07.72 | 196537 | 206133
21 | 45:48.34 | 2:33.73 | 206134 | 217681
22 | 48:22.32 | 2:31.00 | 217682 | 229006
23 | 50:53.32 | 4:37.50 | 229007 | 249831
24 | 55:31.07 | 1:21.05 | 249832 | 255911
25 | 56:52.12 | 1:53.27 | 255912 | 264413
26 | 58:45.39 | 2:01.73 | 264414 | 273561
27 | 60:47.37 | 2:39.20 | 273562 | 285506
28 | 63:26.57 | 4:55.10 | 285507 | 307641
29 | 68:21.67 | 1:58.52 | 307642 | 316543
30 | 70:20.44 | 3:36.13 | 316544 | 332756
31 | 73:56.57 | 1:26.18 | 332757 | 339224

Range status and errors

Selected range

Filename J:\Music\Bach - Complete Works for Organ - Alain\Bach - Complete Works for Organ - CD12.wav

Peak level 86.0 %
Extraction speed 4.3 X
Range quality 100.0 %
Copy CRC 15F190EF
Copy OK

No errors occurred

End of status report

==== Log checksum 602287890663715E4130C54963826BDA28D7A53D92EF06AD0E0C642494EBAA5E ====


CD13
Exact Audio Copy V1.0 beta 3 from 29. August 2011

EAC extraction logfile from 23. November 2011, 2:37

Marie-Claire Alain / Bach - Complete Works for Organ - CD13

Used drive : HL-DT-STDVDRAM GSA-4083N Adapter: 1 ID: 0

Read mode : Secure
Utilize accurate stream : Yes
Defeat audio cache : Yes
Make use of C2 pointers : No

Read offset correction : 667
Overread into Lead-In and Lead-Out : No
Fill up missing offset samples with silence : Yes
Delete leading and trailing silent blocks : No
Null samples used in CRC calculations : Yes
Used interface : Native Win32 interface for Win NT & 2000

Used output format : User Defined Encoder
Selected bitrate : 896 kBit/s
Quality : High
Add ID3 tag : No
Command line compressor : C:\Program Files\Exact Audio Copy\Flac\flac.exe
Additional command line options : -V -8 %source%

TOC of the extracted CD

Track | Start | Length | Start sector | End sector
––––––––––––––––––––––––––––-
1 | 0:00.00 | 9:48.47 | 0 | 44146
2 | 9:48.47 | 5:04.60 | 44147 | 67006
3 | 14:53.32 | 1:28.58 | 67007 | 73664
4 | 16:22.15 | 2:16.57 | 73665 | 83921
5 | 18:38.72 | 1:07.45 | 83922 | 88991
6 | 19:46.42 | 2:31.23 | 88992 | 100339
7 | 22:17.65 | 2:07.62 | 100340 | 109926
8 | 24:25.52 | 2:11.45 | 109927 | 119796
9 | 26:37.22 | 1:54.03 | 119797 | 128349
10 | 28:31.25 | 2:37.72 | 128350 | 140196
11 | 31:09.22 | 1:26.05 | 140197 | 146651
12 | 32:35.27 | 4:40.43 | 146652 | 167694
13 | 37:15.70 | 2:15.42 | 167695 | 177861
14 | 39:31.37 | 4:03.03 | 177862 | 196089
15 | 43:34.40 | 5:49.30 | 196090 | 222294
16 | 49:23.70 | 3:11.57 | 222295 | 236676
17 | 52:35.52 | 1:27.33 | 236677 | 243234
18 | 54:03.10 | 4:30.05 | 243235 | 263489
19 | 58:33.15 | 4:36.70 | 263490 | 284259
20 | 63:10.10 | 5:28.32 | 284260 | 308891

Range status and errors

Selected range

Filename J:\Music\Bach - Complete Works for Organ - Alain\Bach - Complete Works for Organ - CD13.wav

Peak level 70.3 %
Extraction speed 4.2 X
Range quality 100.0 %
Copy CRC A18C795C
Copy OK

No errors occurred

End of status report

==== Log checksum 0F52472CC48C3B62E1FE4FB5A49BEB8956F7D62C28A8A7B9B042F904B1E6A9BB ====


CD14
Exact Audio Copy V1.0 beta 3 from 29. August 2011

EAC extraction logfile from 24. November 2011, 2:39

Marie-Claire Alain / Bach - Complete Works for Organ - CD14

Used drive : HL-DT-STDVDRAM GSA-4083N Adapter: 1 ID: 0

Read mode : Secure
Utilize accurate stream : Yes
Defeat audio cache : Yes
Make use of C2 pointers : No

Read offset correction : 667
Overread into Lead-In and Lead-Out : No
Fill up missing offset samples with silence : Yes
Delete leading and trailing silent blocks : No
Null samples used in CRC calculations : Yes
Used interface : Native Win32 interface for Win NT & 2000

Used output format : User Defined Encoder
Selected bitrate : 896 kBit/s
Quality : High
Add ID3 tag : No
Command line compressor : C:\Program Files\Exact Audio Copy\Flac\flac.exe
Additional command line options : -V -8 %source%

TOC of the extracted CD

Track | Start | Length | Start sector | End sector
––––––––––––––––––––––––––––-
1 | 0:00.00 | 3:12.00 | 0 | 14399
2 | 3:12.00 | 1:31.65 | 14400 | 21289
3 | 4:43.65 | 1:21.53 | 21290 | 27417
4 | 6:05.43 | 3:02.17 | 27418 | 41084
5 | 9:07.60 | 3:44.58 | 41085 | 57942
6 | 12:52.43 | 1:41.30 | 57943 | 65547
7 | 14:33.73 | 3:13.15 | 65548 | 80037
8 | 17:47.13 | 3:35.72 | 80038 | 96234
9 | 21:23.10 | 4:19.45 | 96235 | 115704
10 | 25:42.55 | 3:21.00 | 115705 | 130779
11 | 29:03.55 | 21:06.65 | 130780 | 225794
12 | 50:10.45 | 9:44.10 | 225795 | 269604
13 | 59:54.55 | 12:01.18 | 269605 | 323697

Range status and errors

Selected range

Filename J:\Music\Bach - Complete Works for Organ - Alain\Bach - Complete Works for Organ - CD14.wav

Peak level 67.9 %
Extraction speed 4.3 X
Range quality 100.0 %
Copy CRC 139176BB
Copy OK

No errors occurred

End of status report

==== Log checksum 13CF8750C68095B8E997063D720177DCEC568BDCBFC547895ADFD175E9F71FD3 ====


CD15
Exact Audio Copy V1.0 beta 3 from 29. August 2011

EAC extraction logfile from 25. November 2011, 2:05

Marie-Claire Alain / Bach - Complete Works for Organ - CD15

Used drive : HL-DT-STDVDRAM GSA-4083N Adapter: 1 ID: 0

Read mode : Secure
Utilize accurate stream : Yes
Defeat audio cache : Yes
Make use of C2 pointers : No

Read offset correction : 667
Overread into Lead-In and Lead-Out : No
Fill up missing offset samples with silence : Yes
Delete leading and trailing silent blocks : No
Null samples used in CRC calculations : Yes
Used interface : Native Win32 interface for Win NT & 2000

Used output format : User Defined Encoder
Selected bitrate : 896 kBit/s
Quality : High
Add ID3 tag : No
Command line compressor : C:\Program Files\Exact Audio Copy\Flac\flac.exe
Additional command line options : -V -8 %source%

TOC of the extracted CD

Track | Start | Length | Start sector | End sector
––––––––––––––––––––––––––––-
1 | 0:00.00 | 12:10.55 | 0 | 54804
2 | 12:10.55 | 17:20.40 | 54805 | 132844
3 | 29:31.20 | 12:03.32 | 132845 | 187101
4 | 41:34.52 | 3:19.33 | 187102 | 202059
5 | 44:54.10 | 3:14.05 | 202060 | 216614
6 | 48:08.15 | 6:18.57 | 216615 | 245021
7 | 54:26.72 | 1:38.38 | 245022 | 252409
8 | 56:05.35 | 3:06.37 | 252410 | 266396
9 | 59:11.72 | 4:20.40 | 266397 | 285936
10 | 63:32.37 | 2:02.68 | 285937 | 295154
11 | 65:35.30 | 4:48.55 | 295155 | 316809
12 | 70:24.10 | 2:21.47 | 316810 | 327431

Range status and errors

Selected range

Filename J:\Music\Bach - Complete Works for Organ - Alain\Bach - Complete Works for Organ - CD15.wav

Peak level 81.7 %
Extraction speed 4.3 X
Range quality 100.0 %
Copy CRC 214B6E79
Copy OK

No errors occurred

End of status report

==== Log checksum F61F184FF923477DD98F32C043CE800CC7EE99B57092BBE2E9F19FDA208F52DA ====


Marie-Claire Alain - Bach: Complete Works for Organ (2007) (15 CDs Box Set)

Thanks to the original ripper.