Subcategories

Massive Attack - Studio Albums Collection 1991-2010 (5CD) [Re-Up]

Posted By: Designol
Massive Attack - Studio Albums Collection 1991-2010 (5CD) [Re-Up]

Massive Attack - Studio Albums Collection 1991-2010 [5CD]
EAC | FLAC | Tracks (Cue&Log) ~ 1.45 Gb | Mp3 (CBR320) ~ 651 Mb | Scans ~ 637 Mb
Trip Hop, Electronic, Downtempo, Alternative Rock, Experimental | Time: 04:43:53

A Bristol collective whose combination of dark rhythms, reverb-laden guitars, and atmospheric samples helped pioneer the laid-back sound of trip-hop. Collection includes five studio albums: 'Blue Lines' (1991); 'Protection' (1994); 'Mezzanine' (1998); '100th Window' (2003); 'Heligoland' (2010).

One of the most innovative and influential groups of their generation, Massive Attack's hypnotic sound – a darkly sensual and cinematic fusion of hip-hop rhythms, soulful melodies, dub grooves, and choice samples – informed decades worth of acclaimed dance and rock artists including Portishead, Beth Orton, Radiohead, TV on the Radio, and Tricky, a Massive Attack alumnus.

Their history dates back to 1983 and the formation of the Wild Bunch, one of the earliest and most successful sound system/DJ collectives to arrive on the U.K. music scene. Renowned for their seamless integration of a wide range of musical styles, from punk to reggae to R&B, the group's parties quickly became can't-miss events for the Bristol club crowd, and at the peak of their popularity they drew crowds so enormous that the local live music scene essentially ground to a halt.

When the Wild Bunch folded during the mid-'80s, two of its members – Andrew "Mushroom" Vowles and Grant "Daddy G" Marshall – teamed with local graffiti artist 3D (born Robert del Naja) to form Massive Attack in 1987. Another Wild Bunch alum, Nellee Hooper, split his time between the new group and his other project, Soul II Soul. The group's first single, "Daydreaming," appeared in 1990, featuring the sultry vocals of singer Shara Nelson and raps by Tricky, another one-time Wild Bunch collaborator. The classic "Unfinished Sympathy" followed, as did another compelling effort, "Safe from Harm." Finally, in 1991 Massive Attack issued their debut LP, Blue Lines. While by no means a huge commercial success, the record was met with major critical praise, and was dubbed an instant classic in many quarters. Nelson, featured on many of the album's most memorable tracks, exited for a solo career soon after, and the group then changed its name to simply "Massive" to avoid any implication of approval for the U.N.'s policy toward Iraq.

After a three-year layoff, Massive Attack – their full name now properly reinstated – resurfaced with Protection. Again working with Hooper and Tricky, they also brought into the fold vocalist Nicolette, as well as Everything But the Girl's Tracey Thorn. Three singles – "Karmacoma," "Sly," and the title track – were released from the LP, which was also remixed in its entirety by Mad Professor and issued as No Protection. A lengthy tour followed, and over the next several years, Massive Attack's solo work was primarily confined to remixes for artists including Garbage. They also worked with Madonna on a track for a Marvin Gaye tribute album. Finally, to promote their appearance at the annual Glastonbury music festival, the group issued the EP Risingson during the summer of 1997.

The third full-length Massive Attack effort, Mezzanine, appeared in mid-1998. In addition to reggae singer Horace Andy making his third consecutive LP appearance with the group, vocal chores were handled by the Cocteau Twins' Elizabeth Fraser and newcomer Sara Jay. Mezzanine became a hit among critics, clubs, and the college crowds, spinning successful singles such as "Teardrop" and "Inertia Creeps." The album topped the U.K. chart and crossed into the Top 60 of the Billboard 200 in the U.S. A tour of America and Europe followed, but Vowles left the band after disagreeing with the artistic direction of Mezzanine. Del Naja and Marshall continued as a duo, later working with the likes of David Bowie and the Dandy Warhols, but Marshall later took a brief leave of absence to raise his family; producer Neil Davidge took up the slack.

In February 2003, after a five-year wait, Massive Attack released their fourth album, 100th Window, including collaborations with mainstay Horace Andy as well as Sinéad O'Connor. Danny the Dog, released in 2004, marked the group's entry into film score work and, perhaps unsurprisingly, often sounded much more like incidental background music than a typical Massive Attack release. From there, Del Naja and Davidge scored a handful of other films – In Prison My Whole Life, Battle in Seattle, and Trouble the Water, for which they earned an Oscar nomination – but their work was credited to their real names or the pseudonym 100 Suns rather than Massive Attack. The fifth Massive Attack album, Heligoland, released in 2010, featured collaborations with Horace Andy, TV on the Radio's Tunde Adebimpe, Elbow's Guy Garvey, and Martina Topley-Bird. Burial remixed the album's "Paradise Circus" and the unreleased "Four Walls" for a limited 12" release in 2011. The group returned in 2016 with a four-track EP, Ritual Spirit, on which they were joined by Tricky, Roots Manuva, and Young Fathers. Del Naja and Heligoland contributor Euan Dickinson were credited as co-producers.

Biography by Jason Ankeny, Allmusic.com

Massive Attack - Studio Albums Collection 1991-2010 (5CD) [Re-Up]

Massive Attack - Studio Albums Collection 1991-2010 (5CD) [Re-Up]





Massive Attack - Studio Albums Collection 1991-2010 (5CD) [Re-Up]

Massive Attack - Blue Lines (1991)
EAC | FLAC | Tracks (Cue&Log) ~ 248 Mb | Mp3 (CBR320) ~ 103 Mb | Scans ~ 169 Mb
Label: Wild Bunch Records/Circa | # WBRCD 1/0777 7 86228 2 6 | Time: 00:45:09

The first masterpiece of what was only termed trip-hop much later, Blue Lines filtered American hip-hop through the lens of British club culture, a stylish, nocturnal sense of scene that encompassed music from rare groove to dub to dance. The album balances dark, diva-led club jams along the lines of Soul II Soul with some of the best British rap (vocals and production) heard up to that point, occasionally on the same track. The opener "Safe From Harm" is the best example, with diva vocalist Shara Nelson trading off lines with the group's own monotone (yet effective) rapping. Even more than hip-hop or dance, however, dub is the big touchstone on Blue Lines. Most of the productions aren't quite as earthy as you'd expect, but the influence is palpable in the atmospherics of the songs, like the faraway electric piano on "One Love" (with beautiful vocals from the near-legendary Horace Andy). One track, "Five Man Army," makes the dub inspiration explicit, with a clattering percussion line, moderate reverb on the guitar and drums, and Andy's exquisite falsetto flitting over the chorus. Blue Lines isn't all darkness, either – "Be Thankful for What You've Got" is quite close to the smooth soul tune conjured by its title, and "Unfinished Sympathy" – the group's first classic production – is a tremendously moving fusion of up-tempo hip-hop and dancefloor jam with slow-moving, syrupy strings. Flaunting both their range and their tremendously evocative productions, Massive Attack recorded one of the best dance albums of all time.

Review by John Bush, Allmusic.com

Tracklist:

01. Safe From Harm (05:18)
02. One Love (04:48)
03. Blue Lines (04:21)
04. Be Thankful for What You've Got (04:09)
05. Five Man Army (06:04)
06. Unfinished Sympathy (05:08)
07. Daydreaming (04:14)
08. Lately (04:26)
09. Hymn of the Big Wheel (06:36)


Exact Audio Copy V0.99 prebeta 5 from 4. May 2009

EAC extraction logfile from 10. March 2012, 15:07

Massive Attack / Blue Lines

Used drive : Optiarc DVD RW AD-7200S Adapter: 2 ID: 0

Read mode : Secure
Utilize accurate stream : Yes
Defeat audio cache : Yes
Make use of C2 pointers : No

Read offset correction : 48
Overread into Lead-In and Lead-Out : No
Fill up missing offset samples with silence : Yes
Delete leading and trailing silent blocks : No
Null samples used in CRC calculations : Yes
Used interface : Installed external ASPI interface
Gap handling : Appended to previous track

Used output format : User Defined Encoder
Selected bitrate : 32 kBit/s
Quality : High
Add ID3 tag : No
Command line compressor : C:\Program Files\Exact Audio Copy\Flac\flac.exe
Additional command line options : -6 -V -T "ARTIST=%a" -T "TITLE=%t" -T "ALBUM=%g" -T "DATE=%y" -T "TRACKNUMBER=%n" -T "GENRE=%m" -T "COMMENT=%e" %s -o %d


TOC of the extracted CD

Track | Start | Length | Start sector | End sector
––––––––––––––––––––––––––––-
1 | 0:00.00 | 5:18.67 | 0 | 23916
2 | 5:18.67 | 4:48.48 | 23917 | 45564
3 | 10:07.40 | 4:21.50 | 45565 | 65189
4 | 14:29.15 | 4:09.40 | 65190 | 83904
5 | 18:38.55 | 6:04.25 | 83905 | 111229
6 | 24:43.05 | 5:08.32 | 111230 | 134361
7 | 29:51.37 | 4:14.35 | 134362 | 153446
8 | 34:05.72 | 4:26.53 | 153447 | 173449
9 | 38:32.50 | 6:36.25 | 173450 | 203174


Track 1

Filename C:\Massive Attack 1991 - Blue Lines [Wild Bunch Records WBRCD 1, Circa 0777 7 86228 2 6]\01 - Safe From Harm.wav

Pre-gap length 0:00:02.00

Peak level 96.2 %
Track quality 100.0 %
Test CRC 83B746C5
Copy CRC 83B746C5
Accurately ripped (confidence 140) [DD33B52F]
Copy OK

Track 2

Filename C:\Massive Attack 1991 - Blue Lines [Wild Bunch Records WBRCD 1, Circa 0777 7 86228 2 6]\02 - One Love.wav

Peak level 91.2 %
Track quality 100.0 %
Test CRC 2B46F50E
Copy CRC 2B46F50E
Accurately ripped (confidence 140) [65CC5183]
Copy OK

Track 3

Filename C:\Massive Attack 1991 - Blue Lines [Wild Bunch Records WBRCD 1, Circa 0777 7 86228 2 6]\03 - Blue Lines.wav

Peak level 63.5 %
Track quality 99.9 %
Test CRC AF88C369
Copy CRC AF88C369
Accurately ripped (confidence 140) [00556A33]
Copy OK

Track 4

Filename C:\Massive Attack 1991 - Blue Lines [Wild Bunch Records WBRCD 1, Circa 0777 7 86228 2 6]\04 - Be Thankful for What You've Got.wav

Peak level 100.0 %
Track quality 100.0 %
Test CRC 8794373D
Copy CRC 8794373D
Accurately ripped (confidence 141) [2CF30F5D]
Copy OK

Track 5

Filename C:\Massive Attack 1991 - Blue Lines [Wild Bunch Records WBRCD 1, Circa 0777 7 86228 2 6]\05 - Five Man Army.wav

Peak level 75.2 %
Track quality 100.0 %
Test CRC 353711DC
Copy CRC 353711DC
Accurately ripped (confidence 142) [DF5B4106]
Copy OK

Track 6

Filename C:\Massive Attack 1991 - Blue Lines [Wild Bunch Records WBRCD 1, Circa 0777 7 86228 2 6]\06 - Unfinished Sympathy.wav

Peak level 88.9 %
Track quality 100.0 %
Test CRC 4655990E
Copy CRC 4655990E
Accurately ripped (confidence 140) [B9DB9F82]
Copy OK

Track 7

Filename C:\Massive Attack 1991 - Blue Lines [Wild Bunch Records WBRCD 1, Circa 0777 7 86228 2 6]\07 - Daydreaming.wav

Peak level 81.2 %
Track quality 100.0 %
Test CRC B0F39C18
Copy CRC B0F39C18
Accurately ripped (confidence 140) [9870072D]
Copy OK

Track 8

Filename C:\Massive Attack 1991 - Blue Lines [Wild Bunch Records WBRCD 1, Circa 0777 7 86228 2 6]\08 - Lately.wav

Peak level 88.7 %
Track quality 100.0 %
Test CRC 68A7D9E3
Copy CRC 68A7D9E3
Accurately ripped (confidence 141) [E847FBEC]
Copy OK

Track 9

Filename C:\Massive Attack 1991 - Blue Lines [Wild Bunch Records WBRCD 1, Circa 0777 7 86228 2 6]\09 - Hymn of the Big Wheel.wav

Peak level 75.0 %
Track quality 100.0 %
Test CRC 161C9EFB
Copy CRC 161C9EFB
Accurately ripped (confidence 135) [6CD8B35A]
Copy OK


All tracks accurately ripped

No errors occurred

End of status report

foobar2000 1.2 / Dynamic Range Meter 1.1.1
log date: 2017-09-06 23:10:00

––––––––––––––––––––––––––––––––––––––––
Analyzed: Massive Attack / Blue Lines
––––––––––––––––––––––––––––––––––––––––

DR Peak RMS Duration Track
––––––––––––––––––––––––––––––––––––––––
DR12 -0.33 dB -14.48 dB 5:19 01-Safe From Harm
DR13 -0.80 dB -17.66 dB 4:49 02-One Love
DR13 -3.93 dB -18.59 dB 4:22 03-Blue Lines
DR13 0.00 dB -15.73 dB 4:10 04-Be Thankful for What You've Got
DR11 -2.48 dB -15.92 dB 6:04 05-Five Man Army
DR12 -1.02 dB -15.09 dB 5:08 06-Unfinished Sympathy
DR14 -1.81 dB -16.65 dB 4:14 07-Daydreaming
DR14 -1.03 dB -17.46 dB 4:27 08-Lately
DR13 -2.50 dB -18.02 dB 6:36 09-Hymn of the Big Wheel
––––––––––––––––––––––––––––––––––––––––

Number of tracks: 9
Official DR value: DR13

Samplerate: 44100 Hz
Channels: 2
Bits per sample: 16
Bitrate: 696 kbps
Codec: FLAC
================================================================================




Massive Attack - Studio Albums Collection 1991-2010 (5CD) [Re-Up]

Massive Attack - Protection (1994)
EAC | FLAC | Tracks (Cue&Log) ~ 269 Mb | Mp3 (CBR320) ~ 112 Mb | Scans ~ 147 Mb
Label: Wild Bunch Records/Circa | # wbrcd2/7243 8 39883 2 7 | Time: 00:49:02

Massive Attack's sophomore effort could never be as stunning as Blue Lines, and a slight drop in production and songwriting quality made the comparisons easy. Still, from the first two songs Protection sounds worthy of their debut. The opening title track is pure excellence, with melancholy keyboards, throbbing acid lines, and fragmented beats perfectly complementing the transcendent vocals of Tracey Thorn (an inspired choice to replace the departed Shara Nelson as their muse). Tricky, another soon-to-be-solo performer, makes his breakout on this record, with blunted performances on "Karmacoma," another highlight, as well as "Eurochild." But even though the production is just as intriguing as on Blue Lines, there's a bit lacking here – Massive Attack doesn't summon quite the emotional power they did previously. Guest Craig Armstrong's piano work on the aimless tracks "Weather Storm" and "Heat Miser" leans uncomfortably close to Muzak, and his arrangement and conducting for "Sly" isn't much better (vocals by Nicolette save the track somewhat). Though it's still miles ahead of the growing raft of trip-hop making the rounds in the mid-'90s, Protection is rather a disappointment.

Review by John Bush, Allmusic.com

Tracklist:

01. Protection (07:51)
02. Karmacoma (05:16)
03. Three (03:49)
04. Weather Storm (04:59)
05. Spying Glass (05:20)
06. Better Things (04:18)
07. Eurochild (05:06)
08. Sly (05:24)
09. Heat Miser (03:39)
10. Light My Fire (Live) (03:15)


Exact Audio Copy V0.99 prebeta 5 from 4. May 2009

EAC extraction logfile from 10. March 2012, 14:06

Massive Attack / Protection

Used drive : Optiarc DVD RW AD-7200S Adapter: 2 ID: 0

Read mode : Secure
Utilize accurate stream : Yes
Defeat audio cache : Yes
Make use of C2 pointers : No

Read offset correction : 48
Overread into Lead-In and Lead-Out : No
Fill up missing offset samples with silence : Yes
Delete leading and trailing silent blocks : No
Null samples used in CRC calculations : Yes
Used interface : Installed external ASPI interface
Gap handling : Appended to previous track

Used output format : User Defined Encoder
Selected bitrate : 32 kBit/s
Quality : High
Add ID3 tag : No
Command line compressor : C:\Program Files\Exact Audio Copy\Flac\flac.exe
Additional command line options : -6 -V -T "ARTIST=%a" -T "TITLE=%t" -T "ALBUM=%g" -T "DATE=%y" -T "TRACKNUMBER=%n" -T "GENRE=%m" -T "COMMENT=%e" %s -o %d


TOC of the extracted CD

Track | Start | Length | Start sector | End sector
––––––––––––––––––––––––––––-
1 | 0:00.00 | 7:51.35 | 0 | 35359
2 | 7:51.35 | 5:16.33 | 35360 | 59092
3 | 13:07.68 | 3:49.12 | 59093 | 76279
4 | 16:57.05 | 4:59.73 | 76280 | 98777
5 | 21:57.03 | 5:20.60 | 98778 | 122837
6 | 27:17.63 | 4:18.40 | 122838 | 142227
7 | 31:36.28 | 5:06.55 | 142228 | 165232
8 | 36:43.08 | 5:24.40 | 165233 | 189572
9 | 42:07.48 | 3:39.12 | 189573 | 206009
10 | 45:46.60 | 3:15.25 | 206010 | 220659


Track 1

Filename C:\Massive Attack 1994 - Protection [Wild Bunch Records wbrcd2, Circa 7243 8 39883 2 7]\01 - Protection.wav

Pre-gap length 0:00:02.00

Peak level 100.0 %
Track quality 100.0 %
Test CRC FD2E3B66
Copy CRC FD2E3B66
Accurately ripped (confidence 200) [32B7A0D2]
Copy OK

Track 2

Filename C:\Massive Attack 1994 - Protection [Wild Bunch Records wbrcd2, Circa 7243 8 39883 2 7]\02 - Karmacoma.wav

Peak level 99.9 %
Track quality 99.9 %
Test CRC BD91C475
Copy CRC BD91C475
Accurately ripped (confidence 200) [2B6CCA37]
Copy OK

Track 3

Filename C:\Massive Attack 1994 - Protection [Wild Bunch Records wbrcd2, Circa 7243 8 39883 2 7]\03 - Three.wav

Peak level 99.9 %
Track quality 100.0 %
Test CRC 9117ADB4
Copy CRC 9117ADB4
Accurately ripped (confidence 200) [87452DDA]
Copy OK

Track 4

Filename C:\Massive Attack 1994 - Protection [Wild Bunch Records wbrcd2, Circa 7243 8 39883 2 7]\04 - Weather Storm.wav

Pre-gap length 0:00:01.89

Peak level 100.0 %
Track quality 100.0 %
Test CRC 1147029F
Copy CRC 1147029F
Accurately ripped (confidence 200) [585BEFA5]
Copy OK

Track 5

Filename C:\Massive Attack 1994 - Protection [Wild Bunch Records wbrcd2, Circa 7243 8 39883 2 7]\05 - Spying Glass.wav

Peak level 100.0 %
Track quality 100.0 %
Test CRC 66797A20
Copy CRC 66797A20
Accurately ripped (confidence 200) [D1A21516]
Copy OK

Track 6

Filename C:\Massive Attack 1994 - Protection [Wild Bunch Records wbrcd2, Circa 7243 8 39883 2 7]\06 - Better Things.wav

Peak level 99.9 %
Track quality 100.0 %
Test CRC B4BE699D
Copy CRC B4BE699D
Accurately ripped (confidence 200) [5608290F]
Copy OK

Track 7

Filename C:\Massive Attack 1994 - Protection [Wild Bunch Records wbrcd2, Circa 7243 8 39883 2 7]\07 - Eurochild.wav

Peak level 100.0 %
Track quality 100.0 %
Test CRC A5AE4D19
Copy CRC A5AE4D19
Accurately ripped (confidence 200) [A9A14002]
Copy OK

Track 8

Filename C:\Massive Attack 1994 - Protection [Wild Bunch Records wbrcd2, Circa 7243 8 39883 2 7]\08 - Sly.wav

Peak level 99.9 %
Track quality 100.0 %
Test CRC D6A5C4FC
Copy CRC D6A5C4FC
Accurately ripped (confidence 200) [8C1A3364]
Copy OK

Track 9

Filename C:\Massive Attack 1994 - Protection [Wild Bunch Records wbrcd2, Circa 7243 8 39883 2 7]\09 - Heat Miser.wav

Peak level 99.9 %
Track quality 99.9 %
Test CRC F3E3306B
Copy CRC F3E3306B
Accurately ripped (confidence 200) [63167A59]
Copy OK

Track 10

Filename C:\Massive Attack 1994 - Protection [Wild Bunch Records wbrcd2, Circa 7243 8 39883 2 7]\10 - Light My Fire (Live).wav

Peak level 93.5 %
Track quality 100.0 %
Test CRC C5C8B025
Copy CRC C5C8B025
Accurately ripped (confidence 200) [C0E36391]
Copy OK


All tracks accurately ripped

No errors occurred

End of status report

foobar2000 1.2 / Dynamic Range Meter 1.1.1
log date: 2017-09-06 23:10:20

––––––––––––––––––––––––––––––––––––––––
Analyzed: Massive Attack / Protection
––––––––––––––––––––––––––––––––––––––––

DR Peak RMS Duration Track
––––––––––––––––––––––––––––––––––––––––
DR12 0.00 dB -13.27 dB 7:51 01-Protection
DR11 0.00 dB -12.38 dB 5:16 02-Karmacoma
DR11 0.00 dB -13.00 dB 3:49 03-Three
DR13 0.00 dB -14.12 dB 5:00 04-Weather Storm
DR11 0.00 dB -12.36 dB 5:21 05-Spying Glass
DR10 0.00 dB -13.33 dB 4:19 06-Better Things
DR10 0.00 dB -11.62 dB 5:07 07-Eurochild
DR11 0.00 dB -13.62 dB 5:25 08-Sly
DR12 0.00 dB -13.99 dB 3:39 09-Heat Miser
DR12 -0.58 dB -15.36 dB 3:15 10-Light My Fire (Live)
––––––––––––––––––––––––––––––––––––––––

Number of tracks: 10
Official DR value: DR11

Samplerate: 44100 Hz
Channels: 2
Bits per sample: 16
Bitrate: 767 kbps
Codec: FLAC
================================================================================




Massive Attack - Studio Albums Collection 1991-2010 (5CD) [Re-Up]

Massive Attack - Mezzanine (1998)
EAC | FLAC | Tracks (Cue&Log) ~ 358 Mb | Mp3 (CBR320) ~ 146 Mb | Scans ~ 77 Mb
Label: Circa/Virgin | # WBRCD4/7243 8 45599 2 2 | Time: 01:03:43

Increasingly ignored amidst the exploding trip-hop scene, Massive Attack finally returned in 1998 with Mezzanine, a record immediately announcing not only that the group was back, but that they'd recorded a set of songs just as singular and revelatory as on their debut, almost a decade back. It all begins with a stunning one-two-three-four punch: "Angel," "Risingson," "Teardrop," and "Inertia Creeps." Augmenting their samples and keyboards with a studio band, Massive Attack open with "Angel," a stark production featuring pointed beats and a distorted bassline that frames the vocal (by group regular Horace Andy) and a two-minute flame-out with raging guitars. "Risingson" is a dense, dark feature for Massive Attack themselves (on production as well as vocals), with a kitchen sink's worth of dubby effects and reverb. "Teardrop" introduces another genius collaboration – with Elizabeth Fraser from Cocteau Twins – from a production unit with a knack for recruiting gifted performers. The blend of earthy with ethereal shouldn't work at all, but Massive Attack pull it off in fine fashion. "Inertia Creeps" could well be the highlight, another feature for just the core threesome. With eerie atmospherics, fuzz-tone guitars, and a wealth of effects, the song could well be the best production from the best team of producers the electronic world had ever seen. Obviously, the rest of the album can't compete, but there's certainly no sign of the side-two slump heard on Protection, as both Andy and Fraser return for excellent, mid-tempo tracks ("Man Next Door" and "Black Milk," respectively).

Review by John Bush, Allmusic.com

Tracklist:

01. Angel (06:20)
02. Risingson (04:58)
03. Teardrop (05:30)
04. Inertia Creeps (05:56)
05. Exchange (04:11)
06. Dissolved Girl (06:06)
07. Man Next Door (05:56)
08. Black Milk (06:21)
09. Mezzanine (05:56)
10. Group Four (08:12)
11. (Exchange) (04:10)


Exact Audio Copy V0.99 prebeta 5 from 4. May 2009

EAC extraction logfile from 10. March 2012, 2:01

Massive Attack / Mezzanine

Used drive : Optiarc DVD RW AD-7200S Adapter: 2 ID: 0

Read mode : Secure
Utilize accurate stream : Yes
Defeat audio cache : Yes
Make use of C2 pointers : No

Read offset correction : 48
Overread into Lead-In and Lead-Out : No
Fill up missing offset samples with silence : Yes
Delete leading and trailing silent blocks : No
Null samples used in CRC calculations : Yes
Used interface : Installed external ASPI interface
Gap handling : Appended to previous track

Used output format : User Defined Encoder
Selected bitrate : 32 kBit/s
Quality : High
Add ID3 tag : No
Command line compressor : C:\Program Files\Exact Audio Copy\Flac\flac.exe
Additional command line options : -6 -V -T "ARTIST=%a" -T "TITLE=%t" -T "ALBUM=%g" -T "DATE=%y" -T "TRACKNUMBER=%n" -T "GENRE=%m" -T "COMMENT=%e" %s -o %d


TOC of the extracted CD

Track | Start | Length | Start sector | End sector
––––––––––––––––––––––––––––-
1 | 0:00.00 | 6:20.40 | 0 | 28539
2 | 6:20.40 | 4:58.62 | 28540 | 50951
3 | 11:19.27 | 5:30.58 | 50952 | 75759
4 | 16:50.10 | 5:56.72 | 75760 | 102531
5 | 22:47.07 | 4:11.15 | 102532 | 121371
6 | 26:58.22 | 6:06.68 | 121372 | 148889
7 | 33:05.15 | 5:56.32 | 148890 | 175621
8 | 39:01.47 | 6:21.40 | 175622 | 204236
9 | 45:23.12 | 5:56.58 | 204237 | 230994
10 | 51:19.70 | 8:12.20 | 230995 | 267914
11 | 59:32.15 | 4:10.27 | 267915 | 286691


Track 1

Filename C:\Massive Attack 1998 - Mezzanine [Circa, Virgin WBRCD4 7243 8 45599 2 2]\01 - Angel.wav

Pre-gap length 0:00:02.00

Peak level 99.5 %
Track quality 99.9 %
Test CRC 3DC595D8
Copy CRC 3DC595D8
Accurately ripped (confidence 200) [F31356AC]
Copy OK

Track 2

Filename C:\Massive Attack 1998 - Mezzanine [Circa, Virgin WBRCD4 7243 8 45599 2 2]\02 - Risingson.wav

Pre-gap length 0:00:01.26

Peak level 99.9 %
Track quality 100.0 %
Test CRC B2109E78
Copy CRC B2109E78
Accurately ripped (confidence 200) [8646E764]
Copy OK

Track 3

Filename C:\Massive Attack 1998 - Mezzanine [Circa, Virgin WBRCD4 7243 8 45599 2 2]\03 - Teardrop.wav

Pre-gap length 0:00:00.89

Peak level 100.0 %
Track quality 100.0 %
Test CRC CB4C4A23
Copy CRC CB4C4A23
Accurately ripped (confidence 200) [29E26B2C]
Copy OK

Track 4

Filename C:\Massive Attack 1998 - Mezzanine [Circa, Virgin WBRCD4 7243 8 45599 2 2]\04 - Inertia Creeps.wav

Pre-gap length 0:00:01.40

Peak level 99.5 %
Track quality 99.9 %
Test CRC 40486BDF
Copy CRC 40486BDF
Accurately ripped (confidence 200) [D4ECB650]
Copy OK

Track 5

Filename C:\Massive Attack 1998 - Mezzanine [Circa, Virgin WBRCD4 7243 8 45599 2 2]\05 - Exchange.wav

Pre-gap length 0:00:00.20

Peak level 99.8 %
Track quality 100.0 %
Test CRC BEFFF62F
Copy CRC BEFFF62F
Accurately ripped (confidence 200) [4F03F2F2]
Copy OK

Track 6

Filename C:\Massive Attack 1998 - Mezzanine [Circa, Virgin WBRCD4 7243 8 45599 2 2]\06 - Dissolved Girl.wav

Peak level 100.0 %
Track quality 99.9 %
Test CRC 54195C18
Copy CRC 54195C18
Accurately ripped (confidence 200) [01EB6177]
Copy OK

Track 7

Filename C:\Massive Attack 1998 - Mezzanine [Circa, Virgin WBRCD4 7243 8 45599 2 2]\07 - Man Next Door.wav

Peak level 99.8 %
Track quality 100.0 %
Test CRC 6000FAC9
Copy CRC 6000FAC9
Accurately ripped (confidence 200) [32ACA1E0]
Copy OK

Track 8

Filename C:\Massive Attack 1998 - Mezzanine [Circa, Virgin WBRCD4 7243 8 45599 2 2]\08 - Black Milk.wav

Pre-gap length 0:00:01.49

Peak level 98.9 %
Track quality 99.9 %
Test CRC B31DC677
Copy CRC B31DC677
Accurately ripped (confidence 200) [5B7FCBE8]
Copy OK

Track 9

Filename C:\Massive Attack 1998 - Mezzanine [Circa, Virgin WBRCD4 7243 8 45599 2 2]\09 - Mezzanine.wav

Pre-gap length 0:00:00.36

Peak level 99.8 %
Track quality 100.0 %
Test CRC 9EC2C601
Copy CRC 9EC2C601
Accurately ripped (confidence 200) [AF7A8A08]
Copy OK

Track 10

Filename C:\Massive Attack 1998 - Mezzanine [Circa, Virgin WBRCD4 7243 8 45599 2 2]\10 - Group Four.wav

Pre-gap length 0:00:00.64

Peak level 99.5 %
Track quality 100.0 %
Test CRC 18C4D6CA
Copy CRC 18C4D6CA
Accurately ripped (confidence 200) [C189C8FB]
Copy OK

Track 11

Filename C:\Massive Attack 1998 - Mezzanine [Circa, Virgin WBRCD4 7243 8 45599 2 2]\11 - (Exchange).wav

Peak level 95.1 %
Track quality 100.0 %
Test CRC D55B7BAC
Copy CRC D55B7BAC
Accurately ripped (confidence 200) [A16F2E97]
Copy OK


All tracks accurately ripped

No errors occurred

End of status report

foobar2000 1.2 / Dynamic Range Meter 1.1.1
log date: 2017-09-06 23:10:46

––––––––––––––––––––––––––––––––––––––––
Analyzed: Massive Attack / Mezzanine
––––––––––––––––––––––––––––––––––––––––

DR Peak RMS Duration Track
––––––––––––––––––––––––––––––––––––––––
DR8 -0.04 dB -10.01 dB 6:21 01-Angel
DR7 -0.01 dB -8.84 dB 4:59 02-Risingson
DR8 0.00 dB -9.97 dB 5:31 03-Teardrop
DR8 -0.04 dB -10.70 dB 5:57 04-Inertia Creeps
DR9 -0.01 dB -11.37 dB 4:11 05-Exchange
DR8 0.00 dB -10.09 dB 6:07 06-Dissolved Girl
DR7 -0.01 dB -8.70 dB 5:56 07-Man Next Door
DR7 -0.09 dB -8.02 dB 6:22 08-Black Milk
DR8 -0.01 dB -10.45 dB 5:57 09-Mezzanine
DR7 -0.04 dB -9.47 dB 8:12 10-Group Four
DR9 -0.43 dB -14.01 dB 4:10 11-(Exchange)
––––––––––––––––––––––––––––––––––––––––

Number of tracks: 11
Official DR value: DR8

Samplerate: 44100 Hz
Channels: 2
Bits per sample: 16
Bitrate: 677 kbps
Codec: FLAC
================================================================================




Massive Attack - Studio Albums Collection 1991-2010 (5CD) [Re-Up]

Massive Attack - 100th Window (2003)
EAC | FLAC | Tracks (Cue&Log) ~ 419 Mb | Mp3 (CBR320) ~ 169 Mb | Scans ~ 148 Mb
Label: Virgin | # 724358132120 | Time: 01:13:56

A new album from Massive Attack is an event, even if only one-third of the original group is present for the festivities. Just the group's fourth album in more than a dozen years, 100th Window marked the departure of Mushroom (permanently, after artistic differences) and Daddy G (temporarily, to raise a family), leaving only one founding member, 3D (Robert del Naja), to muddle along with arranger/producer Neil Davidge (who made his Massive Attack debut on 1998's Mezzanine). Though Del Naja is mostly successful giving the people what they want – a follow-up to Mezzanine, one of the most compulsive listens of '90s electronica – it unfortunately comes as a sacrifice to the very thing that made Massive Attack so crucial to dance music: their never-ending progression to a radically different sound with each release. For better or worse, 100th Window has the same crushingly oppressive productions, dark, spiralling basslines, and pile-driving beats instantly familiar to fans of Mezzanine. Fortunately, it also has the same depth and point-perfect attention to detail, making for fascinating listening no matter whether the focus is the songs, the effects, or even the percussion lines. Jamaican crooner Horace Andy is back for a pair of tracks ("Everywhen," "Name Taken") that nearly equal his features on the last record, while Sinéad O'Connor makes her debut with three vocal features. Unlike Liz Fraser or Tracey Thorn (two Massive Attack muses from the past), O'Connor's voice lacks resonance and doesn't reward the close inspection that a Massive Attack production demands. Still, her songwriting is far superior and the slight quaver in her voice adds a much-needed personality to these songs. "A Prayer for England" is a political protest that aligns itself perfectly with the group that coined its name as a satirical nod to military aggression. Another feature for O'Connor, "What Your Soul Sings," is the only song here that compares to the best Massive Attack has to offer, beginning with a harsh, claustrophobic atmosphere, but soon blossoming like a flower into a beautiful song led by her tremulous voice. In comparison, the four songs for 3D are average at best, mere recyclings of the same ideas heard years earlier. That's satisfaction enough for those who kept Mezzanine near their stereo for years on end, but a disappointment to those expecting another masterpiece.

Review by John Bush, Allmusic.com

Tracklist:

01. Future Proof (05:38)
02. What Your Soul Sings (06:38)
03. Everywhen (07:39)
04. Special Cases (05:09)
05. Butterfly Caught (07:34)
06. A Prayer for England (05:48)
07. Small Time Shot Away (07:59)
08. Name Taken (07:49)
09. Antistar (19:38)


Exact Audio Copy V0.99 prebeta 5 from 4. May 2009

EAC extraction logfile from 13. March 2012, 15:23

Massive Attack / 100th Window

Used drive : TOSHIBA CDW/DVD SD-R1612 Adapter: 0 ID: 1

Read mode : Secure
Utilize accurate stream : Yes
Defeat audio cache : Yes
Make use of C2 pointers : No

Read offset correction : 6
Overread into Lead-In and Lead-Out : No
Fill up missing offset samples with silence : Yes
Delete leading and trailing silent blocks : No
Null samples used in CRC calculations : Yes
Used interface : Installed external ASPI interface
Gap handling : Appended to previous track

Used output format : User Defined Encoder
Selected bitrate : 32 kBit/s
Quality : High
Add ID3 tag : No
Command line compressor : C:\Program Files\Exact Audio Copy\Flac\flac.exe
Additional command line options : -6 -V -T "ARTIST=%a" -T "TITLE=%t" -T "ALBUM=%g" -T "DATE=%y" -T "TRACKNUMBER=%n" -T "GENRE=%m" -T "COMMENT=%e" %s -o %d


TOC of the extracted CD

Track | Start | Length | Start sector | End sector
––––––––––––––––––––––––––––-
1 | 0:00.00 | 5:38.45 | 0 | 25394
2 | 5:38.45 | 6:38.57 | 25395 | 55301
3 | 12:17.27 | 7:39.11 | 55302 | 89737
4 | 19:56.38 | 5:09.02 | 89738 | 112914
5 | 25:05.40 | 7:34.52 | 112915 | 147016
6 | 32:40.17 | 5:48.44 | 147017 | 173160
7 | 38:28.61 | 7:59.33 | 173161 | 209118
8 | 46:28.19 | 7:49.10 | 209119 | 244303
9 | 54:17.29 | 19:38.42 | 244304 | 332695
10 | 76:27.71 | 3:25.04 | 344096 | 359474


Track 1

Filename C:\Massive Attack 2003 - 100th Window [Virgin 724358132120]\01 - Future proof.wav

Pre-gap length 0:00:02.00

Peak level 99.9 %
Track quality 100.0 %
Test CRC 1E1ABC1C
Copy CRC 1E1ABC1C
Cannot be verified as accurate (confidence 32) [BDC0E21B], AccurateRip returned [84CB1BAD]
Copy OK

Track 2

Filename C:\Massive Attack 2003 - 100th Window [Virgin 724358132120]\02 - What your soul sings.wav

Pre-gap length 0:00:02.60

Peak level 100.0 %
Track quality 99.9 %
Test CRC 02F15A40
Copy CRC 02F15A40
Cannot be verified as accurate (confidence 29) [5C120DE0], AccurateRip returned [66E82EEC]
Copy OK

Track 3

Filename C:\Massive Attack 2003 - 100th Window [Virgin 724358132120]\03 - Everywhen.wav

Pre-gap length 0:00:01.37

Peak level 99.9 %
Track quality 99.9 %
Test CRC DC1CE605
Copy CRC DC1CE605
Cannot be verified as accurate (confidence 17) [143CB34C], AccurateRip returned [A64D16E9]
Copy OK

Track 4

Filename C:\Massive Attack 2003 - 100th Window [Virgin 724358132120]\04 - Special cases.wav

Pre-gap length 0:00:02.24

Peak level 99.9 %
Track quality 100.0 %
Test CRC 078D6DAE
Copy CRC 078D6DAE
Cannot be verified as accurate (confidence 33) [FF3DA882], AccurateRip returned [744A0733]
Copy OK

Track 5

Filename C:\Massive Attack 2003 - 100th Window [Virgin 724358132120]\05 - Butterfly caught.wav

Peak level 99.9 %
Track quality 100.0 %
Test CRC 80DB7CD1
Copy CRC 80DB7CD1
Cannot be verified as accurate (confidence 29) [93A9386E], AccurateRip returned [C7490F3A]
Copy OK

Track 6

Filename C:\Massive Attack 2003 - 100th Window [Virgin 724358132120]\06 - A prayer for England.wav

Pre-gap length 0:00:01.05

Peak level 99.9 %
Track quality 100.0 %
Test CRC 5E9118C0
Copy CRC 5E9118C0
Cannot be verified as accurate (confidence 48) [6AF82897], AccurateRip returned [F8B63B41]
Copy OK

Track 7

Filename C:\Massive Attack 2003 - 100th Window [Virgin 724358132120]\07 - Small time shot away.wav

Pre-gap length 0:00:04.06

Peak level 99.9 %
Track quality 100.0 %
Test CRC D9903AD4
Copy CRC D9903AD4
Cannot be verified as accurate (confidence 41) [7AEBE46C], AccurateRip returned [71753E2A]
Copy OK

Track 8

Filename C:\Massive Attack 2003 - 100th Window [Virgin 724358132120]\08 - Name taken.wav

Pre-gap length 0:00:02.10

Peak level 99.9 %
Track quality 100.0 %
Test CRC 67859389
Copy CRC 67859389
Cannot be verified as accurate (confidence 29) [28666496], AccurateRip returned [AE607C1D]
Copy OK

Track 9

Filename C:\Massive Attack 2003 - 100th Window [Virgin 724358132120]\09 - Antistar.wav

Pre-gap length 0:00:01.54

Peak level 100.0 %
Track quality 100.0 %
Test CRC E1DC11BA
Copy CRC E1DC11BA
Cannot be verified as accurate (confidence 15) [408D5CC6], AccurateRip returned [3136E517]
Copy OK


No tracks could be verified as accurate
You may have a different pressing from the one(s) in the database

No errors occurred

End of status report

foobar2000 1.2 / Dynamic Range Meter 1.1.1
log date: 2017-09-06 23:11:35

––––––––––––––––––––––––––––––––––––––––
Analyzed: Massive Attack / 100th Window
––––––––––––––––––––––––––––––––––––––––

DR Peak RMS Duration Track
––––––––––––––––––––––––––––––––––––––––
DR6 -0.01 dB -8.80 dB 5:39 01-Future Proof
DR8 0.00 dB -11.08 dB 6:39 02-What Your Soul Sings
DR8 0.00 dB -10.50 dB 7:39 03-Everywhen
DR7 -0.01 dB -8.37 dB 5:09 04-Special Cases
DR7 0.00 dB -10.01 dB 7:35 05-Butterfly Caught
DR7 0.00 dB -8.79 dB 5:49 06-A Prayer for England
DR7 0.00 dB -9.78 dB 7:59 07-Small Time Shot Away
DR7 0.00 dB -9.13 dB 7:49 08-Name Taken
DR9 0.00 dB -13.44 dB 19:39 09-Antistar
––––––––––––––––––––––––––––––––––––––––

Number of tracks: 9
Official DR value: DR7

Samplerate: 44100 Hz
Channels: 2
Bits per sample: 16
Bitrate: 613 kbps
Codec: FLAC
================================================================================




Massive Attack - Studio Albums Collection 1991-2010 (5CD) [Re-Up]

Massive Attack - Heligoland (2010)
EAC | FLAC | Tracks (Cue&Log) ~ 298 Mb | Mp3 (CBR320) ~ 121 Mb | Scans ~ 99 Mb
Label: Virgin | # 5099960946621 | Time: 00:53:04

Until 2003's 100th Window, each Massive Attack album had been a discrete record, stylistically distinct and mostly unconnected to what had gone before it (even if it included the same vocalists). By sounding like an inferior copy of the 1998 landmark Mezzanine, 100th Window broke a string and led to negative reviews. Heligoland marks a return to departures. The sound of Massive Attack circa 2010 has some similarities to what the group has done in the past, but overall, this represents a radical shift in music-making. Granted, most of the Massive Attack hallmarks are still here: gripping music laden with tension and dread, a production that sounds fathoms deep, and an insular worldview represented by a cast of vocalists both new and old. (The new voices include Damon Albarn, Hope Sandoval, Elbow's Guy Garvey, and TV on the Radio's Tunde Adebimpe.) What's immediately apparent, however, from the opener "Pray for Rain" is the sparseness and understated air on display here. With Adebimpe on vocals, the track begins with a rattling of bones and a resigned air whose closest predecessor is "In a Lonely Place" by New Order (a group who practically defined the word understated with their music prior to 1982). This certainly isn't the Massive Attack that floated the smoothest British house of the early '90s, and more surprisingly, it's also not the Massive Attack that created dense, immersive trip-hop during the '90s and early 2000s. At times, it's clear that Robert Del Naja and Neil Davidge's work on soundtracks during the 2000s has adversely affected their main project, resulting in music that skirts the background as often as not. Heligoland often sounds like a soundtrack, most likely the score to some dystopic thriller such as Children of Men or 28 Days Later. The album also isn't as experimental as the music Massive Attack made in the past. Unlike Portishead's Third, a classic comeback from their fellow Bristolians, it also lacks the balance of experimentation and emotion (the latter especially has often been a weakness in Massive Attack's output compared to their peers). True, Horace Andy and Hope Sandoval front some impressive productions, and Damon Albarn's "Saturday Come Slow" is one of his best post-Blur features (including Gorillaz), but overall Heligoland lacks the majesty and might of classic Massive Attack.

Review by John Bush, Allmusic.com

Tracklist:

01. Pray For Rain (06:44)
02. Babel (05:19)
03. Splitting The Atom (05:16)
04. Girl I Love You (05:26)
05. Psyche (03:24)
06. Flat Of The Blade (05:30)
07. Paradise Circus (04:57)
08. Rush Minute (04:50)
09. Saturday Come Slow (03:43)
10. Atlas Air (07:48)


Exact Audio Copy V1.0 beta 3 from 29. August 2011

EAC extraction logfile from 21. June 2012, 0:14

Massive Attack / Heligoland

Used drive : Optiarc DVD RW AD-7200S Adapter: 2 ID: 0

Read mode : Secure
Utilize accurate stream : Yes
Defeat audio cache : Yes
Make use of C2 pointers : No

Read offset correction : 48
Overread into Lead-In and Lead-Out : No
Fill up missing offset samples with silence : Yes
Delete leading and trailing silent blocks : No
Null samples used in CRC calculations : Yes
Used interface : Native Win32 interface for Win NT & 2000
Gap handling : Appended to previous track

Used output format : User Defined Encoder
Selected bitrate : 896 kBit/s
Quality : High
Add ID3 tag : No
Command line compressor : C:\Program Files\Exact Audio Copy\1.0beta3\FLAC\FLAC.EXE
Additional command line options : -8 -V -T "ARTIST=%artist%" -T "TITLE=%title%" -T "ALBUM=%albumtitle%" -T "Date=%year%" -T "TRACKNUMBER=%tracknr%" -T "Genre=%genre%" -T "COMMENT=%comment%" %source%


TOC of the extracted CD

Track | Start | Length | Start sector | End sector
––––––––––––––––––––––––––––-
1 | 0:00.00 | 6:44.29 | 0 | 30328
2 | 6:44.29 | 5:19.54 | 30329 | 54307
3 | 12:04.08 | 5:16.47 | 54308 | 78054
4 | 17:20.55 | 5:26.51 | 78055 | 102555
5 | 22:47.31 | 3:24.60 | 102556 | 117915
6 | 26:12.16 | 5:30.25 | 117916 | 142690
7 | 31:42.41 | 4:57.57 | 142691 | 165022
8 | 36:40.23 | 4:50.72 | 165023 | 186844
9 | 41:31.20 | 3:43.58 | 186845 | 203627
10 | 45:15.03 | 7:48.51 | 203628 | 238778


Track 1

Filename C:\Massive Attack 2010 - Heligoland [Virgin 5099960946621, promo]\01 Pray For Rain.wav

Pre-gap length 0:00:02.00

Peak level 98.8 %
Extraction speed 2.6 X
Track quality 99.9 %
Test CRC 6B4F2ADB
Copy CRC 6B4F2ADB
Accurately ripped (confidence 31) [6C3463F6] (AR v2)
Copy OK

Track 2

Filename C:\Massive Attack 2010 - Heligoland [Virgin 5099960946621, promo]\02 Babel.wav

Peak level 100.0 %
Extraction speed 2.8 X
Track quality 99.9 %
Test CRC BE368178
Copy CRC BE368178
Accurately ripped (confidence 31) [0DFC6B54] (AR v2)
Copy OK

Track 3

Filename C:\Massive Attack 2010 - Heligoland [Virgin 5099960946621, promo]\03 Splitting The Atom.wav

Peak level 98.7 %
Extraction speed 3.3 X
Track quality 100.0 %
Test CRC 69CC876A
Copy CRC 69CC876A
Accurately ripped (confidence 30) [2F0660E4] (AR v2)
Copy OK

Track 4

Filename C:\Massive Attack 2010 - Heligoland [Virgin 5099960946621, promo]\04 Girl I Love You.wav

Peak level 100.0 %
Extraction speed 3.3 X
Track quality 99.9 %
Test CRC 340F8FCC
Copy CRC 340F8FCC
Accurately ripped (confidence 31) [1E127154] (AR v2)
Copy OK

Track 5

Filename C:\Massive Attack 2010 - Heligoland [Virgin 5099960946621, promo]\05 Psyche.wav

Peak level 98.8 %
Extraction speed 3.6 X
Track quality 100.0 %
Test CRC 2A4C99D7
Copy CRC 2A4C99D7
Accurately ripped (confidence 31) [F5DDE00A] (AR v2)
Copy OK

Track 6

Filename C:\Massive Attack 2010 - Heligoland [Virgin 5099960946621, promo]\06 Flat Of The Blade.wav

Peak level 99.3 %
Extraction speed 3.7 X
Track quality 99.9 %
Test CRC 47F204EE
Copy CRC 47F204EE
Accurately ripped (confidence 31) [4C48FFFD] (AR v2)
Copy OK

Track 7

Filename C:\Massive Attack 2010 - Heligoland [Virgin 5099960946621, promo]\07 Paradise Circus.wav

Peak level 98.8 %
Extraction speed 4.2 X
Track quality 100.0 %
Test CRC AAE7A8C8
Copy CRC AAE7A8C8
Accurately ripped (confidence 32) [736F517E] (AR v2)
Copy OK

Track 8

Filename C:\Massive Attack 2010 - Heligoland [Virgin 5099960946621, promo]\08 Rush Minute.wav

Peak level 100.0 %
Extraction speed 4.4 X
Track quality 100.0 %
Test CRC AC844BD2
Copy CRC AC844BD2
Accurately ripped (confidence 32) [E391E556] (AR v2)
Copy OK

Track 9

Filename C:\Massive Attack 2010 - Heligoland [Virgin 5099960946621, promo]\09 Saturday Come Slow.wav

Peak level 100.0 %
Extraction speed 3.9 X
Track quality 99.9 %
Test CRC 64C1C229
Copy CRC 64C1C229
Accurately ripped (confidence 31) [23B3950C] (AR v2)
Copy OK

Track 10

Filename C:\Massive Attack 2010 - Heligoland [Virgin 5099960946621, promo]\10 Atlas Air.wav

Peak level 100.0 %
Extraction speed 5.0 X
Track quality 100.0 %
Test CRC 4735C906
Copy CRC 4735C906
Accurately ripped (confidence 31) [23C66998] (AR v2)
Copy OK


All tracks accurately ripped

No errors occurred

End of status report

==== Log checksum CBAFA0A1BC45D77BEF3A4CF7BFAB2F1881553A20A9E5E563D4A45EEBD878D783 ====

foobar2000 1.2 / Dynamic Range Meter 1.1.1
log date: 2017-09-06 23:12:01

––––––––––––––––––––––––––––––––––––––––
Analyzed: Massive Attack / Heligoland
––––––––––––––––––––––––––––––––––––––––

DR Peak RMS Duration Track
––––––––––––––––––––––––––––––––––––––––
DR8 -0.10 dB -9.82 dB 6:44 01-Pray For Rain
DR8 0.00 dB -9.37 dB 5:20 02-Babel
DR8 -0.11 dB -8.82 dB 5:17 03-Splitting The Atom
DR6 0.00 dB -7.79 dB 5:27 04-Girl I Love You
DR10 -0.10 dB -10.88 dB 3:25 05-Psyche
DR8 -0.05 dB -9.81 dB 5:30 06-Flat Of The Blade
DR7 -0.10 dB -10.69 dB 4:58 07-Paradise Circus
DR7 0.00 dB -9.22 dB 4:51 08-Rush Minute
DR7 0.00 dB -9.19 dB 3:44 09-Saturday Come Slow
DR8 0.00 dB -9.89 dB 7:49 10-Atlas Air
––––––––––––––––––––––––––––––––––––––––

Number of tracks: 10
Official DR value: DR8

Samplerate: 44100 Hz
Channels: 2
Bits per sample: 16
Bitrate: 856 kbps
Codec: FLAC
================================================================================





All thanks to original releaser - vitka fomkin

More interesting music in My Blog