Subcategories

Miller-Garrett-Petrucciani-Lagrene-White - Dreyfus Night In Paris (1994) {Dreyfus Jazz}

Posted By: tiburon
Miller-Garrett-Petrucciani-Lagrene-White - Dreyfus Night In Paris (1994) {Dreyfus Jazz}

Miller-Garrett-Petrucciani-Lagrene-White - Dreyfus Night In Paris (1994) {Dreyfus Jazz}
EAC 0.95b3 | FLAC tracks level 8 | Cue+Log+M3U | Full Scans 300dpi | 341MB + 5% Recovery
MP3 CBR 320 Kbps | 126MB + 5% Recovery
Genre: Jazz-Funk, Post-Bop

The unique all-star group featured on this live set from 1994 had not only never performed together before as a band, but most of the musicians had never been on the same stage with each other before. Miles Davis had passed away three years earlier, so the two Marcus Miller pieces, "Tutu" (which sounds surprisingly similar to "So What" during the solos even if the chords are different) and "The King Is Gone" are in tribute to the late trumpeter. "The King Is Gone" is a straight-ahead extended blues, while "Looking Up" has heated solos over a simple vamp. Overall, Kenny Garrett and Michel Petrucciani generally take solo honors (Biréli Lagrène is a bit overshadowed), while Miller and Lenny White keep the rhythms stimulating. Although the three selections are each quite extended, they hold one's interest throughout. Excellent music.
Track List
01. Tutu 16:37
02. The King Is Gone 17:19
03. Looking Up 16:31

musicians
Marcus Miller - electric bass
Kenny Garrett - alto saxophone
Michel Petrucciani - piano
Bireli Lagrene - electric guitar
Lenny White - drums

Recorded live at Palais Des Sports, Paris, France on July 7th, 1994.

Produced by Francis Dreyfus


EAC extraction logfile from 10. February 2007, 13:56 for CD
Miller-Garrett-Petrucciani-Lagrene-White / Dreyfus Night In Paris

Used drive : PLEXTOR DVDR PX-716A Adapter: 1 ID: 0
Read mode : Secure with NO C2, accurate stream, disable cache
Read offset correction : 30
Overread into Lead-In and Lead-Out : No

Used output format : C:\Programmi\Exact Audio Copy\flac-1.1.2-win\bin\flac.exe (User Defined Encoder)
32 kBit/s
Additional command line options : -8 -V %s

Other options :
Fill up missing offset samples with silence : Yes
Delete leading and trailing silent blocks : No
Native Win32 interface for Win NT & 2000


Track 1
Filename F:\[MyRip]\01 - Tutu.wav

Pre-gap length 0:00:02.00

Peak level 100.0 %
Track quality 99.9 %
Test CRC 4CAE153A
Copy CRC 4CAE153A
Copy OK

Track 2
Filename F:\[MyRip]\02 - The King Is Gone.wav

Peak level 100.0 %
Track quality 100.0 %
Test CRC EBA2EEAA
Copy CRC EBA2EEAA
Copy OK

Track 3
Filename F:\[MyRip]\03 - Looking Up.wav

Peak level 100.0 %
Track quality 100.0 %
Test CRC 7F2C1E39
Copy CRC 7F2C1E39
Copy OK

No errors occured


End of status report

––––––––––––––––––––––––––––––

EAC extraction logfile from 10. February 2007, 13:56 for CD
Miller-Garrett-Petrucciani-Lagrene-White / Dreyfus Night In Paris

Used drive : PLEXTOR DVDR PX-716A Adapter: 1 ID: 0
Read mode : Secure with NO C2, accurate stream, disable cache
Read offset correction : 30
Overread into Lead-In and Lead-Out : No

Used output format : C:\Programmi\Exact Audio Copy\flac-1.1.2-win\bin\flac.exe (User Defined Encoder)
32 kBit/s
Additional command line options : -8 -V %s

Other options :
Fill up missing offset samples with silence : Yes
Delete leading and trailing silent blocks : No
Native Win32 interface for Win NT & 2000


Track 1
Filename F:\[MyRip]\01 - Tutu.wav

Pre-gap length 0:00:02.00

Peak level 100.0 %
Track quality 99.9 %
Test CRC 4CAE153A
Copy CRC 4CAE153A
Copy OK

Track 2
Filename F:\[MyRip]\02 - The King Is Gone.wav

Peak level 100.0 %
Track quality 100.0 %
Test CRC EBA2EEAA
Copy CRC EBA2EEAA
Copy OK

Track 3
Filename F:\[MyRip]\03 - Looking Up.wav

Peak level 100.0 %
Track quality 100.0 %
Test CRC 7F2C1E39
Copy CRC 7F2C1E39
Copy OK

No errors occured


End of status report

Miller-Garrett-Petrucciani-Lagrene-White - Dreyfus Night In Paris (1994) {Dreyfus Jazz}
Miller-Garrett-Petrucciani-Lagrene-White - Dreyfus Night In Paris (1994) {Dreyfus Jazz}


Thanks to the original ripper